This file was generated by Ched 2.7.0.0.
#TITLE ""
#ARTIST ""
#DESIGNER ""
#DIFFICULTY 0
#PLAYLEVEL
#SONGID ""
#WAVE ""
#WAVEOFFSET 0
#JACKET ""
#REQUEST "ticks_per_beat 480"
#00002: 4
#BPM01: 140
#00008: 01
#TIL00: "66'0:10000, 66'945:1"
#VOLUME: ""
#HISPEED 00
#MEASUREHS 00
#03018:00000000001600000000000000000000
#03019:00000015000000000000000000000000
#03016:24000000000000000014000014000000
#0301a:00140000000000000000140000000000
#0301b:0000000000000013
#03012:00000000000000001400000000000013
#03017:00000000000000170000000000000000
#03015:0024000000000000
#03014:00240000
#03013:0000002400000000
#03010:41
#03314:00000000000000000000001414001400
#03318:00000000000000001414000000000014
#03312:13
#0331b:13130000
#03316:00130000
#03416:00240014
#03418:0000002400140000
#03412:24000000001400000000001400000000
#0341a:14000014000000001400000000000000
#03414:00002400000000140000000000001400
#04117:0013000000001300
#0411b:13131300
#04112:13130000
#04116:0000001300000000
#04119:0000000000130000
#04218:00130013
#0421b:0000001300000013
#04212:13241324
#04215:0013000000130000
#0421a:2424
#05512:13000013
#0551b:0000130013000013
#05517:0000001300131300
#05516:0013000013000000
#06216:0000000000140000
#06212:00000026
#06218:00000026
#02817:00001313
#02816:00130000
#02812:26000013
#02914:00000014
#02912:0000000000140000
#02916:1300000000000014
#02919:0000001300000000
#02917:0013
#0291b:00130000
#03812:2413
#03814:0000000000130000
#0381b:00130013
#03816:00240013
#03819:0000000000000013
#03817:13
#03810:41
#07412:00140014
#0741a:0014
#07416:2424242424002400
#03115:0000000000000013
#03118:00000000240000000000000000000013
#03112:00140015001600170000140000000000
#0311a:00001414
#03116:24000000000000000014001400000000
#03117:0024000000000000
#03119:0000002400000000
#01215:0000000000120000
#01217:00000012
#01219:0000000000000012
#01216:00000013000013000000000000000000
#0121b:1313
#01212:0013
#0321b:13131300
#03216:0000001300000000
#03212:13001313
#03217:0000000000000013
#03916:0013001300130000
#03914:0000000000000013
#03917:13130013
#0391b:0013000013000000
#03912:13131300
#03919:0000000000000013
#04312:13
#0431b:13
#04317:00130013
#04314:0000000000000013
#04319:0000000000000013
#04316:0013
#01017:0000000000130013
#0101b:0013000013000000
#01016:0013
#01012:0000001300001300
#06816:0014141414140014
#0681a:14141400
#06812:1414000000001400
#06810:41
#04515:0013001300130000
#04518:00000013000000001600001300001300
#04512:13131316
#0451b:00130013
#00112:00130013
#0011c:0012
#0011a:0000000000120000
#00118:00000012
#00116:0000000000000012
#00212:0000130000131300
#00216:0000001200000012
#0031b:00130013
#00312:0012
#00314:0000000000120000
#00316:00000012
#00318:0000000000000012
#0041b:0000130000131300
#00412:0012000000000000
#00414:00120012
#00416:0000001200120000
#00512:00130013
#00518:1212121200120012
#00516:0012
#0051a:00000012
#00612:0000130000131300
#00616:0000001200000012
#0071a:14141414
#00712:12
#00717:0012
#00812:14141414
#00817:0000000000000000000000001200000012000000000000000000005454540000
#0081c:12
#00814:0000000000000000000000000000000000000000000000000054000000000054
#00816:00000000000000000000000000540054
#00916:0000130000000013
#00912:6400000000130000
#00914:00000013
#00917:0013000013000000
#0091b:13
#00910:41
#01112:13130013
#0111b:13
#01117:00130013
#01116:0013
#01315:00120000
#01313:0012
#01316:00000012
#01312:22
#01414:12
#01416:0000000000000012
#01412:0000121200000000
#01516:1212
#01512:0012000000001212
#02114:00120000
#02113:0012
#02112:22000012
#0211b:13
#02117:0013
#02110:41
#02216:1200000000000012
#02212:00120000
#0221b:13
#02217:0013
#02312:0012
#02316:00000012
#0231b:13
#02317:0013
#02414:0000000000120000
#02416:00000012
#02418:0000000000000012
#0241b:13
#02417:0013
#0251c:12000012
#0251a:00120000
#0251b:0012
#02512:13
#02516:0013
#02618:1200000000000012
#0261c:00120000
#02612:13
#02616:0013
#02712:13
#02716:0013
#0271c:0012
#0271a:0000000000120000
#02718:00000012
#03516:00240014
#03514:00000000000024000000140000000014
#0351a:24000000001400000000001400000000
#03512:14000014000000001400000000000000
#03518:00002400000000140000000000001400
#03619:0000000000000014
#03613:0000000000000014
#0361a:1400001414000000
#03612:24000014000000001400000000000000
#04016:2413
#04014:0000000000130000
#04017:00130013
#04012:00240013
#0401b:13
#04019:0000000000000013
#03712:1626162616002600
#03718:2616261626001600
#04417:0013
#0441b:13
#04416:13
#04412:0013
#04916:0013000000001300
#04912:1300130013000013
#0491b:1300130000000013
#04917:0000001300000000
#05015:00000013
#05012:2300000013000013
#0501b:00231313
#05018:0000000000130000
#05016:14140000
#05010:41
#0511b:13
#05112:13
#05116:00130013
#05119:0000000000000013
#05114:0000000000000013
#05117:0013
#05216:0013
#05212:13
#05217:13
#0521b:0013
#0531b:13000013
#05312:00000000130013001300000000130000
#05318:0000000000000013
#05315:00000000000000000000000000000013
#05316:00130000
#0541b:0000130000131300
#05412:1313
#05416:00000013
#05417:0000000000000013
#0541a:24
#06516:14000000000000000000000000000014
#06518:00140000000000000000000000140000
#06514:0014000000000014
#06519:00000014000000000000001400000000
#06513:00140014
#0651a:00000000001400140014000000000000
#06512:0000001414140000
#0641a:14140000
#06418:0014001400000000
#06414:0000000000140014
#06412:13000014
#0641b:0013
#06417:00000013
#06416:00130000
#06316:0013000013000000
#06312:13000013
#06318:0000000000000013
#06315:00000000000000000000000000000013
#06317:1300000000130000
#0631b:00131300
#06314:0000001300000000
#06712:14140000
#06716:0014260000140014
#06718:26
#0671f:21
#0691a:14140000
#06916:0014000000140014
#06912:26
#06914:00260000
#07012:1400000000140000
#0701a:1400000000140000
#07316:1400140000140014
#0731a:14000014
#07312:0014
#07112:14140026
#07114:0014000026000000
#0711a:00001414
#07116:0000261400140000
#07118:2600000000000014
#0721a:14
#07212:1414
#07214:0000000000000014
#07218:0000000000000014
#07216:0000140000141400
#0761b:1300001300130000
#07619:00130013
#07614:00130013
#07617:0000000000000013
#07612:0013000013000013
#07616:1400001314000000
#07512:0000130000000013
#07514:00000013
#07519:00000013
#07516:1300001300130000
#0751b:1300000000130000
#07517:0013000013000013
#07916:000000000000000000000000000000000000000000140000140000000000000000000000000054000000000000000000
#07912:00000000000000000000000000000000000000000000000000000000000014000000000000000000005555555657585a
#0791a:0000000000141400
#07918:000000000000000000000000000000000000000000000000000000000000000000000000005400000000000000000000
#07914:00000000000000000000000000550000
#07913:000000000055
#07718:26130000
#0771b:0000000000000000000000130000000000000000000000000000000000000000
#07715:00130000
#07712:2600000000000000000000130000000000000000000000000000000024000000
#07717:000000000000000000000000000000000000000000000000000000000000000000000000000000000000000000000000000000000000000000000000000000000000000000000000000000000000000000000000000000000000000000000000000000000000000000000000000000000000000000000000000000000000000000000000000000000000000000000000000000000000000000000000000000000000000000000000000000000000000000000000000000000000000000000000000000000000000000000000000000000000000000000000000000000000000000000000000000000000000000000000000000000000000000000000000000000000000000000000000000000000000000000000000000000000000000000000000000000000000000000000000000000000000000000000000000000000000000000000000000000000000000000000000000000000000000000000000000000000000000000000000000000000000000000000000000000000000000000000000000000000000000000000000000000000000000000000000000000000000000000000000000000000000000000000000000000000000000000000000000000000000000000000000000000000000000000000000000000000000000000000000000000000000000000000000000000000000000000000000000000000000000000000000000000000000000000000000000000000000000000000000000000000000000000000000000000000000000000000000000000000000000000000000000000000000000000000000000000000000000000000000000000000000000000000000000000000000000000000000000000000000000000000000000000000000000000000000000000000000000000000000000000000000000000000000000000000000000000000000000000000000000000000000000000000000000000000000000000000000000000000000000000000000000000000000000000000000000000000000000000000000000000000000000000000000000000000000000000000000000000000000000000000000000000000000000000000000000000000000000000000000000000000000000000000000000000000000000000000000000000000000000000000000000000000000000000000000000000000000000000000000000000000000000000000000000000000000000000000000000000000000000000000000000000000000000000000000000000000000000000000000000000000000000000000000000000000000000000000000000000000121200000000000000000000000000000000000000000000000000000000000000000000000000000000000000000000000000000000000000000000000000000000000000000000000000000000000000000000000000000000000000000000000000000000000000000000000000000000000000000000000000000000000000000000000000000000000000000000000000000000000000000000000000000000000000000000000000000000000000000000000000000000000000000000000000000000000000000000000000000000000000000000000000000000000000000000000000000000000000000000000000000000000000000000000000000000000000000000000000000000000000000000000000000000000000000000000000000000000000000000000000000000000000000000000000000000000000000000000000000000000000000000000000000000000000000000000000000000000000000000000000000000000000000000000000000000000000000000000000000000000000000000000000000000000000000000000000000000000000000000000000000000000000000000000000000000000000000000000000000000000000000000000000000000000000000000000000000000000000000000000000000000000000000000000000000000000000000000000000000000000000000000000000000000000000000000000000000000000000000000000000000000000000000000000000000000000000000000000000000000000000000000000000000000000000000000000000000000000000000000000000000000000000000000000000000000000000000000000000000000000000000000000000000000000000000000000000000000000000000000000000000000000000000000000000000000000000000000000000000000000000000000000000000000000000000000000000000000000000000000000000000000000000000000000000000000000000000000000000000000000000000000000000000000000000000000000000000000000000000000000000000000000000000000000000000000000000000000000000000000000000000000000000000000000000000000000000000000000000000000000000000000000000000000000000000000000000000000000000000000000000000000000000000000000000000000000000000000000000000000000000000000000000000000000000000000000000000000000000000000000000000000000000000000000000000000000000000000000000000000
#0771a:0000000000000024
#0581c:0000000052120000
#0581a:0000005200001200
#05818:0012120000000012
#0581f:11
#05819:00000000005200000000000000000000
#0581b:00000000000000520000000000000000
#05919:0012000000000000
#05917:00120000
#0591b:12000012
#0591a:0000001200000000
#05914:0000000000120012
#05916:00001212
#05918:00000000000000000012000000000000
#0601b:12
#0601a:00121212
#06018:0012000000120000
#06016:0000001200000012
#06118:0000120000120000
#0611a:1200001200001200
#0611c:0000000012000012
#06114:12
#06116:0012000000000000
#0461b:0013
#04619:0000000000130000
#04612:00130013
#04617:00000013
#04614:0000000000000013
#04616:13240000
#0461a:24
#04717:0013001300130000
#04719:0000000000000013
#04716:13130013
#04712:0013000013000000
#0471b:13131300
#04714:0000000000000013
#04817:0013
#04819:0000000000130000
#04816:24130013
#0481b:00000013
#04812:13
#04814:0000000000000013
#0481a:00240000
#01612:0000000000120000
#01614:00000012
#01616:0000000000000012
#08012:6c00130000131300
#0801b:0000000013000013
#08017:00130013
#0811b:1300131300000000
#08112:1313000013000000
#08116:0000000000130013
#08117:00000013
#0821b:13131313
#08212:13130013
#08217:0000000000130000
#08216:0013000000000000
#08317:00000013000000000000000000000000
#08312:13000026
#0831b:0000001300000000
#08318:00001326
#08315:0013
#0571a:0014
#05618:13000000000000520000000000000054
#05615:13000000000000000000005300000000
#05612:00120014
#0561b:0013
#05617:0000000000530000
#05619:00000000000000000053000000000000
#05616:0000005200000054
#05614:00000000005200000000000000540000
#01719:00120000
#0171b:0012
#01718:00000012
#0181a:12
#01818:0000000000000012
#0181c:0000121200000000
#01918:1212
#0191c:0012000000001212
#0201c:0000000000120000
#0201a:00000012
#02018:0000000000000012
#06616:24
#07818:2600002426000000
#07814:0000002400000000
#07812:2626
#03456:00000014
#06252:00000016
#06258:00000016
#07452:00000034
#0745a:4444
#02852:16
#02856:00630000
#02857:00000053
#00454:00000012
#0085c:62000012
#00857:0052
#00752:52
#00757:0062
#00956:0000630000000063
#0095b:63430000
#00957:0023000053000000
#00952:34
#01057:0000000000230000
#0105b:0063000063000000
#01152:13530053
#0115b:6313
#01157:00530053
#01156:0063
#01256:13000023000000000000000000000000
#0125b:6313
#01552:0022000000000052
#01556:62
#0225b:63
#02257:0053
#0215b:63
#02157:0053
#02152:12
#0245b:63
#02457:0053
#0235b:63
#02357:0053
#02652:53
#02656:0063
#02552:53
#02556:0063
#02752:53
#02756:0063
#02956:63
#02957:0053
#03252:53
#0325b:0063
#03352:53
#03356:00230000
#03556:00000014
#0395b:0063000000000000
#03957:00230000
#03952:0053
#03956:0000000000230000
#04056:34
#04052:00340000
#0405b:63
#04057:00530000
#03852:34
#03856:00340000
#03857:53
#0385b:00630000
#03752:0036
#03758:00000046
#04156:0000006300000000
#04157:00000013
#04152:00000013
#04558:0046
#04552:00000036
#0455b:13
#0445b:63130000
#04452:00005313
#04457:0063
#04456:53
#04957:0000005300000000
#05256:0053
#05252:53130000
#05257:63
#0525b:00006313
#05056:14140000
#0535b:6343
#05356:00230000
#05352:1353
#0545a:14
#05456:00130063
#05452:5353
#0545b:00630000
#05457:0000000000000053
#06652:0000001c
#0635b:0063
#06352:53
#06356:0023000000000000
#06357:0000000000230000
#0645b:0063
#06457:00000023
#06452:53
#06456:00230000
#06752:54540000
#06758:46
#06756:0024460000340044
#0695a:64640000
#06956:0024000000440034
#06952:36
#06954:00360000
#06852:0054000000000000
#06856:0000240000240000
#0685a:0064
#07356:6400540000240024
#07352:00145434
#0735a:14001464
#08352:53000036
#08358:00000046
#08357:00000023000000000000000000000000
#0835b:13
#07656:0000006300000000
#07652:0023
#0765b:23
#07557:0023000000000053
#07552:00530000
#07556:0000002300000000
#0755b:63
#07252:0054
#07256:0000000000240000
#07052:0000000000540000
#0705a:0000000000640000
#07058:00000044
#07054:00000034
#0795c:00120000
#07952:00120000
#07858:6656
#07852:5666
#07758:66530000
#0775b:0000000000000000000000230000000000000000000000000000000000000000
#07755:00630000
#07752:5600000000000000000000230000000000000000000000000000000000000000
#07757:000000000000000000000000000000000000000000000000000000000000000000000000000000000000000000000000000000000000000000000000000000000000000000000000000000000000000000000000000000000000000000000000000000000000000000000000000000000000000000000000000000000000000000000000000000000000000000000000000000000000000000000000000000000000000000000000000000000000000000000000000000000000000000000000000000000000000000000000000000000000000000000000000000000000000000000000000000000000000000000000000000000000000000000000000000000000000000000000000000000000000000000000000000000000000000000000000000000000000000000000000000000000000000000000000000000000000000000000000000000000000000000000000000000000000000000000000000000000000000000000000000000000000000000000000000000000000000000000000000000000000000000000000000000000000000000000000000000000000000000000000000000000000000000000000000000000000000000000000000000000000000000000000000000000000000000000000000000000000000000000000000000000000000000000000000000000000000000000000000000000000000000000000000000000000000000000000000000000000000000000000000000000000000000000000000000000000000000000000000000000000000000000000000000000000000000000000000000000000000000000000000000000000000000000000000000000000000000000000000000000000000000000000000000000000000000000000000000000000000000000000000000000000000000000000000000000000000000000000000000000000000000000000000000000000000000000000000000000000000000000000000000000000000000000000000000000000000000000000000000000000000000000000000000000000000000000000000000000000000000000000000000000000000000000000000000000000000000000000000000000000000000000000000000000000000000000000000000000000000000000000000000000000000000000000000000000000000000000000000000000000000000000000000000000000000000000000000000000000000000000000000000000000000000000000000000000000000000000000000000000000000000000000000000000000000000000000000000000000000000000526200000000000000000000000000000000000000000000000000000000000000000000000000000000000000000000000000000000000000000000000000000000000000000000000000000000000000000000000000000000000000000000000000000000000000000000000000000000000000000000000000000000000000000000000000000000000000000000000000000000000000000000000000000000000000000000000000000000000000000000000000000000000000000000000000000000000000000000000000000000000000000000000000000000000000000000000000000000000000000000000000000000000000000000000000000000000000000000000000000000000000000000000000000000000000000000000000000000000000000000000000000000000000000000000000000000000000000000000000000000000000000000000000000000000000000000000000000000000000000000000000000000000000000000000000000000000000000000000000000000000000000000000000000000000000000000000000000000000000000000000000000000000000000000000000000000000000000000000000000000000000000000000000000000000000000000000000000000000000000000000000000000000000000000000000000000000000000000000000000000000000000000000000000000000000000000000000000000000000000000000000000000000000000000000000000000000000000000000000000000000000000000000000000000000000000000000000000000000000000000000000000000000000000000000000000000000000000000000000000000000000000000000000000000000000000000000000000000000000000000000000000000000000000000000000000000000000000000000000000000000000000000000000000000000000000000000000000000000000000000000000000000000000000000000000000000000000000000000000000000000000000000000000000000000000000000000000000000000000000000000000000000000000000000000000000000000000000000000000000000000000000000000000000000000000000000000000000000000000000000000000000000000000000000000000000000000000000000000000000000000000000000000000000000000000000000000000000000000000000000000000000000000000000000000000000000000000000000000000000000000000000000000000000000000000000000000000000000000000000000
#0615c:0000000000000012
#06156:0000000000000012
#04752:0053000000000000
#04756:00230000
#0475b:0063
#04757:0000000000230000
#04656:63440000
#04652:00530000
#0465a:44
#04852:53
#04856:44630000
#0485a:00440000
#05157:0053
#04356:0063
#05556:0063000063000000
#05552:00000053
#08152:0053000053000000
#08156:0000000000230000
#0815b:0000006300000000
#08157:00000053
#0825b:13636363
#08252:53531353
#08257:0000000000230000
#08256:0023000000000000
#08052:4c530053
#0805b:0063
#0575a:0064
#05752:00000014
#05658:53
#05655:63
#05652:0013000000000000
#0565b:0013000000000000
#03652:00000054000000005400000000000000
#0365a:6464
#01452:0000002200000000
#0195c:0022000000000062
#01958:52
#0185c:0000002200000000
#0013a0:12220000
#0023c0:0012000000000000
#0023a0:0000002200000000
#0023a0:0012
#002380:00000022
#003340:12220000
#0063c0:0012000000000000
#0063a0:0000002200000000
#0063a0:0012
#006380:00000022
#007320:12
#007370:00220000
#007370:0012
#007320:00000022
#0083c0:12
#008370:00220000
#008370:0012
#0083c0:00000022
#0093b0:13230000
#009370:0053000000000000
#009361:00130000
#009321:0023
#009370:0013
#0093b0:0000000000000023
#009361:0000000000000013
#010321:5323000000000000
#0103b0:0013000000000000
#010370:0000532300000000
#0103b0:00001323
#010370:0000000000530000
#0113b0:1323
#011370:00330000
#011321:00130033
#011361:0033
#012361:23
#011370:00000013
#0123b0:3300002300000000
#012360:00000053000000000000000000000000
#0133c0:1200000000520000520000000052000052000000005200005200000000520000
#0133b0:0052000052000000005200005200000000520000520000000052000052000000
#0143c0:5200000000520000520000000052000052000000005200005200000000520000
#0143b0:0052000052000000005200005200000000520000520000000052000052000000
#0153c0:5200000000520000520000000052000052000000005200005200000000520000
#0153b0:0052000052000000005200005200000000520000520000000052000052000000
#0163c0:5200000000520000520000000052000052000000005200005200000000520000
#0163b0:0052000052000000005200005200000000520000520000000052000052000000
#0173c0:22
#014321:0000001200000000
#014361:00000022
#015361:12220000
#015321:0052000000000000
#015321:0000000000000012
#016361:00220000
#017321:1200000000520000520000000052000052000000005200005200000000520000
#017331:0052000052000000005200005200000000520000520000000052000052000000
#018321:5200000000520000520000000052000052000000005200005200000000520000
#018331:0052000052000000005200005200000000520000520000000052000052000000
#019321:5200000000520000520000000052000052000000005200005200000000520000
#019331:0052000052000000005200005200000000520000520000000052000052000000
#020321:5200000000520000520000000052000052000000005200005200000000520000
#020331:0052000052000000005200005200000000520000520000000052000052000000
#021321:22
#0183c0:0000001200000000
#018380:00000022
#019380:12220000
#0193c0:0052000000000000
#0193c0:0000000000000012
#020380:00220000
#0213b0:13
#021370:00230000
#021370:0013
#0213b0:00000023
#0223b0:13
#022370:00230000
#022320:0000001200000000
#022360:00000022
#022371:0013
#0223b1:00000023
#023361:12
#023321:00220000
#0233b0:13
#023370:00230000
#023370:0013
#0233b0:00000023
#023360:0000000000000012
#024320:00220000
#0243b1:13
#024371:00230000
#024371:0013
#0243b1:00000023
#025321:13
#025361:00230000
#025361:0013
#025321:00000023
#026321:13
#026361:00230000
#0263c1:0000001200000000
#026381:00000022
#026360:0013
#026320:00000023
#027320:13
#027360:00230000
#027381:12
#0273c1:00220000
#027361:0013
#027321:00000023
#027381:0000000000000012
#0283c1:00220000
#028360:00130000
#028320:0023
#028370:00000013
#0293b0:23
#029361:13
#029321:0023
#029370:0013
#0293b0:0000000000000023
#032320:13
#032360:00230000
#0323b0:0013
#032370:00000023
#033320:1323
#033360:00530000
#0363a0:14
#036360:00000024000000000000000000000000
#036321:00000014000000000000000000000000
#036361:0000002400000000
#036321:0014
#036361:00000022
#0363a0:0014
#036380:00000022
#038370:1323
#0383b0:00330000
#0393b0:0013002300000000
#039370:00530000
#039320:00001323
#039360:0000000000530000
#0403b0:1323
#040370:00330000
#041360:0000001300000000
#041320:00000023
#043320:0013230000000000
#0433b0:0000001323000000
#043361:0013
#043321:00000023
#0443b1:13
#044321:0033
#0453b1:23
#044360:13
#0443b0:00230000
#044370:0013
#044320:00000023
#046361:1323
#046321:00330000
#047321:0013002300000000
#047361:00530000
#0473b1:00001323
#047371:0000000000530000
#048321:1323
#048361:00330000
#049371:0000001300000000
#0493b1:00000023
#0513b1:0013230000000000
#051321:0000001323000000
#051370:0013
#0513b0:00000023
#052320:13
#0523b0:0033
#053320:23
#052371:13
#052321:00230000
#052361:0013
#0523b1:00000023
#0533b1:1323
#053361:00530000
#053320:0013
#053360:00000023
#054320:13
#054360:00230000
#0543b1:00130000
#054371:0023
#054320:0013
#054360:0000000000230000
#054360:00000013
#054320:0000000000000023
#054371:0000000000000013
#0553b1:5323000000000000
#055360:0013000000000000
#055320:0000532300000000
#055360:0013
#055320:0000000000230000
#055320:00000013
#055360:0000000000000023
#056380:13
#0563b0:0023000000000000
#056351:13
#056321:0023000000000000
#0573a1:1454545454545454545454545454545434000000000000000000000000000000
#0573b1:00520052005200520052005200520052005200520052005200520052005200520000000000000000000000000000000000000000000000000000000000000000
#057321:00000024
#057360:000000000000000000000000000000000000000000000000145454545454545454545454545454545454545454545454
#057370:000000000000000000000000000000000000000000000000000000000000000000000000000000000000000000000000005200520052005200520052005200520052005200520052005200520052005200520052005200520052005200520052
#058360:24
#058341:12220000
#058361:00001222
#059321:12220000
#060341:12220000
#060321:00001222
#061361:0000000012000022
#063321:13230000
#063361:0053000000000000
#0633b1:00001323
#063371:0000000000530000
#064321:1323
#064361:00530000
#0643b0:0013
#064370:00000053
#0653b0:23
#066360:140000000000005400000000000000000000000000000000000000000000000000000000000000000000000000000000000000000000000000000000
#066350:000000000000000000000000000000000000000000000000000000000000000000000000000000000000000000000000000000000000000000000000000000000000000000000000000000000000000000000000000000000000000000000000000000000000000000000000000000000000000000000000000000000000000000000000000000000000000000000000000000000000000000000000000000000000000000000000000000000000000000000000000000000000000000000000000000000000000000000000000000000000000000000000000000000000000000560000000000000000000000000000360000000000000000000000000000000000000000000000000000000000000000000000000000000000000000000000000000000000000000000000000000000000000000000000000000000000000000000000000000000000000000000000000000000000000000000000000000000000000000000000000000000000000000000000000000000000000000000000000000000000000000000000000000000000000000000000000000000000000000000000000000000000000000000000000000000000000000000000000000000000000000000000000000000000000056000000000000000000000000000000000000000000000000000000000000000000000000000000000000000000000000000000000000000000000000000000000000000000000000000000000000000000000000000000000000000000000000000000000000000000000000000000000000000000000000000000000000000000000000000000000000000000000000000000000000000000000000000000000000000000000000000000000000000000000000000000000000000000000000000000000000000000000000000000000000000000000000000000000000000000000000000000000000000000000000000000000000000000000000000000000000000000000000000000000000000000000000000000000000000000000000000000000000000000000000000000000000000000000000000000000000000000000000000000000000000000000000000000000000000000000000000000000000000000000000000000000000000000000000000000000000000000000000000000000000000000000000000000000000000000000000000000000000000000000000000000000000000000000000000000000000000000000000000000000000000000000000000000000000000000000000000000000000000000000000000000000000000000000000000000000000000000000000000000000000000000000000000000000000000000000000000000000000000000000000000000000000000000000000000000000000000000000000000000000000000000000000000000000000000000000000000000000000000000000000000000000000000000000000000000000000000000000000000000000000000000000000000000000000000000000000000000000000000000000000000000000000000000000000000000000000000000000000000000000000000000000000000000000000000000000000000000000000000000000000000000000000000000000000000000000000000000000000000000000000000000000000000000000000000000000000000000000000000000000000000000000000000000000000000000000000000000000000000000000000000000000000000000000000000000000000000000000000000000000000000000000000000000000000000000000000000000000000000000000000000000000000000000000000000000000000000000000000000000000000000000000000000000000000000000000000000000000000000000000000000000000000000000000000000000000000000000000000000000000000000000000000000000000000000000000000000000000000000000000000000000000000000000000000000000000000000000000000000000000000000000000000000000000000000000000000000000000000000000000000000000000000000000000000000000000000000000000000000000000000000000000000000000000000000000000000000000000000000000000000000000000000000000000000000000000000000000000000000000000000000000000000000000000000000000000000000000000000000000000000000000000000000000000000000000000000000000000000000000000000000000000000000000000000000000000000000000000000000000000000000000000000000000000000000000000000000000000000000000000000000000000000000000000000000000000000000000000000000000000000000000000000000000000000000000000000000000000000000000000000000000000000000000000000000000000000000000000000000000000000000000000000000000000000000000000000000000000000000000000000000000000000000000000000000000000000000000000000000000000000000000000000000000000000000000000000000000000000000000000000000000000000000000000000000000
#066340:000000000000000000000000000000000000000000000000000000000000000000000000000000000000000000000000000000000000000000000000000000000000000000000000000000000000000000000000000000000000000000000000000000000000000000000000000000000000000000000000000000000000000000000000000000000000000000000000000000000000000000000000000000000000000000000000000000000000000000000000000000000000000000000000000000000000000000000000000000000000000000000000000000000000000000000000000000000000000000000000000000000000000000000000000000000000000000000000000000000000000000000000000000000000000000000000000000000000000000000000000000000000000000000000000000000000000000000000000000000000000000000000000000000000000000000000000000000000000000000000000000000000000000000000000000000000000000000000000000000000000000000000000000000000000000000000000000000000000000000000000000000000000000000000000000000000000000000000000000000000000000000000000000000000000000580000000000000000000000000000380000000000000000000000000000000000000000000000000000000000000000000000000000000000000000000000000000000000000000000000000000000000000000000000000000000000000000000000000000000000000000000000000000000000000000000000000000000000000000000000000000000000000000000000000000000000000000000000000000000000000000000000000000000000000000000000000000000000000000000000000000000000000000000000000000000000000000000000000000000000000000000000000000000000000058000000000000000000000000000000000000000000000000000000000000000000000000000000000000000000000000000000000000000000000000000000000000000000000000000000000000000000000000000000000000000000000000000000000000000000000000000000000000000000000000000000000000000000000000000000000000000000000000000000000000000000000000000000000000000000000000000000000000000000000000000000000000000000000000000000000000000000000000000000000000000000000000000000000000000000000000000000000000000000000000000000000000000000000000000000000000000000000000000000000000000000000000000000000000000000000000000000000000000000000000000000000000000000000000000000000000000000000000000000000000000000000000000000000000000000000000000000000000000000000000000000000000000000000000000000000000000000000000000000000000000000000000000000000000000000000000000000000000000000000000000000000000000000000000000000000000000000000000000000000000000000000000000000000000000000000000000000000000000000000000000000000000000000000000000000000000000000000000000000000000000000000000000000000000000000000000000000000000000000000000000000000000000000000000000000000000000000000000000000000000000000000000000000000000000000000000000000000000000000000000000000000000000000000000000000000000000000000000000000000000000000000000000000000000000000000000000000000000000000000000000000000000000000000000000000000000000000000000000000000000000000000000000000000000000000000000000000000000000000000000000000000000000000000000000000000000000000000000000000000000000000000000000000000000000000000000000000000000000000000000000000000000000000000000000000000000000000000000000000000000000000000000000000000000000000000000000000000000000000000000000000000000000000000000000000000000000000000000000000000000000000000000000000000000000000000000000000000000000000000000000000000000000000000000000000000000000000000000000000000000000000000000000000000000000000000000000000000000000000000000000000000000000000000000000000000000000000000000000000000000000000000000000000000000000000000000000000000000000000000000000000000000000000000000000000000000000000000000000000000000000000000000000000000000000000000000000000000000000000000000000000000000000000000000000000000000000000000000000000000000000000000000000000000000000000000000000000000000000000000000000000000000000000000000000000000000000000000000000000000000000000000000000000000000000000000000000000000000000000000000000000000000000000000000000000
#066330:0000000000000000000000000000000000000000000000000000000000000000000000000000000000000000000000000000000000000000000000000000000000000000000000000000000000000000000000000000000000000000000000000000000000000000000000000000000000000000000000000000000000000000000000000000000000000000000000000000000000000000000000000000000000000000000000000000000000000000000000000000000000000000000000000000000000000000000000000000000000000000000000000000000000000000000000000000000000000000000000000000000000000000000000000000000000000000000000000000000000000000000000000000000000000000000000000000000000000000000000000000000000000000000000000000000000000000000000000000000000000000000000000000000000000000000000000000000000000000000000000000000000000000000000000000000000000000000000000000000000000000000000000000000000000000000000000000000000000000000000000000000000000000000000000000000000000000000000000000000000000000000000000000000000000000000000000000000000000000000000000000000000000000000000000000000000000000000000000000000000000000000000000000000000000000000000000000000000000000000000000000000000000000000000000000000000000000000000000000000000000000000000000000000000000000000000000000000000000000000000000000000000000000000000000000000000000000000000000000000000000000000000000000000000000000000000000000000000000000000000000000000000000000000000000000000000000000000000000000000000000000000000000000000000000000005a00000000000000000000000000003a000000000000000000000000000000000000000000000000000000000000000000000000000000000000000000000000000000000000000000000000000000000000000000000000000000000000000000000000000000000000000000000000000000000000000000000000000000000000000000000000000000000000000000000000000000000000000000000000000000000000000000000000000000000000000000000000000000000000000000000000000000000000000000000000000000000000000000000000000000000000000000000000000000000000005a000000000000000000000000000000000000000000000000000000000000000000000000000000000000000000000000000000000000000000000000000000000000000000000000000000000000000000000000000000000000000000000000000000000000000000000000000000000000000000000000000000000000000000000000000000000000000000000000000000000000000000000000000000000000000000000000000000000000000000000000000000000000000000000000000000000000000000000000000000000000000000000000000000000000000000000000000000000000000000000000000000000000000000000000000000000000000000000000000000000000000000000000000000000000000000000000000000000000000000000000000000000000000000000000000000000000000000000000000000000000000000000000000000000000000000000000000000000000000000000000000000000000000000000000000000000000000000000000000000000000000000000000000000000000000000000000000000000000000000000000000000000000000000000000000000000000000000000000000000000000000000000000000000000000000000000000000000000000000000000000000000000000000000000000000000000000000000000000000000000000000000000000000000000000000000000000000000000000000000000000000000000000000000000000000000000000000000000000000000000000000000000000000000000000000000000000000000000000000000000000000000000000000000000000000000000000000000000000000000000000000000000000000000000000000000000000000000000000000000000000000000000000000000000000000000000000000000000000000000000000000000000000000000000000000000000000000000000000000000000000000000000000000000000000000000000000000000000000000000000000000000000000000000000000000000000000000000000000000000000000000000000000000000000000000000000000000000000000000000000000000000000000000000000000000000000000000000000000000000000000000000000000000000000000000000000000000000000000000000000000000000000000000000000000000000000000000000000000000000000000000000000000000000000000000000000000000000000000000000000000000000000000000000000000000000000000000000000000000000000000000000000000000000000000000000
#066320:0000000000000000000000000000000000000000000000000000000000000000000000000000000000000000000000000000000000000000000000000000005c3c000000000000000000000000000000000000000000000000000000000000002c00000000000000000000000000000000000000000000000000000000000000
#067320:14340000
#067360:0054000024000000
#0673a1:0000000014240000
#067321:0000000000001424
#068321:0014002400000000
#068361:00540000
#0683a1:00001424
#068361:0000000000540000
#0693a1:14340000
#069361:0054000024000000
#069320:0000000014240000
#0693a0:0000000000001424
#070380:0014240000000000
#070341:0000142400000000
#0703a0:0000001424000000
#070321:0000000014340000
#070381:00000024
#0703a0:0000000000140000
#070340:00000024
#072320:0014240000000000
#0723a0:0000001424000000
#072321:00001424
#072361:0000000000540000
#073361:14
#073321:00240000
#073360:00140000
#0733a0:0024
#073321:00001424
#073361:0000000000540000
#0733a0:00000014
#073360:0000000000000054
#0743a0:24
#0753b0:13230000
#075370:0053000000000000
#075321:00132300
#075361:0000005300000000
#075371:0000000000000013
#0763b1:53
#076371:0023000000000000
#076361:0000001300230000
#076321:0053
#077381:16330000
#0773b1:0000000000000000000000530000000000000000000000000000000000000000
#077371:0032
#077321:0000000000000000000000000000000000000000005200002200000000000000
#077320:1600000000000000000000530000000000000000000000000000000000000000
#077350:00330000
#077370:000000000000000000000000000000000000000000000000000000000000000000000000000000000000000000000000000000000000000000000000000000000000000000000000000000000000000000000000000000000000000000000000000000000000000000000000000000000000000000000000000000000000000000000000000000000000000000000000000000000000000000000000000000000000000000000000000000000000000000000000000000000000000000000000000000000000000000000000000000000000000000000000000000000000000000000000000000000000000000000000000000000000000000000000000000000000000000000000000000000000000000000000000000000000000000000000000000000000000000000000000000000000000000000000000000000000000000000000000000000000000000000000000000000000000000000000000000000000000000000000000000000000000000000000000000000000000000000000000000000000000000000000000000000000000000000000000000000000000000000000000000000000000000000000000000000000000000000000000000000000000000000000000000000000000000000000000000000000000000000000000000000000000000000000000000000000000000000000000000000000000000000000000000000000000000000000000000000000000000000000000000000000000000000000000000000000000000000000000000000000000000000000000000000000000000000000000000000000000000000000000000000000000000000000000000000000000000000000000000000000000000000000000000000000000000000000000000000000000000000000000000000000000000000000000000000000000000000000000000000000000000000000000000000000000000000000000000000000000000000000000000000000000000000000000000000000000000000000000000000000000000000000000000000000000000000000000000000000000000000000000000000000000000000000000000000000000000000000000000000000000000000000000000000000000000000000000000000000000000000000000000000000000000000000000000000000000000000000000000000000000000000000000000000000000000000000000000000000000000000000000000000000000000000000000000000000000000000000000000000000000000000000000000000000000000000000000000000000000000000000005200000000000000000000000000000000000000000000000000000000000000000000000000000000000000000000000000000000000000000000000000000000000000000000000000000000000000000000000000000000000000000000000000000000000000000000000000000000000000000000000000000000000000000000000000000000000000000000000000000000000000000000000000000000000000000000000000000000000000000000000000000000000000000000000000000000000000000000000000000000000000000000000000000000000000000000000000000000000000000000000000000000000000000000000000000000000000000000000000000000000000000000000000000000000000000000000000000000000000000000000000000000000000000000000000000000000000000000000000000000000000000000000000000000000000000000000000000000000000000000000000000000000000000000000000000000000000000000000000000000000000000000000000000000000000000000000000000000000000000000000000000000000000000000000000000000000000000000000000000000000000000000000000000000000000000000000000000000000000000000000000000000000000000000000000000000000000000000000000000000000000000000000000000000000000000000000000000000000000000000000000000000000000000000000000000000000000000000000000000000000000000000000000000000000000000000000000000000000000000000000000000000000000000000000000000000000000000000000000000000000000000000000000000000000000000000000000000000000000000000000000000000000000000000000000000000000000000000000000000000000000000000000000000000000000000000000000000000000000000000000000000000000000000000000000000000000000000000000000000000000000000000000000000000000000000000000000000000000000000000000000000000000000000000000000000000000000000000000000000000000000000000000000000000000000000000000000000000000000000000000000000000000000000000000000000000000000000000000000000000000000000000000000000000000000000000000000000000000000000000000000000000000000000000000000000000000000000000000000000000000000000000000000000000000000000000000000000000000000000000
#0773c0:0000000000000000000000000000000000000000005200002200000000000000
#078380:16220000
#078321:16
#078361:00220000
#078381:0016
#0793c1:00220000
#078320:0016
#079320:00220000
#080320:00130000
#080360:0023
#0803b1:0013
#080371:0000000000230000
#080321:00000013
#080361:0000000000000023
#081321:0013000000000000
#081361:00230000
#0813b1:0000001300000000
#081371:0023
#081320:00001323
#081360:0000000000530000
#081371:00000013
#0813b1:0000000000000023
#082321:13330000
#082361:0053000000000000
#0823b1:00003333
#082371:0000000000530000
#083321:3300002300000000
#083371:00000053000000000000000000000000
#0823b0:00130000
#082320:0023
#082320:00000013
#0833b0:23
#056920:00120000
#056980:00000000000000220000000000000000
#0569b0:0013
#056950:00000000000000000000002300000000
#056920:00000014
#056980:00000000000000000000000000000024
#058980:00120000
#0589c0:0022
