This file was generated by Ched 2.7.0.0.
#TITLE ""
#ARTIST ""
#DESIGNER ""
#DIFFICULTY 0
#PLAYLEVEL
#SONGID ""
#WAVE ""
#WAVEOFFSET 0
#JACKET ""
#REQUEST "ticks_per_beat 480"
#00002: 4
#BPM01: 140
#00008: 01
#TIL00: ""
#VOLUME: ""
#HISPEED 00
#MEASUREHS 00
#00114:0014
#00118:14
#00218:14
#00214:0014
#00518:14
#00514:0014
#00618:14
#00614:0014
#01318:1414
#01414:1414
#0151a:1414
#01612:1414
#0171a:14
#01718:0014
#01812:14
#01814:0014
#01918:14
#0191a:0014
#02014:14
#02012:0014
#0381a:14240000
#03812:24140000
#03814:0014
#03818:00000014
#03810:41
#03912:14
#0391a:00140000
#03914:0014
#03918:00000014
#04012:14240000
#0401a:24140000
#04018:0014
#04014:00000014
#0411a:14
#04112:00140000
#04118:0014
#04114:00000014
#04312:14
#04318:00140000
#04314:0014
#0431a:00000014
#04614:14240000
#0461a:24140000
#04618:0014
#04612:00000014
#0471a:14
#04714:00140000
#04718:0014
#04712:00000014
#0511a:14
#05114:00140000
#05118:0014
#05112:00000014
#04818:14240000
#04812:24140000
#04814:0014
#0481a:00000014
#04912:14
#04918:00140000
#04914:0014
#0491a:00000014
#05414:14140014
#05418:0014
#0551a:14
#05514:00140000
#05518:0014
#05512:00000014
#0561a:14
#05618:00140000
#05616:0014
#05614:00000014
#0581a:1414
#0581f:11
#05912:1414
#06018:1414
#06114:1414
#06218:14
#06718:2614
#06714:00000014
#06712:00260000
#0671f:21
#0681a:14000014
#06816:00140000
#06812:0014
#06810:41
#06914:0014
#06918:00260014
#06912:26
#07012:14000014
#07016:00140000
#0701a:0014
#0721a:14
#07214:00140000
#07218:0014
#07212:00000014
#07512:14
#07518:00140000
#07514:0014
#0751a:00000014
#07614:14
#07618:00140000
#07612:0014
#0761a:00000014
#0801a:14
#08014:00140000
#08018:0014
#08012:00000014
#08118:14
#08114:00140000
#0811a:0014
#08112:00000014
#06512:14
#06515:00000000000000140000000000000000
#0741a:14
#07418:00140000
#0731a:14
#07312:0014
#07718:0014
#07714:14
#07814:14
#07812:0014
#08318:14000024
#0831a:00140000
#08214:0014
#08218:14
#06312:14
#06314:0014
#06412:14
#06414:0014
#0521a:14
#05212:0014
#0531a:14
#04412:14
#0441a:0014
#04512:14
#0251a:14
#02612:14
#02718:14
#02814:14
#00312:0014
#0031a:14
#0041a:14
#00412:0014
#0091a:14
#00912:00140000
#00918:0014
#00914:00000014
#00910:41
#0101a:14
#01014:00140000
#01018:0014
#01012:00000014
#01212:14
#0291a:14
#03014:14141400
#03010:41
#03118:14141400
#03318:14
#03412:14
#03414:00140000
#03416:0014
#03418:00000014
#0351a:14
#03518:00140000
#03516:0014
#03514:00000014
#03612:14
#03214:14
#0371a:14
#05012:24
#05014:00240000
#05016:0024
#05018:00000024
#05010:41
#04218:00240000
#0421a:24
#04214:00000024
#04216:0024
#0711a:24
#07116:00240024
#07112:0024
#02110:41
#05752:0014
#06652:00000014
#06758:16
#06752:00160000
#06952:16
#06958:00160000
#0745a:6414
#07458:00240000
#08358:54000014
#0835a:00240000
#06555:00000000000000240000000000000000
#06552:54
#0735a:64
#07352:0054
#07758:0054
#07754:64
#07854:64
#07852:0054
#08254:0064
#08258:54
#06352:54
#06354:0064
#06452:54
#06454:0064
#0525a:64
#05252:0054
#0535a:64
#05358:0014
#04452:54
#0445a:0064
#04552:54
#04554:0014
#0255a:64
#02652:54
#02758:54
#02854:64
#0095a:14
#01252:54
#0295a:64
#03358:54
#03652:54
#03254:64
#0375a:64
#0073a0:14
#007380:0024
#008320:14
#008340:0024
#011380:14000024
#0113a0:00343400
#012320:14
#012340:0024
#0213a0:1424
#022320:1424
#023380:1424
#024340:1424
#0253a0:14
#025380:0024
#026320:14
#026340:0024
#027380:14
#0273a0:0024
#028340:14
#028320:0024
#0293a0:14
#029380:0024
#032340:14
#032320:0024
#033380:14
#0333a0:0024
#036320:14
#036340:0024
#0373a0:14
#037380:0024
#044320:14
#044340:00240000
#0443a0:0014
#044380:00000024
#045320:14
#045340:0024
#0523a0:14
#052380:00240000
#052320:0014
#052340:00000024
#0533a0:14
#053380:0024
#057320:1424
#063320:14
#063340:0034
#064320:34
#064340:0034
#065320:3400000000000034
#065350:00000000000000540000000000000000
#066320:3434343434002400
#0733a0:14
#073380:00240000
#073320:0014
#073340:00000024
#0743a0:1424
#074380:00540000
#077340:14
#077320:00240000
#077380:0014
#0773a0:00000024
#078340:14
#078320:0034
#079340:0024
#082380:14
#0823a0:00240000
#082340:0014
#082320:00000024
#083380:14003424
#0833a0:00540000
