This file was generated by Ched 2.7.0.0.
#TITLE ""
#ARTIST ""
#DESIGNER ""
#DIFFICULTY 0
#PLAYLEVEL
#SONGID ""
#WAVE ""
#WAVEOFFSET 0
#JACKET ""
#REQUEST "ticks_per_beat 480"
#00002: 4
#BPM01: 185
#BPM02: 142
#00008: 01
#02908: 01
#01208: 02
#TIL00: ""
#VOLUME: ""
#HISPEED 00
#MEASUREHS 00
#00112:0016
#00118:26
#00318:0016
#00312:26
#00512:0016
#00518:26
#00618:16
#00612:0016
#0131a:14
#01314:0014
#01310:41
#0141a:14
#01512:14
#01518:0014
#01612:14
#0171a:14
#01714:0014
#0181a:14
#01912:14
#01918:0014
#02012:14
#0301a:14
#03014:0014
#03010:41
#0311a:14
#03114:0014
#03218:14
#03212:0014
#03318:14
#03312:0014
#0341a:14
#03414:0014
#03914:14
#0401a:14
#04112:14
#04218:14
#04210:41
#04314:14
#0441a:14
#04512:14
#0551a:14
#05612:14
#05718:14
#05814:14
#0591a:14
#06012:14
#06118:14
#07012:0016
#07018:26
#0701f:21
#07218:0016
#07212:26
#07412:0016
#07418:26
#07518:16
#07512:0016
#07818:2616
#07912:2616
#08018:2616
#08112:2616
#08218:2616
#08618:0016
#08610:41
#08718:0016
#08712:26
#08818:0016
#08812:26
#09218:16
#09212:0016
#10218:16
#10316:0016
#0541f:11
#0351a:24000034000034000034000034000034
#08312:26
#09318:26
#09412:0026
#09612:26
#09618:0026
#09818:26
#09812:0026
#09918:26
#09912:0026
#10018:26
#0361a:00003400003400003400003400003400
#0371a:00340000340000340000340000340000
#02110:41
#07110:41
#10258:56
#10356:0026
#002380:1626
#004320:1626
#007380:1626
#008320:16
#008340:0036
#009320:36
#009340:0036
#010320:36
#010340:0036
#011320:36000000360036260000000000000000
#0213a0:14
#0223a0:24
#023340:14
#024340:24
#025380:14
#026380:24
#027320:14
#028320:24
#0353a0:14000034000034000034000034000034
#0363a0:00003400003400003400003400003400
#0373a0:00340000340000340000340000340000
#038380:24
#046380:14
#0473a0:34
#048380:34
#0493a0:24
#050340:14
#051320:34
#052340:34
#053320:34
#054340:24
#062330:14
#063330:24
#064390:14
#065390:24
#066330:14
#067330:34
#068330:34
#069330:24
#071380:1626
#073320:1626
#076380:1626
#077320:1626
#083320:16000036
#083330:00000036000000000036000000000036
#083340:0000003600000000
#084340:0036000000000000
#084330:00000000003600000000000000000000
#084320:0000000036363636
#085320:3600003600003600
#085340:00000036000000000036000000000000
#086320:26
#089320:1626
#090380:1626
#091320:1626
#093380:1636
#094380:26
#095380:1626
#097320:1626
#100380:16
#101380:3636
#102380:36
#103360:0056
#105380:36000000360036260000000000000000
