This file was generated by Ched 2.7.0.0.
#TITLE ""
#ARTIST ""
#DESIGNER ""
#DIFFICULTY 0
#PLAYLEVEL
#SONGID ""
#WAVE ""
#WAVEOFFSET 0
#JACKET ""
#REQUEST "ticks_per_beat 480"
#00002: 4
#BPM01: 185
#BPM02: 142
#00008: 01
#02908: 01
#01208: 02
#TIL00: "54'0:0.5, 69'0:1"
#VOLUME: ""
#HISPEED 00
#MEASUREHS 00
#00118:0000130000000013
#00115:0000001300001300
#0011b:2323
#00112:2323
#00318:0000001300000000
#00315:00000000000000130000000000000000
#00312:23002323
#0031b:23002323
#0041b:1323
#00416:1323
#00419:0013000000000000
#00412:00130000
#00417:00130000
#00414:0000001300000000
#00418:00000013
#00415:0000000000000013
#00515:0000130000000013
#00518:0000001300001300
#0051b:2323
#00512:2323
#01212:130000130013
#01218:1313000013000013
#01215:000000000000130000000000000000000000000000000013
#0121b:0000131300002300
#0131b:130000001300001300001300
#01312:000000000000130000000013000000000013000000000013
#01315:0000001300130013
#01318:00001313
#01310:41
#01418:13
#01416:001300000000000000000000
#0141b:0013000000000000
#01414:000000000013000000000000000000000000000000000000
#01419:00130000
#01412:001300
#01417:0000001300000000
#01517:13
#01512:00131313
#01515:000000000000000013000000000000130000000000130000
#01518:000000000000000000130000000000000000000013000000
#0151b:00001313
#01612:23000013
#0161b:230000000013
#01615:0000000000000013
#01618:000000000000000000000000000000000000000000000013
#01614:000000000000000000000023000000000000000000000000
#01712:130000001300001300001300
#0171b:000000000000130000000013000000000013000000000013
#01718:0000001300130013
#01715:00001313
#01815:13
#01817:001300000000000000000000
#01812:0013000000000000
#01819:000000000013000000000000000000000000000000000000
#01814:00130000
#0181b:001300
#01816:0000001300000000
#02018:00000000000000000000000013130000
#02015:00000000000000000000000000001313
#02019:000000000000000000000023000000000000000000000000
#0201b:23
#02012:23
#01912:131300130000131300130000
#01917:0013000000130000
#0191b:000000131300130000131300
#01916:0000001300000013
#0211b:13000000000000000000000000330000
#02112:00000000000000131300000000000000
#02118:0000000000130000
#02115:00000000000000000000001300000000
#02110:41
#02212:13000000000000000000001300000000
#0221b:00000000000000131300000000000000
#02218:0000000000130000
#02215:00000000000000000013000000000000
#02312:13000000000000000000000000330000
#0231b:00000000000000131300000000000000
#02315:0000000000130000
#02318:00000000000000000000001300000000
#0241b:13000000000000000000001300000000
#02412:00000000000000131300000000000000
#02415:0000000000130000
#02418:00000000000000000013000000000000
#02518:1300000000130000
#02515:00000000000000131300001300000000
#0251b:00000000000000000000000000330000
#02618:0000000000130000
#02612:00000000000000000000001300000000
#02615:13000000000000000013000000000000
#0261b:00000000000000131300000000000000
#02715:1300000000130000
#02718:00000000000000131300001300000000
#02712:00000000000000000000000000330000
#02815:0000000000131300
#0281b:00000000000000000000001300000000
#02818:13000000000000000013000000130013
#02812:00000000000000131300000000001300
#02915:13131313
#0301b:1313131300000000
#03015:00130013001300130000000000000000
#03018:0000000013131313
#03012:00000000000000000013001300130013
#03010:41
#0311b:13131313
#03115:00130000001300000013000000130000
#03118:0013001300130013
#03112:00000013000000130000001300000013
#03218:1313131300000000
#03212:00130013001300130000000000000000
#0321b:0000000013131313
#03215:00000000000000000013001300130013
#03318:13131313
#03312:00130000001300000013000000130000
#0331b:0013001300130013
#03315:00000013000000130000001300000013
#0341b:1313131300000000
#03415:00130013001300130000000000000000
#03418:0000000013131313
#03412:00000000000000000013001300130013
#03515:00130000000000130000000000000000
#0351a:2414002414002414
#03518:0000130000130000
#03512:00000024001400000024001400000024
#03516:00000000000000000000000000130000
#03617:1300001300000000
#03612:00140000002400140000002400140000
#03616:00000013000000000014000014000014
#0361a:0024140024140024
#0371a:1400241400241400
#03716:00001400001400001400001400001400
#03712:00240014000000240014000000240014
#03816:0000001400000014
#0381a:00000000000000140000000000000000
#03812:00000000000000000000000000000014
#03912:0000002400001300
#03917:00000013
#03916:00000024000000002300000000001300
#0391b:0000000000000013
#0391a:2424
#04018:00001300000000132300130000000013
#04015:00000013230013000000001323001300
#04012:2323
#04017:23
#0401b:00230023
#04118:2300000000001313
#04115:00000000000000000000000000130013
#04112:2424
#04116:00000024000000000000000000000000
#0411a:0000002400000000
#04117:0023
#04212:2400001424000000
#04216:00000000000000140000000000000014
#0421a:2400000024000014
#04210:41
#04312:0000002400001300
#04317:00000013
#04316:00000024000000002300000000001300
#0431b:0000000000000013
#0431a:2424
#04418:00001300000000132300130000000013
#04415:00000013230013000000001323001300
#04412:2323
#04417:23
#0441b:00230023
#04812:00001313
#04818:0000000000130013
#0481b:00000000000000000000001300000013
#04815:00000000000000000013000000130000
#04916:0013
#04914:0000000000130013
#04912:00000013
#0491b:00000013
#04919:0000000000130013
#05018:00000000130013000000130000130000
#05015:00000000001300000000000013001300
#0501b:2323000013000000
#05012:2323000013000000
#0511b:1313
#05112:1313
#05115:00001300001300000000000013001300
#05118:00000000130013000000130000130000
#0521b:13131300
#05212:13001313
#05214:0013001300000000
#05216:00130000
#05219:0000000000130013
#05217:00000013
#0531b:13001313
#05312:13131300
#05315:0013001300001300
#05318:0000130000130013
#0541b:13
#05412:13
#0541f:11
#05416:0033
#0551b:13
#05517:0033
#05612:13
#05615:001300000013
#05618:001313
#0561b:0013
#05712:13
#0571b:13
#05718:000000000013
#05815:130000000013
#0581b:000013
#05818:0013
#05918:130000000013
#05915:000013
#05912:0013
#06012:130000000013
#06018:000013
#0601b:0013
#0611b:13
#06112:0013
#06115:000013
#06118:000000000013
#06218:001313002300
#06215:000000130000230000002300
#0621b:23
#06212:23
#06315:001313002300
#06318:000000130000230000002300
#06312:23
#0631b:23
#06418:001300000023
#06415:001323
#0641b:2323
#06412:2323
#0661b:1313
#06618:000013
#06615:000000000013
#06712:1313
#06715:000013
#06718:000000000013
#06812:13
#0681b:13
#07017:00130000
#07019:0000001300000013
#07012:23130000
#07014:0000001300000013
#07016:00002313
#0701b:23002313
#0701f:21
#07119:0013000000000000
#07114:0000001300000000
#0711b:00230013
#07115:00000000000000000000000000130000
#07118:0000000000000013
#07112:23000000000000002300000000000013
#07117:2323
#07116:00230000
#07110:41
#07217:0000001313000000
#07212:00000000000000130000000023000000
#0721b:13000013000000000000000023000000
#07216:0013130000000000
#07215:00000000000000000000130000000013
#07218:00000000000000000000001300001300
#0731b:13
#07315:00000013000000000000000013001300
#07318:00000000000013000000000000130013
#07316:00130000000000000000000000000000
#0731a:0013000000000000
#07319:00130000
#07314:00000000001300000000000000000000
#07313:00000000000000130000000000000000
#07317:0027
#07512:23002313
#07518:00000000000000000000000000130000
#07515:0000000000000013
#0751b:23000000000000002300000000000013
#07519:00230000
#07514:00230000
#07612:13000000000000130000000013000000
#07618:0000001300000000
#0761b:0013
#07617:00000013
#07616:00000013000000000000000000000000
#0771b:13000000130000000000001300000013
#07715:00130000001300000000130000001300
#07718:00001300000013000013000000130000
#07712:00000013000000131300000013000000
#07818:00120012001200120000000000000000
#07812:2212121200000000
#0781c:00000000000000000012001200120012
#07816:0000000022121212
#07918:00120012000000000000000000001300
#07912:2212000000002300
#0791a:00000000001200120000000000000000
#07914:0000221200000000
#0791c:00000000000000000012001200000000
#07916:0000000022120000
#07915:00000000000000000000000000130000
#0791b:00000000000000000000000000000013
#0801c:00120012001200120000000000000000
#08016:2212121200000000
#08018:00000000000000000012001200120012
#08012:0000000022121212
#0811c:00120012000000000000000000000000
#08116:2212000000000000
#0811a:00000000001200120000000000000000
#08114:0000221200000000
#08118:00000000000000000012001200001300
#08112:0000000022122300
#08115:00000000000000000000000000130000
#0811b:00000000000000000000000000000013
#08218:00120012001200120000000000000000
#08212:2212121200000000
#0821c:00000000000000000012001200120012
#08216:0000000022121212
#08316:00140000140000140000140000140000
#08312:2414002400002400
#0831a:00000024001400000024000000000024
#08313:0014
#08319:00000000000000000000001400000000
#08314:0000000000000014
#08416:14000014000014000000240000002400
#08418:00140000000000000000000000000000
#08415:00140000
#08417:00000000000000140000000000000000
#08412:0024000024000000
#0841a:00000000002400000000000024000000
#08516:00141400141400141400141400000000
#08512:2400002400002400
#0851a:00000024000000000024000000000000
#0851b:00000000000000000000000000230000
#08515:0000000000000023
#08518:00000000000000000000000000000023
#08618:00130013000000000013001300001300
#08612:2313000023131300
#08615:00000000130013000000000000130000
#0861b:00000000001300130000000000000013
#08610:41
#08718:00130000001300000013000000130000
#08715:0013001300130013
#0871b:00000013000000130000001300000013
#08712:23232323
#0881b:00130013000000000013001300000013
#08815:23001300000000002300130000130000
#08812:0000131300001300
#08818:00000000001300130000000000001300
#0891b:00130000001300000013000000130000
#08912:0013001300130013
#08918:00000013000000130000001300000013
#08915:23232323
#09016:001400001400001400000000
#0901a:000014000014000014000000
#09012:24242424
#09116:001400001400001400000000
#09112:000014000014000014000000
#0911a:24242424
#09215:0000000000001300000000000000000000000000000000130000000000000000
#09218:000000000000000000000000000000000000000000130000000000000000000000000000000000000000000000000000000000000000000000000000000000000000130000000000260000000000000026000000000000002600000000000000
#09212:230000262626260000000000
#0921b:23
#09318:00130013001300130016001600160016
#09315:2313231300000000
#09312:0000000026162616
#0941b:0013000000130000
#09415:00000013000000002300001300000000
#09412:2600001300000013
#09418:00000000230000130000000023000013
#0951b:0013000000130000
#09515:23000013000000002300001300000000
#09512:0000001300000013
#09518:00000000230000130000000023000013
#09615:23000000130013000000000000130000
#09618:00000000001300002300000013001300
#09612:0023000000230000
#0961b:0023000000230000
#09718:00130000001300000013000000130000
#09715:0013001300130013
#0971b:00000013000000130000001300000013
#09712:23232323
#09818:00120012001200120013001300130013
#09816:2212221200000000
#09815:0000000023132313
#09918:00140014001400140000000024000000
#09914:2400000014000000240000001400000024343434003434340000000000000000
#10012:13
#1001b:13
#10018:0000000000001313
#10118:13
#10115:0013
#1011b:00130000
#10112:00000013
#10215:00130000001300000000130000001300
#10218:00001300000013000013000000130000
#10212:00000013000000132300000023000000
#1021b:23000000230000000000001300000013
#00218:0000000000001313
#00215:00000000000000000000000000130013
#0021b:23
#00216:23
#00214:00230000
#00219:00230000
#00212:0023
#00217:0023
#00715:13000000130000130000000000000000
#00718:00130013000013000000000000000000
#00716:000000000000001400001400
#0071a:000000241400
#00712:000000000000000000240014
#04612:0000000013130000
#04618:00000000003333330013001300000000
#04617:13
#04615:00333333000000000000000013001300
#0461b:00000000000000000000000000130013
#04715:0000000013130000
#0471b:00000000003333330013001300000000
#04712:00333333000000000000000013001300
#04718:00000000000000000000000000130013
#10315:00130000001300000000130000001300
#10318:00001300000013000013000000130000
#10312:00000013000000132300000023000000
#1031b:23000000230000000000001300000013
#10415:00130000001300000000130000001300
#10418:00001300000013000013000000130000
#10412:00000013000000132300000023000000
#1041b:23000000230000000000001300000013
#07418:00000000130013000000000000130013
#07415:00000000001300130000000013001300
#0741b:2323
#07412:2323
#00015:0023
#00018:00000023
#00612:23
#00617:23
#00619:00230000
#00614:00230000
#0061b:0023
#00616:0023
#0111b:2323000000000000
#01112:00002300000000240000000000000000
#01116:0000242400000000
#0111a:00000000000000240000000000000000
#04512:2424
#04516:00000024000000000000000023000000
#0451a:0000002400002400
#04517:0023
#04518:23
#0651b:23
#06512:23
#06915:0023
#06918:00000023
#1051b:2323000000000000
#10512:23002300000000240000000000000000
#10516:0000242400000000
#1051a:00000000000000240000000000000000
#00152:1313
#0015b:1313
#0025b:13
#00256:13
#00254:00130000
#00259:00130000
#00257:0013
#00252:0013
#00352:13000013
#0035b:0013
#00456:0013
#0045b:0013
#0055b:1313
#00552:1313
#00652:13
#00657:13
#00659:00130000
#00654:00130000
#0065b:0013
#00656:0013
#01258:0013
#01252:0013
#0135b:53
#01554:13
#01557:63
#01654:000000000000000000000013000000000000000000000000
#01659:000000000000000000000013000000000000000000000000
#01752:63
#02059:000000000000000000000013000000000000000000000000
#02054:000000000000000000000013000000000000000000000000
#01959:13
#0395a:0014
#04152:0014
#0435a:0014
#04552:0014
#0455a:00000014
#0515b:13
#05152:0013
#0525b:13130000
#05252:00001313
#0535b:13
#05352:0013
#05358:00130000
#05355:00000013
#0545b:13
#05452:53
#0555b:53
#0575b:53
#05752:53
#05855:53
#05958:53
#06052:53
#0615b:63
#06552:53
#0655b:53
#06852:53
#0685b:53
#0705b:1313
#07052:13
#07152:1313
#0715b:00130000
#07357:0017
#0745b:1313
#07452:1313
#07552:1313
#0755b:1313
#07559:00130000
#07554:00130000
#07652:53
#07656:00000023000000000000000000000000
#09052:00000014
#0915a:00000014
#09452:16
#09458:00130013
#09455:0013
#10052:53
#10155:0053
#10158:53
#1015b:00230000
#10152:00000023
#09555:1313
#09558:00130013
#0115a:00000000000000140000000000000000
#01152:00000000000000140000000000000000
#1055a:00000000000000140000000000000000
#10552:00000000000000140000000000000000
#0083b0:13230000
#008390:00330033000000000000000000000000
#008370:0033000000000000
#008361:00132300
#008341:00000000003300330000000000000000
#008321:0000003300000000
#0083b0:00001323
#008390:00000000000000000033003300000000
#008370:0000000000330000
#008321:00000013
#008341:00000000000000000000000000330033
#008361:0000000000000033
#009321:23
#009370:13230000
#009390:00330033000000000000000000000000
#0093b0:0033000000000000
#009321:00132300
#009341:00000000003300330000000000000000
#009361:0000003300000000
#0093b0:00001323
#009390:00000000000000000033003300000000
#009370:0000000000330000
#009361:00000013
#009341:00000000000000000000000000330033
#009321:0000000000000033
#010361:23
#0103b0:13230000
#010390:00330033000000000000000000000000
#010370:0033000000000000
#010361:00132300
#010341:00000000003300330000000000000000
#010321:0000003300000000
#0103b0:00001323
#010390:00000000000000000033003300000000
#010370:0000000000330000
#010321:00000013
#010341:00000000000000000000000000330033
#010361:0000000000000033
#011321:23
#0133b1:13
#013371:00230000
#014321:000000000000000000000013000033000000000000000000
#014341:000000000000000000000000000000330033000000330033
#014361:000000000000000000333300
#015341:23
#015370:13
#0153b0:00230000
#0163b0:133300000000000000000000
#016390:000000330033000000330023000000000000000000000000
#016370:000000333300000000000000
#017320:13
#017360:00230000
#0183b0:000000000000000000000013000033000000000000000000
#018390:000000000000000000000000000000330033000000330033
#018370:000000000000000000333300
#019390:23
#020320:133300000000000000000000
#020340:000000330033000000330023000000000000000000000000
#020360:000000333300000000000000
#0213b0:00130023000000000000000000000000
#021351:00000013002300000000000000000000
#021380:00000000001300230000000000000000
#0213b0:00000000000000000000000013330000
#021380:0000000000000033
#022380:23
#022320:00130023000000000000000000000000
#022381:00000013002300000000000000000000
#022350:00000000001300230000000000000000
#0223b0:00000013
#022390:00000000000000000000000000330033
#022370:0000000000000033
#0233b0:23
#023320:00130023000000000000000000000000
#023381:00000013002300000000000000000000
#023350:00000000001300230000000000000000
#023320:00000000000000000000000013330000
#023350:0000000000000033
#024350:23
#0243b0:00130023000000000000000000000000
#024351:00000013002300000000000000000000
#024380:00000000001300230000000000000000
#024320:00000013
#024340:00000000000000000000000000330033
#024360:0000000000000033
#025320:23
#025380:00130023000000000000000000000000
#025321:00000013002300000000000000000000
#0253b0:00000000001300230000000000000000
#025380:00000013
#0253b0:00000000000000000000000000333300
#0263b0:23
#026350:00130023000000000000000000000000
#0263b1:00000013002300000000000000000000
#026320:00000000001300230000000000000000
#0263b0:00000013
#026390:00000000000000000000000000330033
#026370:0000000000000033
#0273b0:23
#027350:00130023000000000000000000000000
#0273b1:00000013002300000000000000000000
#027320:00000000001300230000000000000000
#027350:00000013
#027320:00000000000000000000000000333300
#028320:23
#028380:00130023000000000000000000000000
#028321:00000013002300000000000000000000
#0283b0:00000000001300230000000000000000
#0383a0:1400002400000000
#038320:0000000014000024
#0423a0:1400002400000000
#042320:0000000014000024
#046320:13
#046350:00333333230000000000000000000000
#0463b1:00130000
#046381:00000000003333332300000000000000
#047351:13
#047321:00333333230000000000000000000000
#047380:00130000
#0473b0:00000000003333332300000000000000
#048320:13230000
#048340:00330033000000000000000000000000
#048360:0033000000000000
#048371:00132300
#048391:00000000003300330000000000000000
#0483b1:0000003300000000
#049361:13230000
#049341:00330033000000000000000000000000
#049321:0033000000000000
#0493b0:00132300
#049390:00000000003300330000000000000000
#049370:0000003300000000
#054320:13
#054360:0033
#055360:23
#0553b1:13
#055371:0033
#056371:23
#057321:13
#057351:0023
#0573b0:13
#057380:0023
#058350:13
#058320:0023
#059380:13
#0593b0:0023
#060320:13
#060350:0023
#0613b0:13
#061380:0023
#0653b0:13
#065380:0023
#065321:13
#065351:0023
#066321:1323
#0673b1:1323
#068321:13
#069351:23
#0683b0:13
#069380:23
#076320:1300002300000000
#076360:00000053000000000000000000000000
#099340:0000000000000000000000000000000014343434003434342400000000000000
#099380:0000000000340000
#100320:13
#101350:23
#101381:1323
#1013b1:00530000
#101350:0013
#101320:00000053
#102350:23
