This file was generated by Ched 2.7.0.0.
#TITLE ""
#ARTIST ""
#DESIGNER ""
#DIFFICULTY 0
#PLAYLEVEL
#SONGID ""
#WAVE ""
#WAVEOFFSET 0
#JACKET ""
#REQUEST "ticks_per_beat 480"
#00002: 4
#BPM01: 185
#BPM02: 142
#00008: 01
#02908: 01
#01208: 02
#TIL00: ""
#VOLUME: ""
#HISPEED 00
#MEASUREHS 00
#00118:0000130000000013
#00115:0000001300001300
#00112:23
#0011b:0023
#00318:0000001323000000
#00315:00000000000000130000000000000000
#00312:23000023
#0031b:23000023
#00412:1323
#00418:0013000000001300
#00415:0000130000000013
#0041b:0000001300000000
#00515:0000130000000013
#00518:0000001300001300
#0051b:23
#00512:0023
#01212:130000000000000000000000130000000000000000000013
#01215:000000130000000000001300
#01218:1300000013000013
#0121b:00130023
#01312:000000001300001300000000
#01318:0000001300130000
#01315:000000000000000000000013000000000013000000000000
#0131b:13001313
#01310:41
#0211b:1313
#02115:00000013000013000000000000000000
#02112:13000000000000001300000000330000
#02118:0013130000130000
#02110:41
#02918:00130000
#02915:0013
#0291b:00000013
#03918:0000001300001300
#03915:0000000023000013
#03912:0013000000000000
#04018:0000001300000013
#04015:0000000000130000
#04012:2300230000000013
#0401b:2300230000130000
#04218:0000131300000013
#04212:2400001300000013
#04215:0000000000130000
#0421b:0000000000130000
#0421a:24
#04210:41
#05018:0000000000130000
#05015:00000013
#05012:0013
#0501b:2300000000000013
#05112:13
#05118:0013001300001300
#05115:0000130000130013
#0511b:0013
#05212:1313
#05218:0013000000130000
#05215:00130013
#0521b:0000001300000013
#0531b:1313
#05315:0013000000130000
#05312:0000001300000013
#05318:00130013
#0541b:13
#0541f:11
#05418:000000333333
#05512:13
#05515:000000333333
#0561b:001300000013
#05615:001300
#05618:0013
#05612:000013
#05715:13
#05718:000000000013
#05812:13
#05818:000013
#05815:000000000013
#05918:130000000013
#05915:000013
#06015:130000000013
#06018:000013
#0611b:13
#06115:000013
#06118:000000000013
#06315:001323
#06312:23
#0631b:23
#06318:000000230023
#06418:001300000023
#06415:001323
#0641b:23
#06412:2323
#06618:000013
#06615:000000000013
#06715:000013
#06718:000000000013
#07615:0013
#07612:00000013
#07618:00000013
#0761b:13
#10012:13
#1001b:13
#10015:00000013
#10018:0000000000000013
#00712:13
#0071b:13
#00718:0000001323000000
#00715:00000000000000130000000023000000
#01415:13000013
#0141b:000000000013
#01412:000033330033330033330000000000000000000000130000
#01418:000000000000000000000000000000000000000000000013
#0151b:000000001300001300000000
#01515:1300001300130000
#01518:000000000000000000000013000000000013000000000000
#01512:00001313
#0161b:130000000000000000000000000000000000000000000013
#01612:00000013
#01618:000033330033330033330023000000000000000013000000
#01615:0000000000000013
#0171b:000000001300001300001300
#01715:0000001300130013
#01718:000000000000000000000013000000000013000000000013
#01712:13001313
#01812:130000000013
#01818:00000013
#0181b:0000000000000013
#01815:000033330033330033330000000000000000000000000013
#01912:00000013
#01915:000000000000000000000000130033330033000033330033
#01918:00130000
#0191b:130033330033000033330033000000000000000000000000
#02218:0013000013000000
#02215:00000013000013000000130000000000
#0221b:00000000000013000000130000333333
#02212:1313
#02315:00001300000000000013000000001300
#02318:00000000130000001300130000130000
#02312:0000001300001300
#0231b:00000000000000000000000000000013
#02418:00001300000000000013000000333333
#02412:00130000
#0241b:0000001300000000
#02415:00130000000000001300130000000000
#02512:00001300000000000000000000333333
#0251b:00130000
#02515:00000000000013000013000000000000
#02518:0000000013130000
#0261b:00001300000000001300000000333333
#02612:0000130000130000
#02618:0000001300130000
#02615:0013
#02715:0013001300130000
#02718:00131300
#02712:00000000000000001300000000333333
#0271b:0000000000130000
#02818:0013000000000000
#02815:00130000
#0281b:0000001300000000
#02812:00000000000000001333333300333333
#02816:00000013
#0381b:0000001300000013
#03815:0000001300000013
#03818:0000000000130000
#03812:2400000000130000
#0411b:0013000000000000
#04115:0000001300000000
#04118:0023
#0431b:0013000000000000
#04315:0000001300001300
#04318:0000000023000013
#04415:0000001300000013
#04418:0000000000130000
#0441b:2300230000000013
#04412:2300230000130000
#04512:0013000000000000
#04518:0000001300000000
#0451b:00000023
#04515:0023
#04615:0000000000130013
#04618:00000013
#04718:0000000000130013
#04715:00000013
#0481b:0000000000130000
#04818:00000013
#04815:0000000000000013
#04912:0000000000130000
#04915:00000013
#04918:0000000000000013
#06218:001323
#0621b:23
#06212:23
#06215:000000230023
#07015:0000130000000013
#07018:0000001300001300
#0701b:23
#07012:0023
#0701f:21
#07215:0000001323000000
#07218:00000000000000130000000000000000
#0721b:23000023
#07212:23000023
#0731b:1323
#07315:0013000000001300
#07318:0000130000000013
#07312:0000001300000000
#07418:0000130000000013
#07415:0000001300001300
#07412:23
#0741b:0023
#07715:13
#0771b:13
#07712:0013
#07718:0013
#07818:0013000000000000
#07815:0000130000130013
#07812:0000001300000000
#0781b:00002313
#07915:0013000000000000
#0791b:0000001300000000
#07918:0000230000130013
#07912:23002323
#08018:0013000000001300
#08015:0000130000130000
#08012:0000001300000013
#0801b:2323
#08115:0013000000002300
#0811b:0000001300000013
#08118:0000230000130000
#08112:2323
#08218:0013000000001300
#08215:0000130000130000
#08212:0000001300000013
#0821b:2323
#08615:0013000023000013
#08618:00130013
#0861b:0000001300130000
#08612:23
#08610:41
#08718:0013000023000013
#08712:2300001300130000
#0871b:23
#08715:00230023
#08815:0013000000000013
#08818:00130013
#0881b:2300001300130000
#08812:2323
#08918:0013000023000013
#08912:2300001300130000
#0891b:23
#08915:00230023
#09416:0000001400000014
#0941a:00240000
#09412:00002424
#09618:0000001424000000
#09614:00000000000000140000000000000000
#0961a:24000024
#09612:24000024
#09716:0000000000000014
#09718:24240000
#09714:0024002400000000
#0971a:0024
#09712:00000024
#09816:0000001400000014
#0981a:24240000
#09812:00002424
#10115:13
#10118:13
#10218:0013000000002300
#1021b:0000001300000013
#10215:0000230000130000
#10212:2323
#10315:0013000000002300
#10312:0000001300000013
#10318:0000230000130000
#1031b:2323
#10418:0013000000002300
#1041b:0000001300000013
#10415:0000230000130000
#10412:2323
#00015:0023
#00018:00000023
#00212:23
#00218:00230000
#00215:0023
#01118:2323000000000000
#01115:0000232300000000
#01119:00000000000000240000000000000000
#03512:24
#03518:00000024000000000000000000000024
#03514:0000002400002400
#0351a:00000000000000000024000000000000
#03612:0024000000000000
#03618:00000000002400000000000000000000
#03614:0000000024000024
#0361a:00000000000000000000002400000000
#0651b:23
#08518:23333300000000333300000000230023
#08515:0000000000002323
#0851b:00000000333300000000000000000000
#09212:23002424
#0921b:23
#0921a:00240000
#09214:000000002400000000000024
#09218:000000000024000000002400
#00618:0023
#00615:00230000
#0061b:23
#02018:23
#0201b:000033330033330033330000000000000000000000000000
#03718:00240000000000240000000000000000
#03712:00240000
#03714:0000000000240000
#0371a:00000000000000000000000000240000
#06918:0023
#06915:00000023
#0711b:23
#07115:00230000
#07118:0023
#07110:41
#07515:0023
#07518:00230000
#07512:23
#0841b:0023
#08415:33330000000000000000230000000000
#08418:00000023
#08412:00000033330000000000000000002300
#0831b:23333300000000333300000000000000
#08312:00000000000000000000000023333300
#08318:00000000333300000000000000000000
#0901a:24
#09112:24
#0931a:24
#09314:0024
#0951a:24
#09516:00240000
#09512:0024
#09916:00240000
#09912:0024
#0991a:24
#10515:2323000000000000
#10518:0000232300000000
#10513:00000000000000240000000000000000
#03012:00333333333333330000000000000000
#0301b:00000000000000000033333333333333
#03010:41
#03115:00333333333333330000000000000000
#03118:00000000000000000033333333333333
#03212:00333333003333330000000000000000
#0321b:00000000000000000033333300333333
#03315:00333333003333330000000000000000
#03318:00000000000000000033333300333333
#03412:00333333333333330000000000000000
#0341b:00000000000000000033333333333333
#00152:13
#0015b:0013
#00252:13
#00258:00130000
#00255:0013
#00452:0013
#0055b:13
#00552:0013
#01258:0013
#01252:0013
#03955:0013
#04158:0013
#0455b:00000013
#04555:0013
#05152:13
#0515b:0013
#05252:1313
#05255:00130013
#0535b:1313
#05358:00130013
#0545b:63
#05552:63
#05755:63
#05852:53
#05958:53
#06055:53
#0615b:63
#0655b:53
#10052:53
#1005b:63
#01159:00000000000000140000000000000000
#00658:0013
#00655:00130000
#0065b:13
#0075b:13
#00752:13
#0135b:53000053
#01455:53
#01452:000000000000000000000013000000000000000000000000
#01552:00000063
#01555:63
#0165b:53
#01658:000000000000000000000013000000000000000000000000
#01752:63
#01852:63
#01855:000000000000000000000013000000000000000000000000
#01955:0053
#0195b:53
#01958:00230000
#01952:00000023
#02058:53
#0205b:000000000000000000000013000000000000000000000000
#02852:0053
#02856:00000023
#04358:0013
#0505b:63
#0705b:13
#07052:0013
#0715b:13
#07155:00130000
#07158:0013
#0735b:0013
#07452:13
#0745b:0013
#07555:0013
#07558:00130000
#07552:13
#0765b:63
#07752:0023
#07758:0023
#07755:53
#0775b:53
#09057:00000014
#09155:00000014
#0935a:54
#09458:14
#09454:14
#09452:0014
#0955a:14
#09556:00140000
#09552:0014
#0975a:0014
#0985a:14
#09852:0014
#09956:00140000
#09952:0014
#0995a:14
#10158:53
#10155:53
#10553:00000000000000140000000000000000
#0083b0:13332300
#008380:0033003300000000
#008321:00001333
#008351:0000000000330033
#009321:23
#009380:13332300
#0093b0:0033003300000000
#009351:00001333
#009321:0000000000330033
#010351:23
#0103b0:13332300
#010380:0033003300000000
#010321:00001333
#010351:0000000000330033
#011321:23
#0133b1:13
#013381:00230000
#0133b1:00000013
#014381:23
#014350:13
#014320:000033330033330033330023000000000000000000000000
#015350:13
#015320:00230000
#015320:00000013
#015350:0000000000000023
#0163b0:13
#016380:000033330033330033330023000000000000000000000000
#017320:13
#017350:00230000
#018320:13
#018350:000033330033330033330023000000000000000000000000
#0193b0:130033330033000033330033230000000000000000000000
#019380:00330000
#019351:000000000000000000000000130033330033000033330033
#019321:00000033
#020351:23
#020380:13
#0203b0:000033330033330033330023000000000000000000000000
#021350:00000013
#021320:00000000000000000000000000332300
#022380:00000013
#0223b0:00000000000000000000000000333333
#0233b0:23
#0243b0:00000013
#024380:00000000000000000000000000333333
#025380:23
#025320:00000000000000000000000013333333
#026350:23
#026380:00000013
#0263b0:00000000000000000000000000333333
#0273b0:23
#027350:00000013
#027320:00000000000000000000000000333333
#028320:23
#028320:00000000000000001333333300333333
#028360:00000033
#029320:23
#030320:13333333333333330000000000000000
#030350:0023
#0303b1:00000000000000001333333333333333
#031381:23
#031350:13333333333333330000000000000000
#031320:0023
#031381:00000000000000001333333333333333
#0323b1:23
#032320:13333333003333332300000000000000
#032350:00330000
#0323b1:00000000000000001333333300333333
#032381:00000033
#0333b1:23
#033350:13333333003333332300000000000000
#033320:00330000
#033381:00000000000000001333333300333333
#0333b1:00000033
#034381:23
#034320:13333333333333330000000000000000
#034350:0023
#0343b1:00000000000000001333333333333333
#035381:23
#036341:0000000000000014
#037341:00240000000000000000000000000000
#037380:00140000240000000000000000000000
#037321:00000000140000240000000000000000
#037380:00000000000000140000240000000000
#037341:00000000000000000000140000240000
#0373a0:00000000000000000000000000140000
#0383a0:24
#046320:1323
#046330:00330000000000330000000000000000
#046340:0033003300000000
#046350:00000033003300000000000000000000
#046360:00330000
#0473b0:1323
#0473a0:00330000000000330000000000000000
#047390:0033003300000000
#047380:00000033003300000000000000000000
#047370:00330000
#048320:1323
#048330:00330000000000330000000000000000
#048340:0033003300000000
#048350:00000033003300000000000000000000
#048360:00330000
#0493b0:1323
#0493a0:00330000000000330000000000000000
#049390:0033003300000000
#049380:00000033003300000000000000000000
#049370:00330000
#0503b0:13
#050380:0000002300000000
#0543b0:13
#054380:000000333333
#055380:23
#055321:13
#055351:000000333333
#056351:23
#057351:13
#057321:0023
#058321:13
#058351:0023
#059381:13
#0593b1:0023
#060351:13
#060321:0023
#0613b1:13
#061381:0023
#0653b1:13
#065381:0023
#066321:13
#066351:0023
#0673b1:13
#067381:0023
#068321:13
#069351:23
#0683b0:13
#069380:23
#0763b0:13
#076380:0000002300000000
#077350:13
#077320:0053
#078350:23
#0773b1:13
#077381:0053
#0783b1:23
#0833b1:13333300000033333300000000000000
#083381:00000033333300000023000000000000
#083321:00000000000000000000000013333300
#083351:00000000000000000000000000000033
#084351:33330000002300000000000000000000
#084321:00003333330000000000000000000000
#085381:13333300000033333300000000000000
#0853b1:00000033333300000023000000000000
#0903a1:1434
#090391:003400000034003400000000
#090381:003434003400
#090371:00340024
#091321:1434
#091331:003400000034003400000000
#091341:003434003400
#091351:00340024
#0933a1:14
#093381:0034
#094381:24
#093340:0014
#094340:24
#100320:13
#100350:0023
#1003b1:13
#100381:0023
#101351:13
#101321:0023
#101380:13
#1013b0:0023
