This file was generated by Ched 2.7.0.0.
#TITLE ""
#ARTIST ""
#DESIGNER ""
#DIFFICULTY 0
#PLAYLEVEL
#SONGID ""
#WAVE ""
#WAVEOFFSET 0
#JACKET ""
#REQUEST "ticks_per_beat 480"
#00002: 4
#BPM01: 185
#BPM02: 142
#00008: 01
#02908: 01
#01208: 02
#TIL00: "54'0:0.5, 69'0:1"
#VOLUME: ""
#HISPEED 00
#MEASUREHS 00
#00112:23132313
#00115:00000000001200000000001200120000
#00117:0000001200120012
#00119:00000000000000120012000000000012
#0011b:2323
#00215:00000000001300130000000000130013
#00218:00000000000012000013001300001200
#00216:0000000000120000
#00212:23232313
#0021b:23232313
#00312:23142414
#00314:00000000001400000000000000140000
#00316:0000001400000014
#00318:00000000000000140000000000000014
#0031b:23
#0031a:0024
#00416:00140014001400140000140000001400
#0041a:2414241424001400
#00418:00000000000000000014000000140000
#00414:00000000000000000000001400000014
#00412:24242414
#00518:1212121212121212
#00516:00120012001200120012001200120012
#00512:24240000
#0051a:00002424
#0071a:14140000
#00715:000000000000000000130000290000000000290012001200
#00718:000000140000000000140000000000000000000000130000000000001200000012000000000000000000000000000000
#0071c:000000000000001212000000
#00719:000000000000000000001212
#00712:00120012000000001300000013000000
#00714:00120012000000000000000000000000
#00814:00130000000000000000000000001300
#00816:00001300000000000000000000130000
#00818:00000013000000000000000013000000
#00815:00000000130000000000001300000000
#00817:00000000001300000000130000000000
#00819:00000000000013000013000000000000
#0081b:00000000000000132300000000000000
#00812:23000000000000000000000000000013
#00914:00130000000000000000000000001300
#00916:00001300000000000000000000130000
#00918:00000013000000000000000013000000
#00915:00000000130000000000001300000000
#00917:00000000001300000000130000000000
#00919:00000000000013000013000000000000
#0091b:00000000000000132300000000000000
#00912:23000000000000000000000000000013
#01014:00130000000000000000000000001300
#01016:00001300000000000000000000130000
#01018:00000013000000000000000013000000
#01015:00000000130000000000001300000000
#01017:00000000001300000000130000000000
#01019:00000000000013000013000000000000
#0101b:00000000000000132300000000000000
#01012:23000000000000000000000000000013
#0121b:13131300
#01218:000000130000000000130000000000000000000012000000
#01216:000000000000000000000000000000000000000000120012
#01212:0000000000002413
#01214:0013001300000000
#01217:13131300
#0121a:00000024
#01312:0013000000000000
#01315:000000000000130000130013000000000000000012000000
#01319:001200
#0131b:0000000000130000
#01318:220000000000000000000000000000000000130000130013
#01310:41
#01412:000012000000000012000000000000120000120000000000
#01417:0013001300000000
#01414:000000000000001200000000
#01416:000000000000130000000000130000000012000000120000
#01418:000000000000000000000000000000120000120012000000
#0141b:13
#01415:001200001200000000000000
#0141c:000000000012000000000012000000000000000000120000
#01419:000000000012000000000012000000000000000000000000
#0141a:000000000000000000000000000000000000000000000012
#0181c:000012000000000000120000000000120000000000000000
#0181a:0000120000221200
#01818:120012000000000000120000000000000000220000120000
#01816:000000120000000012000000000000000000000000220000
#01812:000000120000000012000012000000000000000000000000
#01814:12
#02016:120000000000000000001200000000000000000000001200000000000000180000170000160000150000140000130000
#02018:000012000000120000000012000000000000000000000000
#0201a:1212000000000000
#02014:0000121200000000
#02012:000000000000120000000000000000001200000000000000000000000000130000130000130000130000130000130000
#02116:12220000000000000000001200000000
#02112:13000000000000001300001200000000
#0211c:0000000000120000
#02118:00000000000000161600120000000000
#02110:41
#0221b:1313
#02212:00000000000000000014001200000000
#02216:0000000000000000000000000000000000000014000012000000000000000000
#0221a:0000000000140000
#02218:12220000000000000000000000000000
#0551b:13
#05512:130000131313
#05518:001300000000
#05515:001300
#03818:0000001200000000
#03816:00000000000000120000000000000014
#03812:25000000000000120000000000001400
#0381c:0000001200000000
#03819:25
#0391b:00000013
#03918:00000000000000000000000000130000
#03915:0000000000000013
#03912:00000000000000002200000000000013
#03914:0022
#04018:12000013000012001200001300001200
#04016:0012120000121200
#04012:0012120000121200
#04015:00000000000000130000000000000013
#0401c:1200001212000012
#04112:0000000000001313
#04115:0000000000000000000000000000000000000000000000000013000000130000
#04118:00000000000000000000000000130013
#0411b:0000000000000000000000000000000000000000000000000000001300000013
#04114:0022
#04116:0022
#04515:00000000000000000013000000130000
#04518:0000000000130013
#0451b:00000000000000000000001300000013
#04516:0000001200000000
#04512:0000001223002300
#04815:00120000000000000000000000120000
#04818:0012000000000000
#0481b:00000012000000000000000000000012
#04819:00000000001200000012000000000000
#0481c:0000001200000000
#04813:00000000000000120000001200000000
#04816:0000000000120000
#04812:0000000000000012
#04915:00120000000000000000000000120000
#04918:0012000000000000
#0491b:00000012000000000000000000000012
#04919:00000000001200000012000000000000
#0491c:0000001200000000
#04913:00000000000000120000001200000000
#04916:0000000000120000
#04912:0000000000000012
#05014:00000000000012001200000000120000
#05012:24002400000000120000000012000000
#05016:00000000001200000012000000001200
#05018:00000000120000001200120000000012
#0501a:00002400000000000000001200000000
#0501c:00121212
#0511a:1200000000000012
#05118:00120000120000001200001200120000
#05116:12001200001200000000120012000000
#05114:00000012000012000012000000000000
#05112:12000000120000121200000012000000
#0511c:00000000120000001200000000000012
#05212:12000012000012000000000000000000
#05214:00120000120000120000000000000000
#05216:00001200001200000000000000000000
#05218:00000000000000001200001200001200
#0521a:00000000000000000012000012000012
#0521c:00000000000000000000120000120000
#05316:12000012000012000000000000000000
#05314:00120000120000120000000000000000
#05312:00001200001200000000000000000000
#0531c:00000000000000001200001200001200
#0531a:00000000000000000012000012000012
#05318:00000000000000000000120000120000
#0541b:000000131313
#05418:16
#0541f:11
#05612:13
#05615:000013000000001300000013
#05618:001300
#0561b:0013
#05617:000000001313
#05619:00000013
#0601a:141414141414140000000000
#06015:001400140014001400140014000000000000000000000000
#06016:000000000000001300000000
#06019:000013
#06014:00000013
#06017:000000000013
#06012:000000000000000000000013
#06218:000013001300000000130000
#06215:000000130000001300000013
#06212:230000232323
#0621b:230000232323
#06315:000013001300000000130000
#06318:000000130000001300000013
#06312:230000232323
#0631b:230000232323
#06418:001313000000
#06415:000000130000001600160016
#06412:230000232323
#0641b:230000232323
#06515:001300000013001300000013
#06515:001300000000001300000000
#06518:001313001313
#0651b:23130013
#06512:2313
#06612:13
#06812:13
#06815:13
#06818:13
#0681b:13
#00619:1212000000000012
#00617:00120000000012001200120000000012
#00616:00000012000000000000000000120000
#00618:00120012
#00615:00000000001200120012001200000000
#00612:2424
#0061a:00240024
#01117:0000121200000000
#01112:24002400000000240000000000000000
#0111a:24002400000000240000000000000000
#0111b:0000222200000000
#01113:0000222200000000
#0151b:0013000000000000
#01518:000000000000130000130013000000000000000000000000
#01515:000000000000000012000000000000000000130000130013
#01512:0000000000130000
#01519:000000000012
#01516:22
#0151c:22
#0161c:000012000000000012000000000000120000120000000000
#01616:000000130000000000130000000000120000120012000000
#0161a:000000000000001200000000
#01618:000000000000000000000000000000000012000000120000
#01612:130000000012000000000012000000000000000000120000
#01619:001200001200000000000000
#01617:00131300
#01615:000000000012000000000012000000000000000000000000
#01614:000000000000000000000000000000000000000000000012
#01716:0012001212120012
#01714:0012000000001200
#01718:2200121212001200
#0171a:0000120000120012
#01712:22
#01918:001200001200220000120000
#0191a:000000120000120000120012000000120000000000000000
#0191c:000000000012000000000000000000000000000000120000
#01914:220000120000000000000000220000120000120000120012
#01916:120000120000001200001200
#01912:000000000000000000120000000000000012000000000000
#02312:13000000000000001300001200000000
#0231c:0000000000120000
#02315:00000000000000190000000000000000
#02318:0000000016120000
#02316:12220000000000000000001200000000
#0241b:1313
#02412:00000000000000000014001200000000
#02416:0000000000000000000000000000000000000014000012000000000000000000
#0241a:0000000000140000
#02418:12220000000000000000000000000000
#02516:12220000000000000000120000000000
#02512:1313
#02515:00000000000000190000000000000000
#0251a:0014
#02518:00000000000000000012001200000000
#0261b:1313
#02616:00000000000000000012000012001200
#02618:1200220000000000000000000000000000000012000000000000000000000000
#0261a:0000000000120000
#02614:00000000000000000000001200000000
#02612:00000000000000191200000000120012
#02712:1613
#02716:00000000000000000012000000000000
#02718:00000000000000160000120000000000
#0271a:00220000000000000000001200000000
#0271c:00000012
#02818:16000000000000000000000000120000
#0281b:0013
#02814:00220000000000000012000000000012
#02817:0000000000000000000000000000000000000012000000000000000000000000
#0281a:0000000000121200
#02816:0000000000000012
#0281c:00000000000000000000001200000000
#02812:00000000000000160000000000000000
#02917:12121212
#0301c:1212120000000000
#03017:1200001200000012
#03019:00000000001300000000000000000013
#03014:00000000000000130012001200130000
#03012:0000000012121200
#0301a:00120012000000000000000000000000
#03010:41
#0321c:1212120000000000
#03218:00140014001400000000000000000014
#03216:0000001400000014
#03214:00000000000000140014001400140000
#03212:0000000012121200
#03319:0000120000001200000000001200000000000000001200000000000000000000
#0331c:0000000012000012
#0331a:0000000000000000000000000000000000120000000000001200000000120000
#03314:0000000000000000000000000000000000001200000000000000001200001200
#03316:0000000000000000000000000000000000000012000000000000000000000012
#0331b:1300000000120000
#03313:00000000000000000000001200000000
#03315:0000000012000000000012000000120000000000000000120000000000000000
#03318:0000000000000000000000000000000000000000000000000012000000000000
#03312:00000000130000000000000000120000
#03519:00120000001200000000000000000000
#03517:0012120000000000
#03512:14000025000000000024000000000024
#03518:00000000000000120000001200120000
#03516:0000000012120012
#0351b:23
#0351a:0000002400002400
#03619:00002500000000002500000000000012
#03616:12
#03618:00120000000000000000000000000000
#03617:00000012000000120012000000120000
#03615:0000121200121200
#0361b:0000000000000023
#03612:00000000002300000000002300002300
#03717:12000012000012000012000012000012
#03715:0012000012000012
#03719:00230000001200230000001200230000
#0371b:0000230000230000
#03712:00230000000000230000000000230000
#03714:0000230000230000
#0311c:1212120000000000
#03119:00120012001300000000000000000013
#03117:0000001200000012
#03114:00000000000000130000000000130000
#03112:0000000012121200
#03115:00000000000000000012001200000000
#0341c:1212000000000000
#03418:00120012000000000000000000000000
#0341a:0000140000000014
#03416:00000000001400140012001200140014
#03412:0000001412121400
#06118:001200120012001200120012000000001300000000000000
#06115:000000000013
#0611c:121212121212120000000000
#04216:00000000000012002200000000000014
#04218:00000000000000120000000000000000
#0421a:0000000000000014
#0421c:00000000000000120000000000000000
#04212:2600001222000000
#04210:41
#04312:00000013
#04315:00000000000000000000000000130000
#04318:0000000000000013
#0431b:00000000000000000000000000000013
#0431c:0022
#0431a:0022
#04418:00001200220000130000120022000013
#04415:00000013000000000000001300000000
#04416:2200001222000012
#0441c:0012220000122200
#04412:2200001222000012
#0571b:130013000013
#05719:001300130000001300000000
#05717:001300131300
#05715:000000000013000000130000
#05718:000000000000000000000013
#05818:000014001400000000130000
#05815:13130000
#05814:000000001414
#05812:001400
#0581a:000000000014
#05919:001414000000
#05916:00130000
#05913:000014
#05917:00000013
#0591a:000000000014
#05912:001400
#07218:13000013000013231300001300001323
#07215:00001323130000130000132313000013
#07212:0023230000232300
#0721b:2300002323000023
#07318:13000000130000130013000000130000
#07315:00130013000013000000130000001300
#07312:00001300001300000000001300000013
#0731b:23001313
#0711b:00130000000013000000130000130000
#07118:2300000013000000000013000000000000001300000013000013000000130000
#07115:13000013000000001300000013001313
#07112:0000000000000000130000000000130000000000000000000000001300000013
#07110:41
#07816:00120012000012002200000000120000
#07812:2412120000000000
#07814:00000000001200001200120012000000
#07818:00000000000000120012001200001200
#0781a:00000000000000000000000000000012
#07916:1212120000000000
#0791a:00120012000012002200000000120012
#07918:22000000001200001200120012000000
#0791c:00000000000000120012001200001200
#08016:12001200120000002400000000120012
#0801a:00120012000012000000000000000000
#08018:24000000001200120012001200001200
#08014:0000000012121200
#08112:1212221222122200
#08116:00120000001200000012000000001200
#08118:00120012001200120012001200120000
#0811a:00000012000000120000001200000000
#08114:24000000000000000000000000000012
#0821c:1212120000000000
#08218:24120012000012000000000000120000
#0821a:00000000001200001200120012000000
#08216:00000000000000122412001200001200
#08214:00000000000000000000000000000012
#08314:00130000001300130000001300130000
#08316:0013130013130013
#0831b:23
#08318:00000023000000000023000000000023
#08312:0000002c00002c00
#08416:1300131300000000
#08414:00130013000000130000000000000000
#08412:002c000000002300
#08418:00000000002300000000230000002300
#0841b:0023
#08415:0000000000232323
#08519:00130000001300130000001300000000
#08517:0013130013130000
#08515:00000023000000000023000000230000
#0851b:00000000000000000000000000000023
#08518:0000000000000023
#08512:2300002c00002300
#08612:1212120000000000
#08616:00120012000012002200000000120000
#08614:22000000001200001200120012000000
#08618:00000000000000120012001200001200
#0861a:00000000000000000000000000000012
#08610:41
#08716:1212120000000000
#0871a:00120012000012002200000000120012
#08718:22000000001200001200120012000000
#0871c:00000000000000120012001200001200
#08816:12001200120000002400000000120012
#0881a:00120012000012000000000000000000
#08818:24000000001200120012001200001200
#08814:0000000012121200
#08912:1212221222122200
#08916:00120000001200000012000000001200
#08918:00120012001200120012001200120012
#0891a:00000012000000120000001200000000
#08914:24
#09012:1313
#09014:001300000013001300000000
#09016:001313001300
#09018:00130013
#0901b:232323232323232323230000
#0911b:1313
#09119:001300000013001300000000
#09117:001313001300
#09115:00130013
#09112:232323232323232323230000
#09218:000000000000000000000000000000000000130000000000220000000000000022000000000000002200000000000000220000000000000000000000000000000000000000130000000000000000000000000000000000000000000000000000
#09215:0000000000000013000000000000000000000000000013000000000000000000
#0921c:000000222222220000000000
#09212:230000000000000000222222
#0921b:23
#09216:000000000000000000222222
#09712:00130000000000130013001300130013
#09715:1600000013000000000000001300000000000013000000130000001300000013
#09718:0000000000001300000013000000000000130000001300000013000000130000
#0971b:2300230023132313
#09816:00120012001200120012000000120000
#09818:2212221222002200
#09812:00000000000000000012000000120000
#0981a:0000000000120012
#09814:00000000000000000000001200000012
#0981c:00002222
#0991a:0012001200000000
#09912:00120000001200000000000023000000
#09916:00120000001200000000000000000000
#09914:00000012000000120000000000000000
#09917:00000000000000000012001200000000
#09913:0000000000120000
#09919:0000000000000000000000000000000000120000000000120000000000000000
#09915:0000000000000000000000000000000000000012001200000000000000000000
#0991b:00002323
#09918:22220000
#0991c:22220000
#10012:16000026
#10018:16
#10015:0000000000000026
#10517:0000121200000000
#10518:26
#1051a:00002400000000240000000000000000
#10512:00002400000000240000000000000000
#1051b:0000222200000000
#10513:0000222200000000
#10214:00130000000000000000000000001300
#10216:00001300000000000000000000130000
#10218:00000013000000000000000023000000
#10217:00000000001300000000130000000000
#10219:00000000000013000013000000000000
#1021b:23000000000000130000000000000000
#10215:00000000230000000000001300000000
#10212:23000000000000002c00000000000013
#10314:00130000000000000000000000001300
#10316:00001300000000000000000000130000
#10318:00000013000000000000000023000000
#10317:00000000001300000000130000000000
#10319:00000000000013000013000000000000
#1031b:00000000000000130000000000000000
#10315:00000000230000000000001300000000
#10312:2c000000000000002c00000000000013
#09615:16001600160016131600160016001613
#09618:00000013000000260000001300000026
#09612:00002326230000000000232623000000
#0961b:2300002323000023
#09512:0000130000000000000000000000000013000000000013000013000000000013
#09515:00001300000000120000130000130013
#09518:1300000000001300000000000000000000001300000000000000001300130000
#0951b:2300130013001313
#09519:00000000001200000000000000000000
#09517:0000001200000000
#07018:00001300230000231300130023000023
#07012:23000013000023000000001300002300
#07015:00000023130013002300002313001300
#0701b:23002300000000130000230000000013
#0701f:21
#09415:00001300130000130000130013000013
#09418:00000013000013261300001300001326
#09412:2c002326230000000000232623000000
#0941b:0000002323000023
#0461b:00130000130000130000001300001300
#04618:00001300001300000000000000000000
#04615:00000013000013000013000013000013
#04612:00000000000000000000130000130000
#04715:00130000130000130000001300001300
#04718:00001300001300000000000000000000
#0471b:00000013000013000013000013000013
#04712:00000000000000000000130000130000
#07615:13000013000013231300001300001323
#07618:00001323130000130000132313000013
#0761b:0023230000232300
#07612:2300002323000023
#07512:00130000000013000000130000130000
#07515:2300000013000000000013000000000000001300000013000013000000130000
#07518:13000013000000001300000013001313
#0751b:0000000000000000130000000000130000000000000000000000001300000013
#07415:00001300230000231300130023000023
#0741b:00000013000023000000001300002300
#07418:00000023130013002300002313001300
#07412:2c002300000000130000230000000013
#09318:000000140000000000000000000000000000140000000000000000000000000000000012000000000000000000000000000012000000000000000000
#09316:00000000140000000000000000001400000000000000000000120000000000000000001200000000
#09314:000000000000000000140000000000000000000000000000140000000000000000000000000000001200000000000000000000000000001200000000
#09312:000000000000000000000000000000000000000000000000140000000000000000000000000000000000000000000000000000000000140000000000000000000000000000000000000000000000000000000000001200000000000000000000000000000000000000000000000000000000001200000000
#0931a:240000000000240000000000001200000000001200000000
#0931c:00002222
#07715:001300000013001300000013001300000013001300000013
#07718:001313001313001313001313
#07712:23232323
#0771b:0023002300230023
#00015:0023
#00018:00000023
#06914:00002323
#06919:00002323
#10118:26
#10112:0026
#10412:0000262600002626000026260000262600002626000026260000262600002626
#10418:2626000026260000262600002626000026260000262600002626000026260000
#05458:66
#0685b:53
#06858:53
#06855:53
#06852:53
#0015b:13
#00152:13
#0035a:0044
#0035b:43
#00352:3334
#00452:14141400
#00552:14140000
#0055a:00001414
#00652:1414
#0065a:00140014
#0115a:00000000000000140000000000000000
#01152:00000000000000140000000000000000
#0125b:0013
#01257:0013
#01252:0013
#02058:000000000000000000000052000000000000000000000000
#0405c:1212
#04058:1212
#04056:00120012
#04052:00120012
#03859:15
#03852:15
#05552:63
#0595a:000000000014
#05952:000000000014
#07052:13
#0705b:13
#07452:1c
#09058:00000013
#0905b:00000013
#09155:00000013
#09152:00000013
#09452:1c
#10052:56
#10058:56
#10552:00000000000000140000000000000000
#1055a:00000000000000140000000000000000
#01852:000000120000000000000052000000000000000000000000
#01856:0012000000000000
#0185c:0000001200000000
#01858:0000001200000000
#03952:0012
#03954:0012
#04156:0012
#04154:0012
#04252:16
#0435c:0012
#0435a:0012
#04452:1212
#04456:1212
#04458:00120012
#0445c:00120012
#012320:13332300
#0133b0:1323
#013321:0013
#014321:23
#015321:1323
#0153b0:0013
#0163b0:23
#0173c0:000012220000000000000000000000000000000000000000
#017320:000000000012220000000000000000000000000000000000
#0173c0:000000000000000012220000000000000000000000000000
#017320:000000000000000000000012220000000000000000000000
#0173c0:000000000000000000000000000012220000000000000000
#017320:000000000000000000000000000000000012220000000000
#0173c0:000000000000000000000000000000000000000012220000
#017320:000000000000000000000000000000000000000000000012
#018320:22
#018320:000000000000000000000012000000000000000000000000
#018380:0000000000220000
#018360:000000000000000000000000000000000012220000000000
#018340:000000000000000000000000000000000000000012220000
#018320:000000000000000000000000000000000000000000000012
#019320:22
#020380:000000000000000000000012000000000000000000000000
#0213c0:00220000000000000000000000000000
#021321:00130023000000000000000000000000
#021362:00120000000000002200000000000000
#021380:00000016002600000000000000000000
#021321:00000000001300230000000000000000
#021382:00000000000000000000000012220000
#0213c1:00000000000000000000000012220000
#021360:00000000000000000000000000122200
#021321:0000000000000012
#022321:00220000000000000000000000000000
#0223b0:00130023000000000000000000000000
#022382:00120000000000002200000000000000
#022321:00000016002600000000000000000000
#0223b0:00000000001300230000000000000000
#0223c2:00000000000000000000000012220000
#022380:00000000000000000000000000122200
#022342:00000000000000000000000000001222
#022380:00000000000000000000000000000012
#023380:00220000000000000000000000000000
#023322:00130023000000000000000000000000
#023361:00120000000000002200000000000000
#023360:00000018002800000000000000000000
#023322:00000000001300230000000000000000
#023381:00000000000000000000000012220000
#0233c2:00000000000000000000000012220000
#023360:00000000000000000000000000122200
#023322:0000000000000012
#024322:00220000000000000000000000000000
#0243b0:00130023000000000000000000000000
#024381:00120000000000002200000000000000
#024322:00000018002800000000000000000000
#0243b0:00000000001300230000000000000000
#0243c1:00000000000000000000000012220000
#024380:00000000000000000000000000122200
#024341:00000000000000000000000000001222
#024380:00000000000000000000000000000012
#025380:00220000000000000000000000000000
#025321:00130023000000000000000000000000
#025362:00120000000000002200000000000000
#025350:00000019002900000000000000000000
#025321:00000000001300230000000000000000
#025322:00000000000000000000000012220000
#025361:00000000000000000000000012220000
#0253a0:00000000000000000000000000122200
#025321:0000000000000012
#026321:00220000000000000000000000000000
#025362:0000000000000012
#026362:00220000000000000000000000000000
#0263b0:00130023000000000000000000000000
#026383:00120000000000002200000000000000
#026321:00000019002900000000000000000000
#0263b0:00000000001300230000000000000000
#0263c3:00000000000000000000000012220000
#026380:00000000000000000000000000122200
#0263c3:00000000000000000000000000001222
#026380:00000000000000000000000000000012
#027380:22
#0273c3:12220000000000000000000000000000
#027320:00160026000000000000000000000000
#0273a1:00120000000000002200000000000000
#027383:00000016002600000000000000000000
#027320:00000000001600260000000000000000
#027321:00000000000000000000000012220000
#027360:00000000000000000000000000122200
#027321:0000000000000012
#028321:00220000000000000000000000000000
#028380:00160026000000000000000000000000
#028343:00120000000000002200000000000000
#028321:00000016002600000000000000000000
#028380:00000000001600260000000000000000
#038383:0000000012000022
#0383c0:0000000012000022
#0393a0:12000022000000000000000000000000
#0393c3:12000022000000000000000000000000
#039341:00000012000022000000000000000000
#039362:00000012000022000000000000000000
#039383:0000001222000000
#0393a0:0000001222000000
#041380:12000022000000000000000000000000
#0413c3:12000022000000000000000000000000
#041322:00000012000022000000000000000000
#041361:00000012000022000000000000000000
#041383:0000001222000000
#0413a0:0000001222000000
#042360:0000000012000022
#042323:0000000012000022
#043343:12000022000000000000000000000000
#043320:12000022000000000000000000000000
#0433a1:00000012000022000000000000000000
#043382:00000012000022000000000000000000
#043360:0000001222000000
#043343:0000001222000000
#045363:12000022000000000000000000000000
#045320:12000022000000000000000000000000
#0453c2:00000012000022000000000000000000
#045381:00000012000022000000000000000000
#046321:1323
#046382:0013
#047382:23
#047321:1323
#047382:0013
#048382:23
#048321:12220000
#048362:00122200
#0483c1:00001222
#048382:00000012
#049382:22
#049321:12220000
#049362:00122200
#0493c1:00001222
#049382:00000012
#050382:22
#052382:12220000
#0523c1:00122200
#052362:00001222
#052321:00000012
#053321:22
#0533c2:12220000
#053381:00122200
#053322:00001222
#053361:00000012
#054361:22
#054382:16
#055322:33
#0563b2:23
#056322:0013
#058322:23
#0583a1:1424
#058322:0014
#059322:24
#0593a1:1424
#059322:000000140024
#062352:16
#066352:26
#0663b1:13
#0683b1:33
#0693a1:22
#066382:000000133333
#068382:33
#069382:22
#067350:13
#068350:33
#069360:22
#067323:000000133333
#068323:33
#069343:22
#083322:130000000000000000000000000000000000000000000000000000000000000000000000000000000000000000000000000000000000000000000000000000000000000000000000000000000000000000000000000000000000000000000000000000000000000000000000000000000000000000000000000000000000000000000000000000000000000000000000000000000000000000000000000000000000000000000000000000000000000000000000000000000000000000000000000000000000000000000000000000000000000000000000000000000000000000000000000000000000000000000000000000000000000000000000000000000000000000000000000000000000000000000000000000000000000000000000000000000000000000000000000000000000000000000000000000000000000000000000000000000000000000000000000000000000000000000000000000000000000000000000000059000000000000000000000000000000000000000000000000000000000000000000000000000000000000000000000000000000000000000000000000000000000000000000000000000000000000000000000000000000000000000000000000000000000000000000000000000000000000000000000000000000000000000000000000000000000000000000000000000000000000000000000000000000000000000000000000000000000000000000000000000000000000000000000000000000000000000000000000000000000000000000000000000000000000000000000000000000000000000000000000000000000000000000000000000000000000000000000000000000000000000000000000000000000000000000000000000000000000000000000000000000000000000000000000000000000000000000000000000000000000000000000000000000000000000000000000000000000000000000005300000000000000000000000000000000000000000000000000000000000000000000000000000000000000000000000000000000000000000000000000000000000000000000000000000000000000000000000000000000000000000000000000000000000000000000000000000000000000000000000000000000000000000000000000000000000000000000000000000000000000000000000000000000000000000000000000000000000000000000000000000000000000000000000000000000000000000000000000000000000000000000000000000000000000000000000000000000000000000000000000000000000000000000000000000000000000000000000000000000000000000000000000000000000000000000000000000000000000000000000000000000000000000000000000000000000000000000000000000000000000000000000000000000000000000000000000000000000000000000000059000000000000000000000000000000000000000000000000000000000000000000000000000000000000000000000000000000000000000000000000000000000000000000000000000000000000000000000000000000000000000000000000000000000000000000000000000000000000000000000000000000000000000000000000000000000000000000000000000000000000000000000000000000000000000000000000000000000000000000000000000000000000000000000000000000000000000000000000000000000000000000000000000000000000000000000000000000000000000000000000000000000000000000000000000000000000000000000000000000000000000000000000000000000000000000000000000000000000000000000000000000000000000000000000000000000000000000000000000000000000000000000000000000000000000000000000000000000000000000000000005300000000000000000000000000000000000000000000000000000000000000000000000000000000000000000000000000000000000000000000000000000000000000000000000000000000000000000000000000000000000000000000000000000000000000000000000000000000000000000000000000000000000000000000000000000000000000000000000000000000000000000000000000000000000000000000000000000000000000000000000000000000000000000000000000000000000000000000000000000000000000000000000000000000000000000000000000000000000000000000000000000000000000000000000000000000000000000000000000000000000000000000000000000000000000000000000000000000000000000000000000000000000000000000000000000000000000000000000000000000000000000000000000000000000000000000000000000000000000000059000000000000000000000000000000000000000000000000000000000000000000000000000000000000000000000000000000000000000000000000000000000000000000000000000000000000000000000000000000000000000000000000000000000000000000000000000000000000000000
#084322:000000000000000000000000000000000000000000000000000000000000000000000000000000000000000000000000000000000000000000000000000000000000000000000000000000000000000000000000000000000000000000000000000000000000000000000000000000000000000000000000005300000000000000000000000000000000000000000000000000000000000000000000000000000000000000000000000000000000000000000000000000000000000000000000000000000000000000000000000000000000000000000000000000000000000000000000000000000000000000000000000000000000000000000000000000000000000000000000000000000000000000000000000000000000000000000000000000000000000000000000000059000000000000000000000000000000000000000000000000000000000000000000000000000000000000000000000000000000000000000000000000000000000000000000000000000000000000000000000000000000000000000000000000000000000000000000000000000000000000000000000000000000000000000000000000000000000000000000000000000000000000000000000000000000000000000000000000000000000000000000230000000000000000000000000000000000000000000000000000000000000000000000000000000000000000000000000000000000000000000000000000000000000000000000000000000000000000000000000000000000000000000000000000000000000000000000000000000000000000000000000000000000000000000000000000000000000000000000000000000000000000000000000000000000000000000000000000000000000000000000000000000000000000000000000000000000000000000000000000000000000000000000000000000000000000000000000000000000000000000000000000000000000000000000000000000000000000000000000000000000000000000000000000000000000000000000000000000000000000000000000000000000000000000000000000000000000000000000000000000000000000000000000000000000000000000000000000000000000000000000000000000000000000000000000000000000000000000000000000000000000000000000000000000000000000000000000000000000000000000000000000000000000000000000000000000000000000000000000000000000000000000000000000000000000000000000000000000000000000000000
#0853b2:130000000000000000000000000000000000000000000000000000000000000000000000000000000000000000000000000000000000000000000000000000000000000000000000000000000000000000000000000000000000000000000000000000000000000000000000000000000000000000000000000000000000000000000000000000000000000000000000000000000000000000000000000000000000000000000000000000000000000000000000000000000000000000000000000000000000000000000000000000000000000000000000000000000000000000000000000000000000000000000000000000000000000000000000000000000000000000000000000000000000000000000000000000000000000000000000000000000000000000000000000000000000000000000000000000000000000000000000000000000000000000000000000000000000000000000000000000000000000000000000000000000000000000000000000000000000000000000000000000000000000000000000000000000000000000000000000000000000000000000000000000000000000000000000000000000000000000000000000000000000000000000000000000000000000000000000000000000000000000000000000000000000000000000000000000000000000000000000000000000000000000000000000000000000000000000000000000000000000000000000000000000000000000000000000000000000000000000000000000000000000000000000000000000000000000000000000000000000000000000000000000000000000000000000000000000000000000000000000000000000000000000000000000000000000000000000000000000000000000000000000000000000000000000000000000000000000000000000000000000000000000000000000000000000000000000000000000000000000000000000005300000000000000000000000000000000000000000000000000000000000000000000000000000000000000000000000000000000000000000000000000000000000000000000000000000000000000000000000000000000000000000000000000000000000000000000000000000000000000000000000000000000000000000000000000000000000000000000000000000000000000000000000000000000000000000000000000000000000000000000000000000000000000000000000000000000000000000000000000000000000000000000000000000000000000000000000000000000000000000000000000000000000000000000000000000000000000000000000000000000000000000000000000000000000000000000000000000000000000000000000000000000000000000000000000000000000000000000000000000000000000000000000000000000000000000000000000000000000000000000000000000000000000000000000000000000000000000000000000000000000000000000000000000000000000000000000000000000000000000000000000000000000000000000000000000000000000000000000000000000000000000000000000000000000000000000000000000000000000000000000000000000000000000000000000000000000000000000000000000000000000000000000000000000000000000000000000000000000000000000000000000000000000000000000000000000000000000000000000000000000000000000000000000000000000000000000000000000000000000000000000000000000000000000000000000000000000000000000000000000000000000000000000000000000000000000000000000000000000000000000000000000000000000000000000000000000000000000000000000000000000000000000000000000000000000000000000000000000000000000230000000000000000000000000000000000000000000000000000000000000000000000000000000000000000000000000000000000000000000000000000000000000000000000000000000000000000000000000000000000000000000000000000000000000000000000000000000000000000000000000000000000000000000000000000000000000000000000000000000000000000000000000000000000000000000000000000000000000000000000000000000000000000000000000000000000000000000000000000000000000000000000000000000000000000000000000000000000000000000000000000000000000000000000000000000000000000000000000000000000000000000000000000000000000000000000000000000000000000000000000000000000000000000000000000000000000000000000000000000000000000000000000000000000000000000000000000000000000000000000000000000000000000000000000000000000000000000000000000000000000000000000000000000000000000000000000000000000000000000000000000000000000000000000000000000000000000000000000000000000000000000000000000000000000000000000000000000000000000000000
#085352:000000000000000000000000000000000000000000000000000000000000000000000000000000000000000000000000000000000000000000000000000000000000000000000000000000000000000000000000000000000000000000000000000000000000000000000000000000000000000000000000000000000000000000000000000000000000000000000000000000000000000000000000000000000000000000000000000000000000000000000000005900000000000000000000000000000000000000000000000000000000000000000000000000000000000000000000000000000000000000000000000000000000000000000000000000000000000000000000000000000000000000000000000000000000000000000000000000000000000000000000000000000000000000000000000000000000000000000000000000000000000000000000000000000000000000000000000000000000000000000000000000000000000000000000000000000000000000000000000000000000000000000000000000000000000000000000000000000000000000000000000000000000000000000000000000000000000000000000000000000000000000000000000000000000000000000000000000000000000000000000000000000000000000000000000000000000000000000000000000000000000000000000000000000000000000000000000000000000000000000000005900000000000000000000000000000000000000000000000000000000000000000000000000000000000000000000000000000000000000000000000000000000000000000000000000000000000000000000000000000000000000000000000000000000000000000000000000000000000000000000000000000000000000000000000000000000000000000000000000000000000000000000000000000000000000000000000000000000000000000000000000000000000000000000000000000000000000000000000000000000000000000000000000000000000000000000000000000000000000000000000000000000000000000000000000000000000000000000000000000000000000000000000000000000000000000000000000000000000000000000000000000000000000000000000000000000000000000000000000000000000000000000000000000000000000000000000000000000000000000000000000000000000000000000000000000000000000000000000000000000000000000000000000000000000000000000000000000000000000000000
#086342:12220000
#086362:00001222
#087382:12220000
#0873a2:00001222
#088382:14240000
#088362:00001424
#089342:14000024
#100382:16
#102382:23
#100320:16
#102350:23
#101383:16260000
#101323:00001626
