This file was generated by Ched 2.7.0.0.
#TITLE ""
#ARTIST ""
#DESIGNER ""
#DIFFICULTY 0
#PLAYLEVEL
#SONGID ""
#WAVE ""
#WAVEOFFSET 0
#JACKET ""
#REQUEST "ticks_per_beat 480"
#00002: 4
#BPM01: 185
#BPM02: 142
#00008: 01
#02908: 01
#01208: 02
#TIL00: ""
#VOLUME: ""
#HISPEED 00
#MEASUREHS 00
#0051a:1414
#00514:00140000
#00612:1414
#00618:00140000
#00818:0014
#00812:0014
#0081a:24
#00814:24
#0091a:14
#00914:14
#00918:0014
#00912:0014
#0101a:14
#01014:14
#01018:0014
#01012:0014
#01218:1414
#01214:00140000
#01312:14
#01318:00140000
#01314:0014
#0131a:00000014
#01310:41
#01414:1414
#0141a:00140000
#01418:00000014
#01512:14
#01518:00140000
#01514:0014
#0151a:00000014
#01612:14
#0171a:14
#01714:00140000
#01718:0014
#01712:00000014
#01818:1414
#01812:00140000
#01814:00000014
#0191a:14
#01914:00140000
#01918:0014
#01912:00000014
#0201a:14
#02018:00343400
#03012:1414
#03018:00140014
#03010:41
#03114:1414
#0311a:00140014
#03212:1414
#03218:00140014
#03314:1414
#0331a:00140014
#03412:1414
#03418:00140014
#03818:0014
#04018:14
#04014:0014
#04614:0000140000140000
#04618:00001414
#0461a:24
#04712:14
#04718:0000140000140000
#04714:00001414
#0481a:14
#04814:0000140000140000
#04818:00001414
#04912:14
#04918:0000140000140000
#04914:00001414
#0501a:14
#05018:00140000
#05012:0014
#05014:00000014
#05118:14
#0511a:00140000
#05114:0014
#05112:00000014
#0521a:14140000
#05214:0014000000000000
#05212:00001414
#05218:0000000000140000
#0531a:14140000
#05314:0014000000000000
#05312:00001414
#05318:0000000000140000
#0541a:14
#0541f:11
#05614:0014
#05814:14
#05818:0014
#06018:14
#06014:0014
#06212:14
#0621a:000000140014
#06214:000014
#06314:14
#06318:000000140014
#06312:000014
#06412:14
#0641a:000000140014
#06414:000014
#07412:1414
#07418:00140014
#07514:1414
#0751a:00140014
#07018:00140000
#0701a:00000014
#07012:24
#07014:0024
#0701f:21
#07612:14
#0771a:14
#07818:00140014
#07812:2414
#0791a:00140014
#07914:2414
#08018:00140014
#08012:2414
#0811a:00140014
#08114:2414
#08218:00140014
#08212:2414
#08612:00001414
#08618:0000000000140000
#0861a:00240000
#08610:41
#0871a:00001414
#08714:0000000000140000
#08718:24
#08712:00240000
#08812:00001414
#08818:0000000000140000
#08814:24
#0881a:00240000
#0891a:00001414
#08914:0000000000140000
#08918:24
#08912:00240000
#09218:00140000
#09214:0014
#0921a:00000014
#09212:24
#09314:0014
#09312:24
#09414:00001414
#09418:0000240000140000
#09518:00001414
#09514:0000240000140000
#0951a:24
#09614:0014
#09618:0000000000140000
#09612:24000014
#0961a:00240000
#09718:0014
#09714:0000000000140000
#0971a:24000014
#09712:00240000
#09818:0014001400000000
#09812:24140000
#0981a:0000000000140014
#09814:00002414
#09918:0014001400000000
#09912:24142400
#00018:0024
#00014:00000024
#0011a:24
#00112:0024
#00218:2424
#00214:00240000
#00312:24
#0031a:0024
#00414:2424
#00418:00240000
#0071a:24
#00714:24
#00712:0024
#00718:0024
#03512:24
#04212:24
#0421a:0024
#04210:41
#04312:0024
#0441a:24
#04412:0024
#0451a:0024
#04514:00000024
#06914:0024
#06918:00000024
#07112:2424
#07118:00240000
#07110:41
#0721a:24
#07212:0024
#0731a:2424
#07314:00240000
#08312:24
#08418:0000000000240000
#08414:00000024
#0841a:0000000000000024
#08514:24
#09012:24
#09013:003400000034003400000000
#09014:003434003400
#0911a:24
#09119:003400000034003400000000
#09118:003434003400
#1001a:24
#10214:00240000
#1021a:0024
#10212:00000024
#10318:24
#10314:00240000
#1031a:0024
#10312:00000024
#10418:24
#10414:00240000
#1041a:0024
#10412:00000024
#10518:24
#02110:41
#0015a:14
#00152:0014
#00352:14
#0035a:0014
#0115a:00000000000000140000000000000000
#01154:00000000000000140000000000000000
#0085a:54
#00854:54
#00858:0024
#00852:0024
#00954:54
#0095a:54
#00952:0024
#00958:0024
#0105a:54
#01054:54
#01058:0024
#01052:0024
#01652:54
#01654:00000014
#0205a:64
#02058:00000014
#03854:14
#03954:0014
#04158:0014
#04352:0014
#0455a:0014
#04554:00000014
#0545a:54
#07052:14
#07054:0014
#0725a:14
#07252:0014
#07652:54
#0775a:54
#09354:0054
#09352:54
#10558:00000000000000140000000000000000
#0083a0:14
#008380:0054
#0093a0:34
#009380:0054
#0103a0:34
#010380:0054
#0113a0:34003400340034240000000000000000
#008341:14
#008321:0054
#009341:34
#009321:0054
#010341:34
#010321:0054
#011341:34003400340034240000000000000000
#016321:14
#016341:00000024
#0203a1:14
#020381:00343424
#021321:1424
#021341:00340000
#0223a1:1424
#022381:00340000
#023341:1424
#023321:00340000
#024381:1424
#0243a1:00340000
#025321:14003424
#025341:00340000
#0263a1:14003424
#026381:00340000
#027341:14003424
#027321:00340000
#028381:14003424
#0283a1:00340000
#035321:14000034
#035331:00000034000000000034000000000034
#035341:0000003400000000
#036341:0034000000000034
#036331:00000000003400000000003400000000
#036321:0034
#037331:00340000000000340000000000000000
#037321:00340000
#037341:00000000000000000000340000340000
#038341:24
#039321:14
#039331:00000034000000000000000000000000
#039341:0000003424000000
#0413a1:14
#041391:00000034000000000000000000000000
#041381:0000003424000000
#043341:14
#043331:00000034000000000000000000000000
#043321:0000003424000000
#045381:14
#045391:00000034000000000000000000000000
#0453a1:0000003424000000
#0543a1:14
#056381:24
#057381:14
#0573a1:0024
#059341:14
#059321:0024
#0613a1:14
#061381:0024
#065341:1424
#0663a1:14
#066381:0024
#067321:14
#067341:0024
#068381:14
#0693a1:24
#076321:14
#076341:0024
#0773a1:14
#077381:0024
#083321:1400003400003400
#083341:00000034000000000034000000000034
#084321:0034000024000000
#084341:00000000003400000000000000000000
#085341:14000000000034000000000034343434
#085321:00000034000000000034000000000000
#086341:24
#090321:1434
#090331:003400000034003400000000
#090341:000034343400000034240000
#0913a1:1434
#091391:003400000034003400000000
#091381:000034343400000034240000
#093321:14
#093341:0034
#094321:24
#099321:00001424
#1003a1:14
#101381:34
#1013a1:0034
#102381:24
#105381:14003400340034240000000000000000
