This file was generated by Ched 2.6.4.0.
#TITLE ""
#ARTIST ""
#DESIGNER ""
#DIFFICULTY 0
#PLAYLEVEL
#SONGID ""
#WAVE ""
#WAVEOFFSET 0
#JACKET ""
#REQUEST "ticks_per_beat 480"
#00002: 4
#BPM01: 138
#00008: 01
#TIL00: ""
#HISPEED 00
#MEASUREHS 00
#0111a:14
#01214:14
#01314:14
#01418:14
#01518:14
#01818:14
#01810:41
#01914:14
#02018:14
#02114:14
#0221a:14
#02312:14
#0241a:14
#02512:14
#02712:14
#0281a:14
#02914:14
#03018:14
#03114:14
#0321a:14
#03312:14
#0431a:14
#04412:14
#04512:14
#04618:14
#04718:14
#0511a:14
#05212:14
#0531a:14
#05414:14
#05518:14
#05612:14
#0571a:14
#06618:2616
#0661f:21
#06712:1616
#06818:1616
#06810:41
#07018:1414
#07114:1414
#0721a:1414
#06912:1616
#07312:1414
#0781a:14
#07814:0014
#07918:14
#07912:0014
#0801a:14
#08012:0014
#0811a:14
#08112:0014
#0581f:11
#02618:24
#02610:41
#0421a:24
#05012:24
#05010:41
#0821a:24
#0101a:24
#01010:41
#03410:41
#002390:14
#003390:24
#004330:14
#005330:24
#006390:14
#007390:24
#008330:14
#009330:24
#016320:14
#017320:24
#034380:14
#0353a0:24
#036340:14
#037320:24
#038380:14
#0393a0:24
#040340:14
#041320:24
#048340:14
#049320:24
#058320:14
#059320:24
#0603a0:14
#0613a0:24
#062340:14
#063320:24
#064380:14
#0653a0:24
#074380:1424
#075340:1424
#0763a0:1424
#077320:1424
