This file was generated by Ched 2.6.4.0.
#TITLE ""
#ARTIST ""
#DESIGNER ""
#DIFFICULTY 0
#PLAYLEVEL
#SONGID ""
#WAVE ""
#WAVEOFFSET 0
#JACKET ""
#REQUEST "ticks_per_beat 480"
#00002: 4
#BPM01: 138
#00008: 01
#TIL00: ""
#HISPEED 00
#MEASUREHS 00
#03012:1300001300001300
#0301b:0000130013000013
#03018:13000000000000000000001300000000
#0431a:14141414
#04315:0000130000130000
#04317:0000000000000013
#04312:13000013
#04412:14141414
#04418:0013000000130000
#04415:0000001300000000
#0441b:1300000013000013
#04512:1400001313001300
#04514:00140000
#04518:1400000000000013
#0451a:00141414
#04515:0000000000130000
#05212:14
#05218:1212000000000013
#05216:0000121200000000
#0521a:00140000
#05215:0000000000130000
#02612:2400130013000013
#0261b:0000001300001300
#02615:00000000000000000000001300000000
#0261a:24
#02610:41
#02715:0013001300130000
#0271b:1313
#02712:0000000013001313
#02718:00000000130000000000001300000000
#02818:1300001300130000
#02812:0013000013000013
#02815:00000000130000000000001300000000
#0281b:00001313
#0581b:00130013
#05815:000000001313001313000000
#05818:0013
#0581f:11
#05812:24
#0581a:24
#00112:0013
#00115:0000000000130000
#00118:00000013
#0011b:0000000000000013
#00215:1300000000130000
#00212:0013
#00218:00130013
#0021b:0000000000000013
#00315:1300000000130000
#00312:0013
#0031b:00000013
#00318:0000130000000013
#00412:1313
#00418:0013000013000000
#0041b:1300001300130013
#00415:00130013
#00512:1300001313000000
#0051b:0000130000000013
#00515:0000000000130000
#00518:00000013
#00612:1300000000000013
#0061b:00131300
#00618:0000000000130000
#00615:00000000000000130000000013000000
#0071b:13000013
#00712:00131300
#00715:0000000000130000
#00718:00000000000000130000000000001300
#00812:1300001300130000
#00818:0013000000000013
#0081b:1313
#00815:00131313
#0091b:1313
#00912:0000130000000013
#00918:0000000000130000
#00915:00000013
#0101b:0013
#01018:2300000000130000
#01015:00130013
#01012:0000000000000013
#01010:41
#01118:1300000000130000
#0111b:0013
#01112:00000013
#01115:0000130000000013
#0131b:0000001313000000
#01318:0000000000130000
#01315:00000013
#01312:0000140000000013
#0131a:14
#0141b:1300000000000013
#01412:00131300
#01415:0000000000130000
#01418:00000000000000130000000013000000
#01512:13000013
#0151b:0000130013000013
#01518:0000000000130000
#01515:00000000000000130000000000000000
#0291b:1313
#02915:0000130000130000
#02918:00001300000000000000001300000000
#02912:0000000000001313
#03112:0000130013000013
#03118:0013001300130000
#0311b:00000013
#03115:13000000000000000000001300000000
#03212:0000131300000013
#0321b:0013000013000013
#03215:0000000000131300
#03218:13000000000000000000001300000000
#04212:24141414
#04218:0000130000130000
#04216:0000000000000013
#0421b:13000013
#0491a:14
#04916:0000001400000000
#04912:00000014
#04918:00343434343400343434343400000000
#05018:0000121200001300
#05012:24140014
#0501a:2414
#05016:0000000012120000
#05010:41
#0531b:13
#05318:0013000000000000
#05315:00130000
#05312:0000001300000000
#05317:0013
#05316:00000013
#0541a:00140014
#05416:0000121200000012
#05418:0000000012120000
#05412:2314
#05414:00000012
#0541b:23
#0551a:0014
#05515:0013000000001300
#05512:0000001313000000
#0561b:0000000000000013
#0561a:14
#05618:0014
#0571b:13
#05718:00130000
#05714:14
#05712:0014
#05912:23130013
#05918:230000001313001313000000
#05915:0013
#07412:1400140000130000
#07416:0014001400000000
#0741b:00131313
#07415:00000000000000000000000000000013
#0751b:1313000000130000
#07512:00000000130000001300130000000013
#07515:0013000000000000
#07518:00000000000000130000000013000000
#0761b:00001300000000000013000000000000
#07615:00131300
#07618:13000000000000130000001300000000
#07612:0013000000130000
#0771b:0000000000131300
#07716:0014001400001300
#07712:1400000013130000
#0771a:00140000
#08018:0000130013000013
#08015:13000000000013000013000013000000
#08012:0013000000000000
#0801b:0000000000130000
#08112:13130013
#08118:0013000013130000
#0811b:00130013
#08115:00001300000000000013000000000000
#03315:00000000000000001300000000130000
#03318:00000000000000000013000013000000
#03312:2400000000130000
#0331b:0000000000000013
#0331a:24
#03416:13
#03412:0013
#03415:0000000000130000
#03418:00000013
#0341b:0000000000000013
#03417:00130000
#03410:41
#03516:13
#03512:0013
#0351b:00000013
#03518:0000000000000013
#03517:00130000
#03515:0000000000130000
#03712:1400001313000000
#0371a:00140000
#03715:0000000000130000
#03718:00000013
#0371b:0000000000000013
#03812:1300000000000013
#0381b:00131300
#03818:0000000000130000
#03815:00000013
#03816:00000000000000130000000000000000
#0391b:13000013
#03912:00131300
#03915:0000000000130000
#03918:0000000000000013
#03917:00000000000000130000000000000000
#0411a:14
#04112:00141300
#04115:0000000000130000
#04118:00000013
#0411b:0000000000000013
#04814:00000000001300130000000000000000
#04813:00000000000000000013001300000000
#04812:00000000000000000000000000130013
#04815:00130013000000000000000000000000
#04817:0000000000001414
#04818:0000000014140000
#04819:0000141400000000
#0481a:1414000000000000
#05118:0013000013000000
#0511b:0000001300001300
#05112:0013
#05115:00000013
#06012:00130000
#0601b:230000001313000000130000
#06015:230000131300
#06118:23130013
#06112:230000001313000000001313
#0611b:0013
#06115:000000000000001313000000
#06516:0000001400000000
#0651a:00000014
#06512:14
#06514:00343434343400343434343400000000
#07018:0024000000000013
#07014:0000240000130000
#0701b:00000013
#07012:24000000000000001300000000130000
#07019:0000000000130000
#07015:00000000000000000000000000000013
#0701a:0000002400000000
#07115:0000000000130000
#0711b:0013
#07118:0000240000130013
#07112:0000002400001300
#0711a:24
#07114:0024000000000000
#07215:00001300000013000000001300001300
#07212:13130000
#07218:00000013000000001300000013000000
#0721b:0000001300130000
#0781b:0000000000130000
#07812:00131313
#07818:00000000000000000000000000000013
#0781a:14140000
#07816:0014001400000000
#07912:1313000000130000
#0791b:00000000130000001300130000000013
#07918:0013000000000000
#07915:00000000000000130000000013000000
#01618:00000013000000000000000000000000
#01615:00000012
#01614:0000000000000014
#0121b:1313
#01215:0013000013000000
#01212:1300001300130013
#01218:00130013
#0241a:00120012
#02418:0000001200120000
#02412:1414
#02416:0000000000000012
#02414:00120012
#0241c:12
#02512:1414
#0251c:0000121200000000
#0251a:1200000000121200
#02516:00120000
#02514:00000012
#03618:0013000000130000
#0361b:0000001300000013
#04015:0013000000130000
#04012:0000001300000013
#0691b:00000000000000000000000000000013
#06915:0000000000130013
#06918:00002400000000000000001300130000
#06912:24001313
#06914:0000002400000000
#0691a:00240000
#06718:0024000000130013
#0671b:00000013
#06715:0000000000130013
#06712:2413
#0671a:0000002400000000
#06714:00240000
#0661b:00000000000000001300000000130000
#06615:0000000000000013
#06612:0000002400001300
#06618:00000000240000000000000000000013
#06614:0024000000130000
#06619:0000000000130000
#0661f:21
#0661a:24
#0681b:0013000000000000
#06812:0000001300000000
#06818:0000000000130000
#06815:0000000000000013
#06810:41
#0631b:13131300
#06314:0000000000000013
#06319:0000000000000013
#06315:0013000000130000
#06318:00000000000013000000001300000000
#06312:14141414
#0641b:00000000000000000000000000130013
#06415:0000000000001414
#0641a:00000000000000000013001300000000
#06414:0000000014140000
#06419:00000000001300130000000000000000
#06413:0000141400000000
#06418:00130013000000000000000000000000
#06412:1414000000000000
#04712:13131300
#04719:0000000000000013
#04714:0000000000000013
#04715:00000000000013000000001300000000
#04718:0013000000130000
#0471a:14141414
#04614:0000000000000013
#0461b:13131300
#04615:0013000000130000
#04612:14141414
#04619:0000000000000013
#04618:00000000000013000000001300000000
#01816:0000121200000000
#0181a:24001412
#01814:0000000000001212
#0181c:00120000
#01810:41
#0191a:14001412
#01912:0000121200000000
#01918:00120000
#01914:0000000000001212
#0221a:14121400
#02214:0000120000000012
#02216:0000001200000000
#02212:14000012
#02218:00000012
#0231a:1414
#02315:0000001300130013
#02318:00130013
#02312:1413
#0231c:0000000000000012
#02116:000000120000000000000012
#02112:1414
#0211c:0000121200000000
#02012:14121400
#0201a:1400000000001212
#02018:0000121200000000
#02014:00000012
#01715:00000012
#01714:0000000000000014
#01719:00120000
#01718:0000001400000000
#06212:00131300
#06219:0000000000000013
#06214:0000000000000013
#06218:0013000000130000
#06215:00000000000013000000001300000000
#0621a:14141414
#0731b:00000000000000000000000000000013
#07318:00000000000024000013000000130000
#07315:0000000000130000
#07312:0000240024000024
#07314:0024000000000000
#0731a:24000000000000000000002400000000
#08212:25
#08219:25
#04552:14
#04554:00140000
#04558:14
#0455a:00140000
#00255:53
#00258:00630000
#00355:53
#00358:00630000
#00552:13
#0055b:00130000
#00652:53
#0075b:63
#0095b:13
#00952:00130000
#01158:63
#01155:00530000
#0145b:63
#01552:53
#0155b:0000000000000063
#0265b:0000005300000000
#02652:0000000000000033
#02858:63
#03052:0000006300000000
#0305b:0000000000000043
#0495a:64000044
#04956:0000002400000000
#04952:00000034
#05357:0063
#05356:00000053
#05555:00000053
#05758:00630000
#05754:34
#05752:0034
#0585b:00000063
#05952:13000053
#05958:13
#07452:64640000
#07456:0024002400000000
#0745b:00000053
#07552:00630000
#07558:00000063
#07655:00630000
#07756:0024002400005300
#07752:64
#0775a:00540000
#08158:0053000000000000
#0815b:00230013
#08152:00230013
#08155:0063000000000000
#01055:00530000
#01058:53
#02755:0033000000000000
#0295b:63
#02958:0023000000000000
#02955:00530000
#03152:0000330000000053
#03456:53
#03457:00630000
#03556:53
#03557:00630000
#03752:14
#0375a:00140000
#03852:53
#0395b:63
#0415a:14
#04152:00140000
#0425b:53
#04258:00530000
#04352:63
#04355:00630000
#05058:00000063
#05158:0013
#05152:0013
#0515b:00000013
#05155:00000013
#0565a:44
#05658:0044
#0605b:13000063
#06055:13
#06556:0000002400000000
#0655a:00000044
#06552:54000034
#0715b:0053
#07158:0000001400230053
#07154:0014000000000000
#07152:0000001400000000
#0715a:0014000000000000
#07255:0000006300000000
#07852:00000063
#0785a:54540000
#07856:0024002400000000
#0795b:00530000
#07955:00000053
#08052:0053000000000000
#08058:0000530000000053
#08055:0000006300006300
#0805b:0000000000630000
#01658:00000023000000000000000000000000
#01654:0000000000000014
#0325b:0053000000000000
#0135a:14
#01352:00140000
#0335a:44
#03352:34
#05452:13
#0545b:13
#08252:15
#08259:15
#06152:13
#06158:13
#07058:0014000000000000
#0705a:0000001400000000
#07052:0014000000000000
#07054:0000001400000000
#06754:0000001400000000
#06752:0014000063000000
#0675a:0000001400000000
#06758:0014000000000023
#0675b:00000053
#06755:0000000000230000
#06658:0000001400000000
#0665a:0014000000000000
#06652:0000001400000000
#06654:0014000000000000
#06952:0014000000000000
#06958:0014000000000000
#06954:0000001400000000
#0695a:0000001400000000
#01754:0000000000000014
#01758:0000001400000000
#0245c:42
#07354:0014000000000000
#07358:0000001400000000
#0735a:0014000000000000
#07352:0000001400000000
#002350:13
#002320:00230000
#002381:00130000
#0023b1:0023
#003351:13
#003321:00230000
#003380:00130000
#0033b0:0023
#006320:13
#006350:00230000
#0073b0:13
#007380:00230000
#010380:13
#0103b0:00230000
#010351:00130000
#010321:0023
#011381:13
#0113b1:00230000
#011350:00130000
#011320:0023
#0143b0:13
#014380:00230000
#015320:13
#015350:00230000
#0153b0:0000000000000013
#016380:00000053000000000000000000000000
#0163b0:0023
#021380:000000000000000000120022
#0263b0:0000001300000000
#026380:00000000000000000000002300000000
#028380:13
#0283b0:00230000
#0293b0:13230000
#029380:0033000000000000
#029351:00130000
#029321:0023
#030321:0000001300000000
#030351:00000000000000000000002300000000
#031321:0000000000000013
#032351:0023000000000000
#0323b0:0013000000000000
#032380:0000002300000000
#034360:13
#034320:00230000
#034371:00130000
#0343b1:0023
#035361:13
#035321:00230000
#035370:00130000
#0353b0:0023
#036320:1323000000000000
#036350:0000132300000000
#036320:0000000013230000
#036350:0000000000001323
#038320:13
#038360:00230000
#0393b0:13
#039370:00230000
#0403b0:1323000000000000
#040380:0000132300000000
#0403b0:0000000013230000
#040380:0000000000001323
#0423b0:1323
#042380:00330000
#043320:1323
#043350:00330000
#0493a0:14000024
#049380:00343434343400343434343400000000
#049360:0000003400000000
#050380:00000013
#0513b0:23
#051321:1323000000000000
#051351:0000132300000000
#0523b1:00001323
#052381:0000000000330000
#052320:00000013
#052350:0000000000000033
#053320:23
#053370:0013
#0533b0:00000023
#053361:00000013
#054321:23
#0553b1:1323000000000000
#055381:0000132300000000
#055351:00000013
#056321:0023
#057381:00130000
#0573b1:0023
#0583b1:00000013
#059381:23
#059321:00000013
#060351:23
#0603b1:00000013
#061381:23
#065321:14000024
#065341:00343434343400343434343400000000
#065361:0000003400000000
#0663a1:1424000000000000
#066381:0000142400000000
#067321:1424000000000000
#067341:0000142400000000
#067321:00001323
#067351:0000000000330000
#0673b0:00000013
#067380:0000000000000033
#0683b0:23
#068321:13230000
#068341:00330000000000000000000000000000
#068361:0033000000000000
#0683b0:00132300
#068390:00000000003300000000000000000000
#068370:0000003300000000
#068361:0013
#068341:00000000000000000033000000000000
#068321:0000000000230000
#068371:00000013
#068391:00000000000000000000000000330000
#0683b1:0000000000000023
#069321:1424000000000000
#0693a1:0000142400000000
#070321:1424000000000000
#070341:0000142400000000
#0713a1:1424000000000000
#071381:0000142400000000
#0713b1:00001323
#071381:0000000000330000
#071381:0000000000000013
#0723b1:0023000000000000
#072351:0000001300000000
#072321:0000000000230000
#0733a1:1424000000000000
#073321:0000142400000000
#074321:14342400
#074361:0054005400000000
#0743b1:00000013
#074381:00000000000000000000000000000023
#075321:00130000
#075351:00000000000000230000000000000000
#075381:00000013
#0753b1:00000000000000000000000000000023
#076351:00130000
#076321:00000000000000230000000000000000
#076351:0000000000001323
#076380:0000000000000013
#077380:23
#077321:14240000
#077361:0054000000000000
#0773a0:00142400
#077360:0000005400000000
#077360:00000013
#078320:23
#0783a1:14342400
#078361:0054005400000000
#078321:00000013
#078351:00000000000000000000000000000023
#0793b1:00130000
#079381:00000000000000230000000000000000
#079351:00000013
#079321:00000000000000000000000000000023
#080321:0013000000000000
#080351:00230000
#080380:00130000
#0803b0:0000002300000000
#080351:0000001300000000
#080321:0023
#0803b1:0000000000130000
#080381:00000023
#080350:00000013
#080320:0000000000000023
#080381:0000000000000013
#0813b1:23
#081381:0013002300000000
#0813b1:00330000
#081350:0013002300000000
#081320:00330000
