This file was generated by Ched 2.6.4.0.
#TITLE ""
#ARTIST ""
#DESIGNER ""
#DIFFICULTY 0
#PLAYLEVEL
#SONGID ""
#WAVE ""
#WAVEOFFSET 0
#JACKET ""
#REQUEST "ticks_per_beat 480"
#00002: 4
#BPM01: 138
#00008: 01
#TIL00: ""
#HISPEED 00
#MEASUREHS 00
#0271a:0014000000000000
#02715:0000001300000013
#0271b:0013
#02712:0000000000130000
#02718:00000013
#0301a:14
#03012:0000130000000014
#03018:0000001300000000
#04312:14141414
#04318:1300000000000013
#0431b:0000130000130000
#0441a:14141414
#04412:1300001300000013
#04415:0013000000130000
#0461b:1300000000131300
#04615:00000000130000000000001300000000
#04612:1300000013000013
#04618:0013001300000000
#04712:1300000000131300
#0471b:1300000013000013
#04718:00000000130000000000001300000000
#04715:0013001300000000
#0521b:1300000000000013
#05212:1313
#05218:0013001300130000
#05215:00130013
#02612:2400130000000014
#02618:0000001300000000
#0261a:24
#02610:41
#02815:0000001300130000
#02818:1313
#04515:2300001300000013
#04518:0013
#0451b:00000013
#04512:0000230000130000
#0451a:24240000
#0581b:000000130013000000130000
#05815:001300
#05812:240000131300
#05818:000000000000001300000000
#0581f:11
#0581a:24
#05012:2413
#05015:0000130000130000
#05018:0000001300000000
#0501b:00000013
#0501a:24
#05010:41
#00112:0013
#00118:0000000000130000
#00115:00000013
#0011b:0000000000000013
#00215:1300000000130000
#0021b:0013
#00218:00000013
#00212:0000000000000013
#00318:1300000000130000
#00312:0013
#00315:00000013
#0031b:0000000000000013
#00412:1313
#00418:0013001300000000
#00415:00130013
#0041b:0000000000130013
#00512:1400001300000000
#0051a:00140000
#00518:0013
#00515:0000000000130013
#0051b:00000013
#0061b:1300000000130000
#00615:0013
#00612:00000013
#00618:0000000000000013
#00712:1300000000130000
#00718:0013
#0071b:00000013
#00715:0000000000000013
#0081b:1313
#00815:0013001300000000
#00818:00130013
#00812:0000000000130013
#0091a:14
#00912:0000140000000013
#0091b:0013
#00915:0000000000130000
#00918:00000013
#01012:0013
#01018:2300000000130000
#01015:00000013
#0101b:0000000000000013
#01010:41
#01115:1300000000130000
#0111b:0013
#01118:00000013
#01112:0000000000000013
#0121b:1313
#01215:0013001300000000
#01218:00130013
#01212:0000000000130013
#0131a:14
#01312:00140013
#01315:0013
#01318:0000000000130013
#0131b:0000001300000000
#01412:1300000000130000
#01418:0013
#0141b:00000013
#01415:0000000000000013
#0151b:1300000000130000
#01515:0013
#01512:00000013
#01518:0000000000000013
#0161a:0000000000000014
#01615:00000013
#0171a:0000001400000014
#01712:00130000
#01715:00000013
#01818:0000121200000000
#01812:2414
#0181a:0000000000001212
#01810:41
#01912:1414
#0191c:0000121200000000
#01918:0000000000001212
#02012:14
#02016:0000121200000000
#0201a:0014
#02014:0000000000001212
#0211a:1414
#02112:0000121200000000
#02115:00000013
#0221a:1414
#02216:00120000
#02214:0000001200000012
#02212:00000012
#0231a:1414
#02312:0000131300000000
#02315:0000000000130013
#02318:00000013
#0241a:1400001400000000
#02415:00130013
#02418:0000000000000013
#02512:1400000000130000
#0251a:0000001400001400
#02918:1300000000131300
#02915:00001300000000000000001300000000
#0291a:00140000
#02912:0000000013000013
#03112:00140000
#0311b:0013000013000000
#03115:0000000000130000
#03118:00000013
#0321b:0000001300000000
#03212:0000000013000013
#03218:0000000000131300
#03215:00000000000000000000001300000000
#03312:2413
#03318:0000000000130000
#03315:00000013
#0331b:0000000000000013
#0331a:24
#03415:1300000000130000
#0341b:0013
#03418:00000013
#03412:0000000000000013
#03410:41
#03518:1300000000130000
#03512:0013
#03515:00000013
#0351b:0000000000000013
#03612:1313
#03618:0013001300000000
#03615:00130013
#0361b:0000000000130013
#03712:1400001300000000
#0371a:00140000
#03718:0013
#03715:0000000000130013
#0371b:00000013
#0381b:1300000000130000
#03815:0013
#03812:00000013
#03818:0000000000000013
#03912:1300000000130000
#03918:0013
#0391b:00000013
#03915:0000000000000013
#0401b:1313
#04015:0013001300000000
#04018:00130013
#04012:0000000000130013
#0411a:14
#04112:00140000
#0411b:0013
#04115:0000000000130013
#04118:00000013
#04212:24141414
#04218:0000130000130000
#0421b:2300000000000013
#04912:14
#04916:0000001400000000
#04914:00343434343400343434343400000000
#0511b:13000013
#05115:0013001300000000
#05118:00131300
#05112:13000013
#05312:13
#05315:0013000013000000
#05318:00130000
#0531b:0000001300000000
#0541b:0013
#05418:00130013
#05415:0000001300130000
#05412:2400000000000013
#0541a:24
#05518:0013000000000000
#05515:00130013
#05512:0000001300000000
#0551b:1313
#05615:0000000000000013
#05715:13
#05718:00130000
#05912:000000130013000000130000
#05918:231300
#0591b:000000131300
#05915:000000000000001300000000
#0601b:000000130013000000130000
#06015:231300
#06012:000000131300
#06112:000000130013000000130013
#06118:230013000013
#0611b:000000131300
#06115:000000000000001300000000
#0621b:13
#06218:00130000
#06312:00131300
#0631b:0000130013000013
#06315:0000000000131300
#06318:00000000000000000000001300000000
#04812:1313
#04818:0013000000130000
#04815:00130013
#0481b:0000001300000013
#06516:14
#06512:00000024
#06514:00343434343434343434343400000000
#06612:0000242400130000
#06615:00000013
#06618:0000000000000013
#0661b:0013
#0661a:2424000000000000
#0661f:21
#0671b:0013
#06718:0000000000130000
#06715:00000013
#06712:0000242400000013
#0671a:2424000000000000
#06818:13000000000013000013000000000000
#06815:00000000001300000000130000000000
#06812:00000000000000130000000000001300
#0681b:00000013
#06810:41
#06918:2424000013000000
#06912:0013
#06915:00000013
#0691b:00000013
#06914:0000242400000000
#0701b:0000000000130000
#07018:00000013
#07015:0000000000000013
#07012:2424000013000000
#0701a:0000242400000000
#07112:2424000013000000
#07115:0000000000130000
#07118:00000013
#0711b:0000000000000013
#0711a:0000242400000000
#07215:13
#07212:00000013
#0721b:0000000000000013
#07218:0000001300000000
#0741a:14140000
#07417:0014001400000000
#07412:0000000000130000
#07418:00000013
#0751b:0013000000001300
#07515:0000130000130000
#07618:00001300000000000000333333000000
#07612:00130000
#0761b:00000000000000000013000000000000
#07712:1400140000131300
#07715:0014001400000000
#0771b:0000000000131300
#0781a:14140000
#07817:0014001400000000
#07812:0000000000130000
#07818:00000013
#0791b:0013000000001300
#07915:0000130000130000
#08012:0013000000000000
#08018:00000000130000000013000000000000
#0801b:0000001300001300
#08015:0000000013130000
#08112:13000013
#08118:0013000000000000
#0811b:0000130000131300
#08115:0013
#07312:0000000024000024
#0731a:00000000000000000000002400000000
#07314:2424000000000000
#07318:0000242400000000
#08212:24
#0821a:24
#06414:0034343434343434
#0275a:0044000000000000
#00255:53
#00358:63
#00552:14
#0055a:00140000
#0065b:63
#00752:53
#0095a:14
#00952:00140000
#01155:53
#0135a:14
#01352:00140000
#01452:53
#0155b:63
#01558:0000000000000063
#0165a:0000000000000014
#0175a:0000001400000014
#02155:00000053
#0245a:4400005400000000
#02552:64
#0255a:0000004400004400
#02658:0000005300000000
#02652:0000000000000034
#02858:63
#02855:0000000000530000
#0295a:00440000
#03152:00340000
#03058:0000005300000000
#03052:0000000000000034
#03455:53
#03558:63
#03752:14
#0375a:00140000
#0385b:63
#03952:53
#0415a:14
#04152:00140000
#04952:54000014
#04956:0000002400000000
#05158:0013
#05152:00000013
#0515b:00000013
#05355:0053
#05555:00000053
#05758:00630000
#0585b:00000063
#05952:00000053
#05958:13
#0605b:00000063
#06055:13
#0625b:53
#06258:00530000
#06556:54
#06552:00000014
#06858:53
#06958:0013
#06952:0013
#06955:00000013
#0695b:00000013
#07255:63
#07258:0000005300000000
#0745a:54540000
#07457:0024002400000000
#07458:00000053
#07555:00630000
#0755b:00000063
#07652:00530000
#0765b:00000000000000000053000000000000
#07752:64640000
#07755:0024002400000000
#0785a:54540000
#07857:0024002400000000
#07858:00000053
#07955:00630000
#0795b:00000063
#0805b:00000063
#08158:0053000000000000
#0815b:00230013
#08152:00000013
#07352:0000000014000014
#0735a:00000000000000000000001400000000
#08252:14
#0825a:14
#01058:53
#06158:13
#03255:0013000000000000
#002350:13
#002320:00230000
#003380:13
#0033b0:00230000
#0063b0:13
#006380:00230000
#007320:13
#007350:00230000
#010380:13
#0103b0:00230000
#011350:13
#011320:00230000
#014320:13
#014350:00230000
#0153b0:13
#015380:00230000
#015380:0000000000000013
#0163b0:0023
#021350:00000013
#021320:000000000000000000000023
#0243a0:0000001400000000
#024380:0000000000240000
#025320:14
#025340:00240000
#026380:0000001300000000
#0263b0:00000023
#028380:13
#0283b0:00230000
#028350:0000000000130000
#028320:0000000000000023
#030380:0000001300000000
#0303b0:00000023
#031320:0000000000000013
#032350:0023000000000000
#034350:13
#034320:00230000
#035380:13
#0353b0:00230000
#0383b0:13
#038380:00230000
#039320:13
#039350:00230000
#049320:14000024
#049340:00343434343400343434343400000000
#049360:0000003400000000
#053350:0013
#053320:00000023
#055350:00000013
#056320:0023
#057380:00130000
#0573b0:0023
#0583b0:00000013
#059380:23
#059320:00000013
#060350:23
#0603b0:00000013
#061380:23
#0623b0:13
#062380:00330000
#0633b0:23
#064320:14
#064340:0034343434343434
#065360:34
#065340:00343434343434343434343400000000
#065320:00000024
#068380:13
#0683b0:00000023000000000000000000000000
#072350:13
#072320:00000023000000000000000000000000
#072380:0000001300000000
#0723b0:00000000000000000023000000000000
#0743a0:14342400
#074370:0034003400000000
#074380:00000013
#0743b0:00000000000000000000000000000023
#075350:00130000
#075320:00000000000000230000000000000000
#0753b0:00000013
#075380:00000000000000000000000000000023
#076320:00130000
#076350:00000000000000230000000000000000
#0763b0:00000000000000000013000000000000
#076380:00000000000000000000333333002300
#077320:14342400
#077350:0034003400000000
#0783a0:14342400
#078370:0034003400000000
#078380:00000013
#0783b0:00000000000000000000000000000023
#079350:00130000
#079320:00000000000000230000000000000000
#0793b0:00000013
#079380:00000000000000000000000000000023
#0803b0:00000013
#080380:0000000000000023
#081380:0013002300000000
#0813b0:00330000
