This file was generated by Ched 2.6.4.0.
#TITLE ""
#ARTIST ""
#DESIGNER ""
#DIFFICULTY 0
#PLAYLEVEL
#SONGID ""
#WAVE ""
#WAVEOFFSET 0
#JACKET ""
#REQUEST "ticks_per_beat 480"
#00002: 4
#BPM01: 138
#00008: 01
#TIL00: ""
#HISPEED 00
#MEASUREHS 00
#03012:1300131300001300
#0301b:00131313
#03016:0000000013000018
#03018:1300001300130000
#03015:00001300000000000000001300000000
#0431a:14141414
#04314:0000000000130000
#04312:1300000000000013
#04316:00130013
#04412:14141414
#0441a:1414
#04417:0013001300130000
#0441b:0000000000000013
#04419:00130013
#04512:1400001313001300
#04514:00140000
#04518:14000013
#0451a:00141400
#04515:0000000000130000
#0451b:0000000000000013
#05212:14001413
#05218:1212000000000000
#05216:0000121200000013
#0521a:00140000
#05214:0000000000130000
#05219:0000000000000013
#0521b:0013
#05217:0000000000130000
#02612:2400130013001318
#0261b:0013001300001300
#02615:0013001300130000
#02618:00000000000000000000001300000000
#0261a:24
#02610:41
#02715:0000001300130000
#0271b:0000000013001313
#02712:0000000013001313
#02716:0018000000000000
#0271a:14
#02718:00000000130000000000001300000000
#02818:1300001300130000
#02812:0013000013001313
#02815:13000000130000000000001300000000
#0281b:0000000013001313
#00113:00001212
#00116:0000000000120000
#00119:00000012
#0011c:0000000012000012
#00212:00001212
#00215:0000000000120000
#00218:00000012
#0021b:0000000000000012
#00217:00130000
#00219:12
#00216:23
#0031a:00000012
#00316:0000130000120012
#00312:00000012
#00318:00000000000000000000001200000000
#00317:13
#0031c:0012
#00315:12
#00412:1414
#0041a:0012000000120000
#00418:00121200
#00416:0000001200000012
#0041c:12000012
#00414:00120012
#00512:14160000
#0051a:00140000
#00513:00001212
#00516:0000000000120000
#00519:00000012
#0051c:0000000012000012
#00518:1600001200000000
#00617:13000000000000000000000000000012
#0061b:00131212
#00618:0000000000120000
#00615:12000000000000121200000012000000
#00612:00000013000000000000000000001200
#00712:13001212
#00716:0000000000120000
#0071c:00000012
#00718:0000000000000012
#0071b:00130000
#00719:00000000000000121200000000000000
#0081a:14121412
#00814:0012000000120012
#00816:00121200
#00818:0000001200000000
#00812:12000012
#0091a:14141400
#00912:14140014
#00913:0012
#00916:0000001200120000
#00919:00000012
#0091c:0000000000000012
#00918:00000012000000000000000000000000
#01012:00001212
#01015:0000000000120000
#01018:00000012
#0101b:0000000000000012
#01017:00130000
#01016:23
#01019:22
#01010:41
#01318:1600001200120000
#0131b:00001212
#01315:00000012
#01312:1400160012000012
#01317:00000000000000000000000000000012
#0131a:00140000
#0151b:1300000000001313
#0151c:0012
#01519:0000000000120000
#01512:00130012
#01516:00000000000000121200000000001200
#0161a:00000014
#01616:00000013000000001200000000000000
#01612:1200000000000014
#01614:00120000
#02412:1c0013002c001313
#0241b:0000130000001313
#02415:0000001300000000
#02418:0000000000130000
#02512:1c0013002c140000
#0251a:0000000000140000
#02514:0000001300000000
#02515:0000000000001313
#02518:00000000000000000000000000130000
#0251b:00130000
#02519:0000001300000000
#02912:1300000013001313
#02918:1300000000130000
#02915:00000000000013000000001300000000
#0291b:0013000000001313
#02916:0013000000000000
#02917:00130000
#03112:1300180013001313
#03118:0000000000130013
#0311b:0000001313001300
#03115:00000000000000000000001300000000
#03116:0018000000000000
#03215:0000001300130000
#0321b:1313000013001300
#03218:00000000000000000000001300000000
#03212:00131313
#03214:0000000000000013
#03216:13
#03217:00130000
#03219:0000000000000013
#04212:24141414
#0421b:1300000000130000
#04217:0000130000000013
#04219:00000013
#05018:0000121200001300
#05012:24140014
#0501a:2414
#05016:0000000012120000
#05010:41
#0541a:24140014
#05416:0000121200001212
#05418:0000000012120000
#05412:2414
#0551a:0014
#05516:0013000000001300
#05512:0014
#05517:0000001300000000
#0551b:00000013
#0561b:0000000000000013
#0561a:14
#05618:0014
#0571b:13
#05717:00130000
#05714:14
#05712:00131400
#05812:2400000000000013131a0000
#05814:000000001313190000000000
#05816:00180000
#0581f:11
#0581a:24
#06312:14141413
#0631a:14141400
#06316:0014001400000014
#06318:0000000000130000
#06315:00000000000000000000001300000000
#0631b:00000013
#06617:2300002300131300
#06616:0023230013000013
#06612:2300000000131300
#0661b:00231300
#06619:00000000000000000000000000000013
#0661f:21
#0661a:000000000000000000000000000000000000003333000000
#06812:1300130013130013
#06818:00000000001300000000000000000000
#06815:0000001300000000
#0681b:00000013000000130000000013000000
#06817:00000000000000000013130000001300
#06816:00000013
#06810:41
#0741b:1300130000130000
#07415:00001400000014000000000000000013
#07416:0000000000130000
#07417:00000013
#07412:00141413
#0751b:00001300000000130000130000000000
#07512:13131313
#07516:0013000000130000
#07518:1313
#07517:00130013
#07515:00000000000000000000000000000013
#0761b:00001300000000130000001300000000
#07612:13131300
#07618:1300000013130000
#07616:0013000000001300
#07615:00000000000000000013000000000000
#07617:0000130000000013
#0771b:0000130000130000
#07716:0000000000130000
#07712:13001413
#07717:0014000000001300
#07715:0000001400000000
#08018:000000130000130000000000130000130000001300000000
#08015:000000000000000000000000000000000000130000000000000000130000000000000000130000001300000000000000
#08012:1313000000000000
#0801b:1300000000000013
#08112:1313000013002400
#0811b:0013000013000000
#08115:00000000130000000013000000000000
#08116:0000000000000014
#08118:0000130000130000
#01816:00120000
#0181b:00130000
#01812:1c000012141c1300
#01818:00000012
#0181c:0000000000000012
#0181a:0014
#01810:41
#03312:24001313
#0331b:00000000000000000013000000130000
#03315:00000000000000000000161600001616
#0331a:24
#05117:0013000013000000
#05116:0000001300000000
#05112:0013
#06012:2300001c1313000000000000
#06015:260000191300
#06018:00000016
#06112:2316191c
#06117:000000001313000000000000
#06119:000000000000001313000000
#0611b:000000000000000000001313
#06115:29
#0621a:00141400
#06218:00000000000000000000001300000000
#06216:0014131400000014
#06215:0000000000130000
#06212:13000013
#0621b:00000013
#06719:0000000000130000
#06714:0000000000000013
#06712:00231300
#06716:2300002300130000
#0671b:23000013
#06717:0023230013000013
#06912:23000000000023001300131300000013
#06917:23000000000000000000001300000000
#06916:00000000000000000000000000130000
#0691b:00002300230000000000000000131300
#0721b:0000131300130013
#07215:00001300000000000000001300001300
#07212:13130013
#07218:00000013000000001300000013000000
#07216:0000001300000000
#07118:0000000000000013
#07114:0000000000130000
#0711b:2300002313000000
#07117:0000230000130000
#07112:0023230000001300
#07115:0000000000000013
#07116:2313
#07315:000000000000000000000000130000000000000033003300000000130000000000000000000000130000000000000000
#07312:23000000000013000000002400000013
#07318:1300000000131300
#0731b:0013230000000000
#0731a:0000000024000024
#0121a:14121412
#01214:0012000000120000
#01216:0000120012000012
#01218:0000001200000000
#01212:12000012
#01412:13130000
#01413:00001212
#01416:0000000000120000
#0141a:00000012
#0141c:0000000000000012
#0141b:00000013000000000000000000000000
#01418:00000000000000121200000000000000
#01417:00000000000000000000000000000012
#0171a:141414000000000000000000
#01716:000000141414000000000000
#01712:0000000000001414142c0000
#05316:0013000013000000
#05317:0000001300000000
#0531b:0013
#02212:1c000012141c1300
#02216:00120000
#0221b:00130000
#02218:00000012
#0221c:0000000000000012
#0221a:0014
#0231a:0000120014001212
#02312:1c000000141c0000
#02316:0000121200000000
#02314:0000000000000012
#01912:1c001200141c0000
#0191a:0014
#01917:00130000
#01916:0000001200001300
#0191c:00000012
#01918:0000000000000012
#02012:1c000012141c1300
#02016:00120000
#0201b:00130000
#02018:00000012
#0201c:0000000000000012
#0201a:0014
#02112:1c001200141c1400
#0211a:000000000000140000000014
#02117:00130000
#02116:0000001200001400
#03519:12000000000000000000001200000000
#03513:00001212
#03516:1300000000120012
#03517:00130000
#0351c:00000012
#03712:14160000
#03718:1600001200000000
#0371a:00140000
#03713:00001212
#03716:0000000000120000
#03719:00000012
#0371c:0000000012000012
#03618:00121200
#0361c:12000012
#03614:00120012
#03616:0000001200000012
#0361a:0012000000120000
#03612:1414
#03412:13001212
#0341b:0000130000000012
#03418:00000012
#03415:0000000000120000
#03410:41
#03817:1300000000120000
#0381b:00131200
#03814:00000012
#03816:0000000000000012
#03812:00000013000000000000000000000000
#0381a:00000012
#03818:00000000000000000000000000000012
#03815:12
#03813:00000000000000121200000000000000
#03912:13
#03914:0012
#03917:0000000000120012
#0391b:00130012
#0391a:00000000000000121200000000000000
#03913:00000012
#0401a:14121412
#04014:0012000000120012
#04016:00121200
#04018:0000001200000000
#04012:12000012
#0411a:14141400
#04112:14140014
#04113:0012
#04116:0000001200120000
#04119:00000012
#0411c:0000000000000012
#04118:00000012000000000000000000000000
#07016:00231313
#0701b:0023230013001300
#07012:23000000000023000000130000000013
#07017:2300000000130013
#07013:000000000000000000000000000000000000003333000000
#0471a:1400141400000000
#04712:140014000014181c
#04716:00001400000000141800001400000000
#04612:140014141800001c
#04616:00001400000000140000001418000000
#0461a:1400140000140000
#04812:1416181a
#04813:0013000000000000
#04817:00130013000000000000000000000000
#04814:0000001300000000
#04818:00000000001300130000000000000000
#04815:0000000000130000
#04819:00000000000000000013001300000000
#04816:0000000000000013
#0481a:00000000000000000000000000130013
#04912:1c1a1826
#04917:0013000000000000
#0491b:00130013000000000000000000000000
#04916:0000001300000000
#0491a:00000000001300130000000000000000
#04915:0000000000130000
#04919:00000000000000000013001300000000
#0641a:1413000000000000
#06416:00130013000000001800000000000000
#06418:0000160000130000
#06419:0000001300000000
#06415:00000000001300130000000000000000
#06414:0000000000000000001300131a000000
#06417:0000000000000013
#06413:00000000000000000000000000130013
#06512:1c130013000000000000000000000000
#06516:0013000018000000
#06514:000000001a0000000013001300000000
#06517:0000001300000000
#06513:00000000001300130000000000000000
#06518:0000000000132600
#07817:0014001400130000
#07816:00000013
#0781a:00141400
#07812:1300130000130000
#07818:00000000000000000000000000000013
#0781b:00000013
#07915:1313
#0791b:13131313
#07912:00001300000000130000130000000000
#07917:0013000000130000
#07918:00000000000000000000000000000013
#07916:00130013
#01117:13
#01116:0000130000120012
#01115:12
#0111a:00000012
#01112:00000012
#01118:00000000000000000000001200000000
#0111c:0012
#05914:0000001a
#0591b:230000000000001313000000
#05913:0019
#05919:000000001313000000000000
#05912:00180000
#05915:26
#08218:26
#08212:26
#0435a:14141414
#04352:63
#04356:00630000
#04452:14141414
#04552:14
#04554:00140000
#04558:14
#0455a:00140000
#00657:63
#00752:53
#0095a:14
#00952:00140000
#0155b:6300000000000063
#02452:1c
#0255a:0000000000440000
#02552:1c00000000340000
#0265b:0000005300000000
#02652:0000000000000038
#02858:63
#03052:0000006300000000
#03056:0000000023000048
#04252:14141414
#0425b:53
#04257:00530000
#05556:0013000000005300
#05557:0000001300000000
#0555b:0013000000000000
#05552:0000001300000000
#05757:00630000
#05754:34
#05752:0034
#05852:0000006a
#05854:0049
#05856:00480000
#06852:53
#0745b:53530000
#07455:0024002400000000
#07457:00000063
#07552:00630000
#07557:00000063
#07652:00630000
#07656:00000063
#07657:0000000000000053
#08152:0053000000005400
#0815b:0063000000001300
#08156:0000000000000024
#08158:0000630000530000
#08155:00530000
#00257:00630000
#00256:63
#01057:00630000
#01056:63
#01059:12
#02756:0038000000000000
#02952:53
#02956:0023000000000000
#02957:00630000
#03152:0000380000000063
#03156:0048000000000000
#05058:00000063
#05157:0013000063000000
#05156:0000001300001300
#05152:0013000063000000
#0515b:0000001300001300
#05254:0000000000130000
#05259:0000000000000013
#05252:00000063
#05256:0000000000000023
#0525b:0053
#05257:0000000000230000
#0565a:34
#05658:0034
#06052:134c0000
#06055:1649
#06058:00000066
#06152:1336393c
#06155:19
#06759:0000000000430000
#06754:0000000000000033
#06752:0013000063000000
#06756:6300001300230000
#0675b:0000001300005300
#06757:0013530000000023
#07158:0000000000000053
#07154:0000000000330000
#0715b:6300001353000000
#07157:0013000000230000
#07152:0013530000000000
#07156:0000001300000000
#07256:0000006300000000
#08052:0053000000000000
#08058:0000530000630000
#08055:0000006300000000
#0805b:0000000000000053
#01656:00000023000000000000000000000000
#01452:53
#05356:0013000053000000
#05357:0000001300001300
#0535b:0013000053000000
#05352:0000001300001300
#06256:0014631400000000
#06252:23
#06356:0014001400000000
#07752:63
#07757:0024000000006300
#0775b:00530000
#07755:0000002400000000
#0185b:00530000
#01852:1c000063
#02252:1c000063
#0225b:00530000
#01952:1c
#01957:00630000
#01956:00000053
#02052:1c000063
#0205b:00530000
#02152:1c000024
#02157:00630000
#02352:1c
#0325b:0053000000000000
#03256:23
#03257:00230000
#03557:00630000
#03556:53
#0375a:00140000
#03752:14
#0345b:00630000
#03452:53
#03857:63
#03952:53
#0415a:14
#04152:00140000
#07056:0013000000006300
#07052:5300001300000000
#0705b:0013630000000000
#07057:0000001300000000
#06657:5300001300005300
#06656:0013630000000000
#0665b:0013000000000000
#06652:0000001300000000
#0335a:44
#03352:34
#0595b:13
#05955:16
#05954:0000005a
#05953:0039
#05952:00380000
#01752:0000001c
#06952:5300001300000000
#0695b:0013630000000000
#04652:0018
#04656:00000018
#04756:0018
#04752:00000018
#04952:3c3a3836
#06552:4c
#06554:004a0000
#06556:0048
#06558:00000046
#07856:00000053
#07852:63630000
#07857:0024002400000000
#0795b:00530000
#07956:00000053
#00357:63
#00356:00530000
#00558:16
#00552:00160000
#01157:63
#01156:00530000
#01352:00160000
#01358:16
#07352:00000000000053000000003400000000
#0735a:0000000044000044
#08258:46
#08252:36
#002360:13
#002320:00230000
#002371:00130000
#0023b1:0023
#003371:13
#0033b1:00230000
#003360:00130000
#003320:0023
#006370:13
#0063b0:00000023000000000000000000000000
#007320:13
#007360:00230000
#010360:13
#010320:00230000
#010371:00130000
#0103b1:0023
#011371:13
#0113b1:00230000
#011360:00130000
#011320:0023
#014320:13
#014360:00000023000000000000000000000000
#0153b0:13
#015370:00230000
#0153b0:0000000000000013
#016360:00000053000000000000000000000000
#0163b0:0023
#0183b0:00130000
#018370:0000002300000000
#018320:00000013
#018360:0000000000000023
#019370:00130000
#0193b0:0000002300000000
#019360:00000013
#019320:0000000000000023
#0203b0:00130000
#020370:0000002300000000
#020320:00000013
#020360:0000000000000023
#021370:00130000
#0213b0:0000002300000000
#021320:00000014
#021360:000000000000000000000024
#0223b0:00130000
#022370:0000002300000000
#022320:00000013
#022360:0000000000000023
#0263b0:0000001300000000
#026380:0000000000230000
#028380:13
#0283b0:00230000
#029320:13230000
#029360:0033000000000000
#029371:00130000
#0293b1:0023
#030321:0000001300230000
#030361:0053
#031321:0000000000000013
#032361:53
#032321:0023000000000000
#0323b0:0013002300000000
#032370:00530000
#034320:13
#034360:00230000
#0343b1:00130000
#034371:0023
#035361:13
#035321:00230000
#035370:00130000
#0353b0:0023
#038370:13
#0383b0:00000023000000000000000000000000
#039320:13
#039360:00230000
#0423b0:1323
#042370:00330000
#043320:1323
#043360:00330000
#050380:00000013
#0513b0:23
#051321:1323000000000000
#0513b1:0000132300000000
#051321:0013
#051361:00000023
#051370:0013
#0513b0:00000023
#0523b0:00001323
#052370:0000000000330000
#052321:00000013
#052361:0000000000000033
#053321:23
#0533b0:1323000000000000
#053320:0000132300000000
#0533b0:0013
#053370:00000023
#053361:0013
#053321:00000023
#0553b1:1323000000000000
#055321:0000132300000000
#055361:00000013
#056321:0023
#057371:00130000
#0573b1:0023
#058321:0000001a
#0593b1:23
#059341:0000001a
#060321:23
#060381:00000016
#061351:29
#062321:1323
#062361:00330000
#066371:13
#0663b1:0023000000000000
#066361:00130000
#066321:0000002300000000
#066371:00000013
#0663a1:000000000000000000000000000000000000003333000000
#0663b1:0000000000000023
#067361:13
#067321:0023000000000000
#067371:00130000
#0673b1:0000002300000000
#067321:00001323
#067361:0000000000330000
#0673b0:00000013
#067370:0000000000000033
#0683b0:23
#068321:13
#068361:00000023000000000000000000000000
#069321:13
#069361:0053230000000000
#0693b0:00130000
#069370:0000005323000000
#070320:13
#070360:0023000000000000
#0703b0:00130000
#070370:0000002300000000
#070360:00000013
#070330:000000000000000000000000000000000000003333000000
#070320:0000000000000023
#0713b0:13
#071370:0023000000000000
#071320:00130000
#071360:0000002300000000
#0713b0:00001323
#071370:0000000000330000
#071380:0000000000000013
#0723b0:0023000000000000
#072360:0000001300000000
#072320:0000000000230000
#073320:1323000000000000
#0733b0:0000132300000000
#073321:0000001300000000
#073351:000000000000000000003333000000000000000000000000
#073361:0023
#0743b1:13332300
#074351:0054005400000000
#074371:00000013
#0743b1:00000000000000000000000000000023
#075321:00130000
#075351:00000000000000230000000000000000
#075371:00000013
#0753b1:00000000000000000000000000000023
#076321:00130000
#076351:00000000000000230000000000000000
#076361:00000013
#076321:0000000000000023
#076370:0000000000000013
#0773b0:23
#077321:13230000
#077371:0054000000000000
#0773b0:00132300
#077350:0000005400000000
#077370:00000013
#0783b0:23
#078321:13332300
#078371:0054005400000000
#078361:00000013
#078321:00000000000000000000000000000023
#0793b1:00130000
#079381:00000000000000230000000000000000
#079361:00000013
#079321:00000000000000000000000000000023
#080321:0013000000000000
#080351:00000053230000000000000000000000
#080380:00130000
#0803b0:00000000005323000000000000000000
#080351:0000001300000000
#080321:00000000000000532300000000000000
#080381:0000000000130000
#0803b1:00000000000000000000005323000000
#0803b1:0000000000000013
#080381:00000000000000000000000000000053
#081381:23
#081321:00001300005323000000000000000000
#081351:00000053330000000000000000000000
#0813b0:00001300005323000000000000000000
#081380:00000053330000000000000000000000
#081380:0000000000130000
#0813b0:00000000000000000000005323000000
#081321:00000014
#081361:0000000000000054
#082321:26
