This file was generated by Ched 2.6.4.0.
#TITLE ""
#ARTIST ""
#DESIGNER ""
#DIFFICULTY 0
#PLAYLEVEL
#SONGID ""
#WAVE ""
#WAVEOFFSET 0
#JACKET ""
#REQUEST "ticks_per_beat 480"
#00002: 4
#BPM01: 138
#00008: 01
#TIL00: ""
#HISPEED 00
#MEASUREHS 00
#0111a:14
#01114:0014
#01418:14
#01412:0014
#01518:14
#01512:0014
#01818:1414
#01810:41
#01914:1414
#0201a:1414
#02114:1414
#0221a:14
#02218:0014
#02312:14
#02314:0014
#02712:1414
#02718:00140000
#0281a:1414
#02814:00140000
#0301a:1414
#03014:00140000
#03112:1414
#03118:00140000
#0321a:1414
#03214:00140000
#04314:14141400
#04418:14141400
#04512:14141400
#04618:1414
#04614:00140014
#0471a:1414
#04712:00140014
#05112:14
#0521a:1414
#05412:1414
#05512:14
#06618:26001616
#06612:00160000
#0661f:21
#06712:16001616
#06718:00160000
#06818:16001616
#06812:00160000
#06810:41
#07112:14001414
#07118:00140000
#0721a:14001414
#07214:00140000
#06912:1616
#06918:00160000
#07312:1414
#07318:00140000
#07918:1414
#07914:00140000
#08012:14
#08014:0014
#08018:00140000
#0801a:00000014
#08112:14
#08114:0014
#08118:00140000
#0811a:00000014
#0081a:14
#00818:0014
#00914:14
#00912:0014
#01014:0014
#0101a:24
#01010:41
#01712:1414
#0171a:0014
#02614:00140000
#02618:2414
#02610:41
#0401a:1414
#04014:0014
#04112:1414
#04118:0014
#0421a:24141400
#0531a:14
#0581a:24141400
#0581f:11
#05914:14141400
#06018:14141400
#06112:14141400
#06218:1414
#06214:00140014
#06318:1414
#06314:00140014
#07014:00140000
#0701a:14001414
#07512:1414
#07518:00140000
#0761a:1414
#07614:00140014
#05012:2414
#05010:41
#0121a:14
#01218:0014
#01314:14
#01312:0014
#0741a:00000014
#07812:00000014
#08212:24
#03312:24
#0331a:24
#03410:41
#05152:14
#05552:14
#06952:0016
#0535a:14
#07352:0014
#002380:14
#0023a0:0024
#003340:14
#003320:0024
#004380:14
#0043a0:0024
#005340:14
#005320:0024
#0063a0:14
#006380:0024
#007320:14
#007340:0024
#0163a0:1424
#0243a0:1424
#025320:1424
#029340:14
#029320:0024
#034380:14
#0343a0:0024
#035340:14
#035320:0024
#036380:14
#0363a0:0024
#037340:14
#037320:0024
#0383a0:14
#038380:0024
#039320:14
#039340:0024
#048380:14
#0493a0:3424
#056380:14
#0563a0:0024
#057340:14
#057320:0024
#064380:14
#0653a0:24
#074380:14
#0743a0:0024
#077380:14
#0773a0:0024
#078340:14
#078320:0024
