This file was generated by Ched 2.7.0.0.
#TITLE ""
#ARTIST ""
#DESIGNER ""
#DIFFICULTY 0
#PLAYLEVEL
#SONGID ""
#WAVE ""
#WAVEOFFSET 0
#JACKET ""
#REQUEST "ticks_per_beat 480"
#00002: 4
#BPM01: 232
#00008: 01
#TIL00: ""
#VOLUME: ""
#HISPEED 00
#MEASUREHS 00
#0081a:14
#00914:14
#01018:14
#01112:14
#0121a:14
#01314:14
#01718:14
#01814:14
#01914:14
#02418:14
#02514:14
#02618:14
#02714:14
#02912:14
#07218:14
#0721f:11
#07318:14
#07418:14
#08412:2616
#0841f:21
#08518:1616
#08510:41
#11212:0016
#11218:26
#11318:16
#11312:0016
#11418:1616
#11512:1616
#0201a:14
#0211a:14
#02212:14
#02312:14
#0281a:14
#03112:14
#0301a:14
#03514:14
#03618:14
#04114:14
#04218:14
#04318:14
#04814:14
#04918:14
#05014:14
#05118:14
#0531a:14
#04412:14
#04512:14
#0461a:14
#0471a:14
#05212:14
#07518:14
#07614:14
#07714:14
#07814:14
#07914:14
#08612:16
#08618:0016
#08712:16
#08718:0016
#09218:2616
#09312:1616
#09418:16
#09412:0016
#09518:16
#09512:0016
#10414:14
#10410:41
#1071a:14
#10814:14
#10918:14
#11014:14
#10518:14
#10612:14
#12018:0016
#12012:26
#12112:16
#12118:0016
#12212:1616
#12318:1616
#10118:0026
#10112:26
#10012:26
#10018:0026
#12912:0026
#12918:26
#12818:26
#12812:0026
#13218:00000000000000000000002600000000
#01610:41
#04010:41
#06410:41
#12410:41
#0003a0:14
#002380:34
#003380:24
#004320:14
#006340:34
#007340:24
#014380:14000034
#015380:0034
#016380:24
#0323a0:14
#034380:24
#037340:1400000000000034
#038340:0000000000000034
#040340:24
#054320:14000024
#0563a0:14
#0583a0:24
#060320:14
#062320:24
#064380:14
#066380:24
#068340:14
#070340:24
#080380:14
#082380:24
#088320:1626
#089380:1626
#090320:16
#091320:26
#096380:1636
#097360:3636
#098380:3636
#099360:3626
#101380:0000000016000036
#103380:0026
#116380:1626
#117320:1626
#118380:16
#119360:26
#124320:1636
#125340:3636
#126320:3636
#127340:3626
#129320:0000000016000036
#131320:0026
#132380:00000000000000000000001600000000
#140380:00000000000000000000000000000056
#1443a0:24
