This file was generated by Ched 2.7.0.0.
#TITLE ""
#ARTIST ""
#DESIGNER ""
#DIFFICULTY 0
#PLAYLEVEL
#SONGID ""
#WAVE ""
#WAVEOFFSET 0
#JACKET ""
#REQUEST "ticks_per_beat 480"
#00002: 4
#BPM01: 232
#00008: 01
#TIL00: ""
#VOLUME: ""
#HISPEED 00
#MEASUREHS 00
#0721f:11
#07219:0000000013130000
#0721b:1313000000000000
#07214:00000023
#07216:00230000
#03116:00140000
#03112:0013
#0311b:00230013
#03016:00140014
#03012:00000023
#0301b:00230000
#1301a:0014
#12912:28001313
#1291b:13
#1291a:00130000
#12915:0000000029000029
#12812:2613
#1281b:13
#12814:00000013
#12818:00130000
#12817:0027
#1011a:00001414
#10112:1400000028000029
#10113:00140000
#10116:28
#1001a:0014
#10012:1428
#10018:00000014
#10015:00140000
#10016:68
#10212:0014
#0991a:14
#09916:0000140000550000
#09918:0014
#09915:0000000000000057
#09917:00000056
#09912:58
#09812:14
#09816:58140000
#09814:0000000014000057
#09813:00000056
#09815:0000000000550000
#0971a:14
#09716:0000140000550000
#09718:0014
#09715:0000000000000057
#09717:00000056
#09712:58
#0361b:00130000
#03617:0000000013000013
#03612:00000013
#0351b:0000000000130000
#03518:0000001300000013
#03515:00001313
#03512:00130000
#03416:0000000013000013
#0341b:00000013
#03412:00130000
#0321b:23001313
#03217:00130000
#03216:0000000000000013
#03312:0000000013000013
#03317:00000013
#03316:00130000
#03717:00130000
#0371b:00001313
#03716:0000000000000023
#01212:00130000
#01216:0000000013000013
#0121b:00000013
#01112:0000000000130000
#01115:0000001300000013
#01118:00001313
#0111b:00130000
#01017:0000000013000013
#01012:00000013
#0101b:00130000
#00812:23001313
#00816:00130000
#00817:0000000000000013
#0091b:0000000013000013
#00916:00000013
#00917:00130000
#03915:00001313
#03918:0000000000130013
#0391b:00130000
#0381b:0013
#03816:0013
#03812:00130013
#03817:0000000000000023
#09616:18140000
#09614:0000000014000057
#09612:14
#09613:00000056
#09615:0000000000550000
#12415:0000000000130000
#12418:00130013
#12412:1600000000000013
#1241b:1313
#12410:41
#12518:1600000000130000
#12512:0013
#12515:00130013
#1251b:0000000000000013
#12612:1600000000130000
#1261b:0013
#12618:00130013
#12615:0000000000000013
#12718:1600000000000013
#12712:0013
#1271b:0000000000130000
#12715:00130013
#0881b:1313
#08812:1313
#08818:00000013
#08815:00130000
#08715:00000013
#08712:0013
#08718:00130000
#0871b:13
#08918:13000013
#08912:00130000
#08915:0013
#09012:0013
#0901b:13
#09017:0013
#09115:13001313
#09118:0000130000130013
#12018:00130013
#12015:00130013
#1201b:13
#12012:2623
#06918:00000013
#06912:0000130000130000
#06915:0000000000000013
#0691b:0013
#05518:00001313
#05515:0000000000130013
#0551b:00230000
#06715:00000013
#0671b:0000000000130000
#06718:0000000000000013
#06712:00131300
#0521b:13
#05218:00130000
#05215:00000013
#05318:00130000
#05315:00000013
#05915:00001313
#05918:0000000000130013
#05917:0013000000000000
#05912:00130000
#10415:00131300
#10418:00130013
#10412:2300000000000013
#1041b:23
#10410:41
#09315:0000131300000000
#0931b:1300131300000000
#09312:00000013
#09218:00000013
#09217:00130000
#09212:26000013
#0921b:13
#09215:0013
#08415:00000013
#08416:00130000
#0841b:00000013
#08412:13
#08418:2613
#0841f:21
#08518:0000131300000000
#08512:1300131300000000
#0851b:00000013
#08510:41
#00316:00000012
#00318:0000120000000012
#0031a:0000000000140000
#00312:0000001400000000
#11415:13
#11412:0000001300000000
#11418:00130013
#1141b:2323
#00616:0014
#00218:00120000
#00216:12
#00212:0014
#0021a:0014
#00118:0000001200000000
#00116:00120000
#00112:0014
#00518:00120000
#00516:0000001200000000
#0051a:0014
#14012:00000000000000000000000000000012
#1401c:00000000000000000000000000000012
#11612:1313
#1161b:2313
#11618:00000013
#11615:00130000
#11918:0013000000130013
#11915:13131313
#11712:00131300
#1171b:13000013
#11717:00130000
#11716:00000013
#11812:00130000
#1181b:13
#11817:0013
#11813:0013
#11814:00000013
#11218:00000013
#11212:0013
#11215:00000013
#1121b:0023
#11318:00130013
#11312:0000131300000000
#1131b:2323
#11518:00130013
#1151b:2323
#12115:00130013
#1211b:0000131300000000
#12112:2323
#12215:00130013
#12218:13
#1221b:0000001300000000
#12212:2323
#12315:00130013
#12312:2323
#04712:00000000000000130000000000000000
#0471b:13000013
#04715:0013000000000000
#0231b:0013
#02318:00130000
#02312:0013130000001300
#02412:2300000000001313
#02417:0000130000000013
#0241b:23
#02715:00000013
#02712:00130000
#0271b:0013000000000000
#02718:0000001300000000
#08112:0013
#08116:00000013
#0801b:0013
#08017:00000000000000000000001300000000
#0951b:0013
#09518:00000013
#09515:00130000
#09512:13
#09415:13000013
#09418:0000001300000000
#0941b:13
#09412:00330000
#08618:13000013
#08615:0000001300000000
#08612:13
#08212:0000000000000016
#08218:13141516
#08214:0000001400000000
#08213:0000000000150000
#08215:0013000000000000
#0511b:00130013
#05118:0013
#05115:00000013
#05112:0013
#05116:13
#05018:13000013
#0501b:0013
#05015:0013
#05012:13000013
#04812:2300130000001313
#04818:0000130000000013
#0481b:2313
#04915:00000013
#0491b:00130013
#04918:0013
#04912:0013
#0461b:00131300
#04615:0013
#04612:1300000000000013
#04618:00000013
#04418:0013
#04415:00130013
#0441b:23130000
#04412:23
#0431b:0013130000000000
#04316:00130000
#04212:0000000000000013
#04217:00000013
#04112:0013001300000000
#04118:00130000
#04015:0000230000000013
#0401b:0000130000001313
#04012:0013
#04010:41
#02915:0013
#02912:0013130000000013
#02918:00130013
#02812:1313
#0281b:1300130000001313
#02818:0013
#02815:0000130000000013
#02215:1300000000000013
#0221b:1300000000001313
#02218:00131300
#02212:0013
#02112:0000000013130000
#0211b:0013130000000013
#02118:0000000000130000
#02115:00130000
#02012:1300130000001313
#0201b:1313
#02015:0013
#02018:0000130000000013
#0251b:0000001300000000
#02516:0000001300000000
#02514:0013000000000000
#02519:0013000000000000
#02617:13
#02612:0000000000001313
#02616:00131300
#0261b:00000013
#01712:0000001300000000
#01717:0000001300000000
#01719:0013000000000000
#01714:0013000000000000
#01816:13
#0181b:0000000000001313
#01817:00131300
#01812:00000013
#07815:0000000013130000
#07812:1313000000000000
#0781b:00000023
#07818:00230000
#07912:1313000000000013
#07915:00000013
#07918:0000230000130000
#0791b:0013
#07618:0000000013130000
#0761b:1313000000000000
#07612:00000023
#07615:00230000
#07516:1313000000000000
#07512:0000000000000013
#0751b:00231300
#07515:0000000000130000
#07518:00000013
#07414:0000000013130000
#07412:1313000000000000
#07419:00000023
#07417:00230000
#07718:00000013
#0771b:1313000000000013
#07715:0000230000130000
#07712:0013
#0731b:0000000000000013
#07312:00231300
#07318:0000000000130000
#07317:1313000000000000
#07315:00000013
#07112:0013000000000013
#07118:00000013
#07115:0000260000130000
#0711b:0013
#0701b:13000013
#07012:0000001300000000
#07015:0026000026000026
#06817:00000013
#06812:13000013
#0681b:2313
#06612:00000013
#06617:00001313
#06616:13
#0661b:13
#06519:00000013
#06514:00000013
#06517:00130000
#06512:0013
#06416:00000013
#0641b:13000013
#06412:2313
#06410:41
#06012:13
#06017:00000013
#06016:0000001300000000
#0601b:2313
#0611b:0013000000000000
#06112:00131300
#06114:00000013
#06119:00000013
#0621b:13
#06217:0000001300000000
#06216:13
#06212:00001313
#06316:0013000000000000
#06318:00001313
#0631b:00130000
#06315:0000000000130013
#0561b:13
#05616:00000013
#05617:0000001300000000
#05612:2313
#05712:0013000000000000
#0571b:00131300
#05719:00000013
#05714:00000013
#05812:13
#05816:0000001300000000
#05817:13
#0581b:00001313
#13613:00000000000000000000000000000000001500000000000000000000000000000000000000000000000000000000000000000000000000000000000000000000
#13618:00000000000000000000000000000000001500000000000000000000000000000000000000000000000000000000000000000000000000000000000000000000
#00418:00120000
#0041a:0000000000120000
#00416:00000014
#00414:0000001400000000
#00412:14
#01319:0000000000000013
#01313:00000013
#0131a:0000000000130000
#01314:0013
#0131b:0000001300000000
#01315:00130000
#01515:00130000
#0151a:0024140024000000
#01512:0024
#01418:0013000000000013
#01412:2414000000002414
#01415:0013
#0141a:0000002414000000
#10917:0000000000130000
#1091b:00130000
#10812:0000130000130000
#10815:0000000000000013
#10818:00000013
#1081b:1313
#10715:13000013
#10718:0013000000130000
#10712:0013
#1061b:13000013
#10618:0000001300000000
#10612:0000000000130000
#10615:00130000
#10515:0000130000000013
#10518:0013000000001300
#00016:00120014
#00014:0000000000120000
#00018:0000001400000000
#0001a:14
#0451b:0000000000000013
#04515:00000013
#04518:0013000000130000
#04512:0013
#01917:00130000
#01912:00130000
#0161b:2300000000001313
#01616:0000130000000013
#01612:23
#01610:41
#13112:0026
#10318:0026
#0541b:00230000
#05412:00000023
#13219:00000000000000000000002500000000
#13212:00000000000000000000002500000000
#00716:0024
#11118:0023
#11115:0023
#11052:0000000000000013
#1105b:0000000000000013
#08052:0013
#0805b:0063
#08057:00000000000000000000002300000000
#1175b:6343
#11755:13
#11757:00230000
#11756:00000023
#11752:0053
#11852:33
#1185b:63
#11857:0023
#09452:0000001300000000
#09458:0000005300000000
#09455:63
#0945b:13
#0865b:0000001300000000
#08655:0000006300000000
#08658:53
#08652:13
#0815b:0013
#08152:0053
#08156:00000023
#11258:46
#11252:36
#11255:00000063
#10056:18
#10052:0018
#09952:18
#09856:18
#09752:18
#07958:00130000
#0785b:00000013
#07858:00130000
#07755:00130000
#07652:00000013
#07655:00130000
#0755b:00130000
#07459:00000013
#07457:00130000
#07352:00130000
#07254:00000013
#07256:00130000
#03857:0000000000000013
#03756:0000000000000013
#0315b:00130000
#03052:00000013
#0305b:00130000
#12955:0000000049000059
#12952:38
#12857:0047
#12852:36
#10152:0000000018000069
#10156:18
#0545b:00130000
#05452:00000013
#0555b:00130000
#00756:0014
#12052:16
#12058:00230053
#1205b:63
#09252:16000053
#09257:00230000
#0925b:63
#08458:16
#08456:00230000
#0845b:00000063
#08452:53
#07155:00160000
#07055:0016000016000016
#0685b:13
#06857:00000053
#06852:53
#06452:13
#06456:00000063
#0645b:63
#0605b:13
#06052:63
#06057:00000063
#06056:0000002300000000
#05652:13
#0565b:53
#05656:00000053
#05657:0000002300000000
#11158:0023
#11155:0023
#1305a:0024
#10252:0024
#03456:0000000000000013
#03352:0000000000000013
#03256:0000000000000013
#03657:0000000000000013
#01057:0000000000000013
#0095b:0000000000000013
#00857:0000000000000013
#01256:0000000000000013
#12558:46
#12652:36
#12758:46
#0885b:13
#08852:0053
#08958:53
#08955:0063
#0905b:63
#09057:0023
#09656:18
#05258:00130000
#05255:00000013
#05358:00130000
#05355:00000013
#11455:63
#11452:0000005300000000
#00656:0014
#14052:00000000000000000000000000000052
#1405c:00000000000000000000000000000062
#11652:1353
#1165b:0013
#11352:0000005300000000
#12258:53
#1225b:0000006300000000
#1215b:0000006300000000
#04752:00000000000000230000000000000000
#04755:0063000000000000
#0235b:0023
#02358:00530000
#12452:36
#0935b:0000006300000000
#08552:0000005300000000
#08252:0000000000000016
#04852:0000530000000053
#0485b:0063
#05052:13000053
#05058:13
#04655:0023
#04652:53
#04458:0053
#04455:00630000
#0435b:00530000
#04356:00530000
#04252:0000000000000053
#04152:0000005300000000
#0405b:00630000
#04052:0053
#02955:0063
#02958:00530000
#02852:0053
#02255:63
#02252:0023
#0205b:0063
#0255b:0000006300000000
#01752:0000005300000000
#06657:00000053
#06656:63
#0665b:13
#0615b:0023000000000000
#0625b:53
#06257:0000002300000000
#06256:13
#06252:00000063
#06356:0023000000000000
#05752:0023000000000000
#05852:63
#05856:0000002300000000
#05857:13
#0585b:00000053
#05957:0023000000000000
#13653:00000000000000000000000000000000006500000000000000000000000000000000000000000000000000000000000000000000000000000000000000000000
#13658:00000000000000000000000000000000005500000000000000000000000000000000000000000000000000000000000000000000000000000000000000000000
#02652:0000000000000053
#0025a:0014
#10957:0000000000230000
#1095b:00630000
#10852:00530000
#10855:0000000000000063
#1085b:63
#10755:00000063
#10758:0053000000000000
#10458:00530000
#10452:0000000000000053
#10455:0063
#1065b:63000063
#10658:0000005300000000
#10555:00630000
#05156:23
#02758:0000005300000000
#0185b:0000000000000053
#01957:00530000
#01952:00530000
#003360:12525252220000000000000000000000
#003350:0052005200520052000000000000000000000000000000000000000000000000
#006320:13230000
#0063b1:00132300
#0073b1:13230000
#007320:00132300
#008370:1323
#0083b0:00330000
#008320:0000000000000013
#009320:00330000
#009360:0023
#009360:0000000000000013
#010360:00330000
#010320:0023
#010320:0000000000000013
#011320:00230000
#0123b0:1323
#012370:00330000
#0123b0:0000000000000013
#0133b0:00230000
#0163b0:00132300
#016361:00001323
#017321:0000001300000000
#017361:00000023
#0173b0:00000013
#0183b0:23
#018320:00132300
#0183b0:0000000000000013
#019370:00330000
#0193b0:00000023
#019321:00130000
#019361:00000023
#0203b1:0013
#020381:00000023
#022351:13
#022321:00230000
#022321:0013
#022351:00000023
#023381:00130023
#0233b1:0053
#024321:00132300
#024370:00001323
#0253b0:0000001300000000
#025370:00000023
#025321:00000013
#026321:23
#0263b1:00132300
#026321:0000000000000013
#027351:0023000000000000
#027381:0000001300000000
#0273b1:00000023
#028321:0013
#028351:00000023
#029381:00130000
#0293b1:0023
#029350:0013
#029320:00000023
#0303b0:13230000
#030320:00001323
#0313b0:13230000
#032360:1323
#032320:00330000
#0323b0:0000000000000013
#0333b0:00330000
#033370:0023
#033370:0000000000000013
#034370:00330000
#0343b0:0023
#0343b0:0000000000000013
#0353b0:00230000
#036320:1323
#036360:00330000
#036320:0000000000000013
#037320:00330000
#037360:0023
#0373b0:0000000000000013
#038370:00230000
#038320:0000000000000013
#039360:00230000
#0403b0:00130000
#040380:0023
#040321:0013
#040351:00000023
#041321:0000001300000000
#041361:00000023
#0413b0:00000013
#0423a0:23
#042351:13
#042341:00230000
#042390:00130000
#042380:0023
#042331:0013
#042321:00000023
#042321:0000000000000013
#043361:0033330000000000
#043321:00000023
#0433b0:00130000
#043370:00000023
#044350:00130000
#044320:0023
#044381:0013
#0443b1:00000023
#044351:0000000000000013
#045351:0023000000000000
#045381:00132300
#046321:13
#046351:00230000
#046351:0013
#046321:00000023
#047351:0013000000002300
#047321:00000000000000530000000000000000
#048321:00130000
#048351:0023
#0483b0:0013
#048380:00000023
#048320:0000000000000013
#049350:00230000
#050320:00000013
#051360:53
#051320:00230000
#052320:1323
#0523b1:0013
#0533b1:23
#053320:1323
#0533b1:0013
#0543b1:23
#054320:13
#054350:0053230000000000
#0543b0:0013
#054380:0000000000532300
#055320:13
#055350:0053230000000000
#0563b0:13000023
#056370:0000005300000000
#056361:00000013
#057321:0053000000000000
#057361:0023
#058321:13000023
#058361:0000005300000000
#0583b0:00000013
#059370:0053000000000000
#0593b0:0023
#060320:13000023
#060360:0000005300000000
#060371:00000013
#0613b1:0053000000000000
#061371:0023
#0623b1:13000023
#062371:0000005300000000
#062320:00000013
#063360:0053000000000000
#063320:0023
#0643b0:13
#064370:0023
#064360:00000013
#065320:00230000
#066360:13
#066320:0023
#066370:00000013
#0673b0:00230000
#068320:13
#068360:0023
#068370:00000013
#0693b0:00230000
#0803b0:13
#080380:0053230000000000
#080351:00130000
#080321:0000005323000000
#0803b0:0000000013000023
#080370:00000000000000000000005300000000
#080321:0000000000000013
#081351:53230000
#081380:00130000
#0813b0:0000005323000000
#081321:0013
#081361:00000053
#082321:23
#084321:1323
#084361:00530000
#0843b1:00000013
#085381:23
#085321:0000001300000000
#085351:00000023
#086381:13
#0863b1:0000002300000000
#086350:0000001300000000
#086320:00000023
#087350:13230000
#087380:00001323
#088320:0013
#089350:23
#089381:13
#0893b1:0023
#089350:0013
#090320:23
#0903b1:13
#090371:0053
#0913b1:23
#0923b1:1323
#092371:00530000
#092321:00000013
#093351:23
#0933b1:0000001300000000
#093381:00000023
#094351:13
#094321:0000332300000000
#094380:0000001300000000
#0943b0:00000023
#095380:13230000
#095350:00001323
#101320:0000000000000019
#102320:00545400
#103320:0026
#104380:00130000
#1043b0:0023
#104351:0013
#104321:00000023
#104321:0000000000000013
#105351:0023000000000000
#105351:00130000
#105321:00000023
#1063b1:13
#106381:00230000
#106381:0000001300000000
#1063b1:0000000000230000
#1063b1:00000013
#107381:23
#107381:0013000000000000
#1073b1:0023
#107351:00000013
#108321:23
#1083b0:13
#108380:00230000
#108321:00130000
#108351:0023
#108351:0000000000000013
#109321:00230000
#1093b0:00130000
#109370:0000000000530000
#1103b0:33535353535353535353535353532300
#1103a0:0053005300530053005300530053005300530053005300530053005300000000
#110321:13535353535353535353535353532300
#110331:0053005300530053005300530053005300530053005300530053005300000000
#111381:0013
#112381:26
#111350:0013
#112320:26
#112350:00000013
#113320:23
#113320:0000001300000000
#113350:00000023
#114350:13000023
#114320:0000333300000000
#115320:13230000
#115350:00001323
#116320:0013
#117350:23
#1173b1:1323
#117371:00530000
#117320:0013
#117360:00000053
#118320:23
#1183b1:13
#118371:0053
#1193b1:23
#1203b1:1323
#120381:00530000
#120381:00000013
#1213b1:23
#1213b1:0000001300000000
#121381:00000023
#122381:13000023
#1223b1:0000333300000000
#1233b1:13230000
#123381:00001323
#129351:0000000000000019
#1303a1:00545400
#131381:0026
#132391:00000000000000000000001500000000
#133391:00000000000000003500000000000000350000000000000000000000000000000035000000000000000000000000000035000000000000000000000000000000
#133381:0000000000003500000000000035000000000000350000000000000035000000
#134391:00000000000000350000000000000000000000000000000000000000000000000000000000000000000000003500000000000000000000000000000000000000
#134381:0000000000000000000000350000000000000000000000000000000000000000
#135381:00000000000000350000000000000000000000000000000000000000000000000000000000000000000000000000000000000000000000000000000000000000
#135391:00000000000000000000000000000000000000000000000000000000000000000035000000000000000000000000000000000000000000000000000000000000
#136381:00000000000000000000000000000000003500000000000000000000000000000000000000000000000000000000000000000000000000000000000000000000
#1403c1:00000000000000000000000000000052
#144381:22
#132320:00000000000000000000001500000000
#133320:00000000000000003500000000000000350000000000000000000000000000000035000000000000000000000000000035000000000000000000000000000000
#133330:0000000000003500000000000035000000000000350000000000000035000000
#134320:00000000000000350000000000000000000000000000000000000000000000000000000000000000000000003500000000000000000000000000000000000000
#134330:0000000000000000000000350000000000000000000000000000000000000000
#135330:00000000000000350000000000000000000000000000000000000000000000000000000000000000000000000000000000000000000000000000000000000000
#135320:00000000000000000000000000000000000000000000000000000000000000000035000000000000000000000000000000000000000000000000000000000000
#136330:00000000000000000000000000000000003500000000000000000000000000000000000000000000000000000000000000000000000000000000000000000000
#140320:00000000000000000000000000000052
#144360:22
#096940:0000000014000057
#096950:0000000000550000
#096930:00000056
#097920:28
#097980:0014
#097960:0000000000550000
#097970:00000056
#097950:0000000000000057
#098960:28
#098940:0000000014000057
#098950:0000000000550000
#098930:00000056
#099920:28
#099980:0014
#099960:0000000000550000
#099970:00000056
#099950:0000000000000057
#100960:28
