This file was generated by Ched 2.7.0.0.
#TITLE ""
#ARTIST ""
#DESIGNER ""
#DIFFICULTY 0
#PLAYLEVEL
#SONGID ""
#WAVE ""
#WAVEOFFSET 0
#JACKET ""
#REQUEST "ticks_per_beat 480"
#00002: 4
#BPM01: 232
#00008: 01
#TIL00: ""
#VOLUME: ""
#HISPEED 00
#MEASUREHS 00
#01215:0000130000000013
#01212:0013
#0121b:00000013
#01218:13
#01415:0013000013000000
#01412:0000000000000013
#0141b:23
#01418:0000002300002300
#01515:00130000
#01518:0023000000000000
#0151b:0023
#01512:0023
#03115:0013
#03118:13000013
#0311b:00230000
#04218:0000130000000013
#04215:0013
#04212:00000013
#0421b:13
#04415:00130000
#04418:0013
#04412:00000013
#0441b:0000000000000013
#04515:0013000000000013
#04518:00130013
#04512:0013
#04315:0013000000000000
#0431b:00130000
#04818:0000130000000013
#04815:0013
#04812:00000013
#0481b:23
#04912:0013
#04918:00000013
#05617:00000013
#0561b:13
#05712:00000013
#0581b:00000013
#05817:13
#0611b:00000013
#0641b:00000013
#06416:00000013
#06412:13
#06417:13
#06410:41
#06519:00000013
#06514:00000013
#06815:00000013
#0681b:13
#06818:00000013
#06812:13
#07018:13
#07015:13
#0701b:00000013
#07012:00000013
#0721b:13
#07215:00130000
#07218:0000000013000013
#07212:00000013
#0721f:11
#07315:0013
#07318:00000013
#07412:13
#0741b:00000013
#07418:00130000
#07415:0000000013000013
#07518:00000013
#07612:13
#0761b:00000013
#07615:0000130000000013
#07618:0013
#07718:0013
#07715:00000013
#0781b:13
#07818:0000130000000013
#07815:0013
#07812:00000013
#07915:0013
#07918:00000013
#08212:13
#0821b:13
#08115:13
#08118:13
#08012:13
#0801b:13
#08412:23000013
#0841b:23
#0841f:21
#0851b:13
#08515:00130000
#08518:0000001300000000
#08510:41
#08612:13
#08615:0000001300000000
#0871b:13
#08712:00000013
#08715:00130000
#08718:0013
#0921b:00000013
#09212:23
#09312:13
#09318:00130000
#09315:0000001300000000
#0941b:13
#09418:0000001300000000
#11018:14
#11014:14
#11218:00000013
#11315:13
#1131b:00130000
#11312:0000001300000000
#11418:13
#1141b:0000001300000000
#11512:13
#11515:00130000
#1151b:00000013
#11518:0013
#11918:00000013
#1191b:0013
#11915:00000013
#11912:0013
#10118:0013
#10115:0013
#10112:13
#1011b:13
#0001a:14
#00016:0000001400000000
#00012:00000014
#00114:0014
#00118:00120000
#00216:0014
#0021a:12
#00214:00120000
#00412:14
#00416:0000001400000000
#0041a:00000014
#00518:0014
#00516:00120000
#00314:0000001400000000
#00318:1200000000140000
#00614:0014
#00612:14
#00618:00120000
#0071a:14
#00716:00120000
#00718:0024
#0081b:00130000
#00815:0000000013000013
#00818:00000013
#00812:23
#0091b:00130000
#00912:0000000013000013
#00918:00000013
#0101b:00130000
#01015:0000000013000013
#01018:00000013
#0111b:00130000
#01118:0013
#01115:00000013
#0131b:00130000
#01318:0013
#01315:00000013
#01615:00130013
#01618:0013
#0161b:2300000000000013
#01610:41
#0171b:0000001300000000
#01718:0013000000000000
#01812:13
#01815:00130013
#01818:0000000013000013
#0191b:00130000
#02012:0000130000000013
#02015:0013
#02018:00000013
#0211b:0013000000000013
#02115:00130000
#02118:0013
#02112:0000000000130000
#02215:13000013
#02218:0000000013000013
#0231b:00130000
#02418:00130013
#02415:0013
#02412:2300000000000013
#02512:0000001300000000
#02515:0013000000000000
#0261b:13
#02618:00130013
#02615:0000000013000013
#02712:0000001300000000
#0281b:0000130000000013
#02818:0013
#02815:00000013
#02912:0013000000000013
#02918:00130000
#02915:0013
#0291b:00000013
#03018:13
#03015:0013
#0301b:00230000
#03012:00000023
#03618:0000130000000013
#0361b:0013
#03612:00000013
#03615:13
#03212:00130000
#03218:0000000013000013
#03215:00000013
#0321b:23
#03312:00130000
#0331b:0000000013000013
#03315:00000013
#03412:00130000
#03418:0000000013000013
#03415:00000013
#03512:00130000
#03515:0013
#03518:00000013
#03712:00130000
#03715:0000000013000023
#03718:00000013
#0381b:00130000
#03818:0000000013000023
#03815:00000013
#03912:00130000
#03918:00001313
#03915:0000000000130013
#04012:0013
#04018:00000013
#04015:0000000000000013
#0401b:00230000
#04010:41
#04115:0000001300000000
#04112:0013000000000000
#05015:13000013
#05018:0013
#06016:00000013
#06012:13
#06212:00000013
#06216:13
#06612:00000013
#06617:00000013
#0661b:13
#06616:13
#07115:00000013
#09512:13
#0951b:00000013
#09518:00130000
#09515:0013
#09615:13
#0961b:13
#09718:13
#09712:13
#09815:13
#0981b:13
#09918:13
#09912:13
#10015:0013
#10018:0013
#10012:23
#1001b:23
#10412:00140000
#10418:0000000014000014
#10414:00000014
#1041a:24
#10410:41
#10814:0000000014000014
#1081a:00140000
#10818:00000014
#10812:14
#10912:00140000
#12015:00000013
#1201b:23
#12012:23
#12118:13
#12112:00130000
#1211b:0000001300000000
#12215:13
#12212:0000001300000000
#12918:1313
#1291b:00130000
#12915:1313
#12912:00130000
#1281b:2313
#12818:00130000
#12812:2313
#12815:00130000
#14018:00000000000000000000000000000013
#14015:00000000000000000000000000000013
#1361a:00000000000000000000000000000000001400000000000000000000000000000000000000000000000000000000000000000000000000000000000000000000
#13612:00000000000000000000000000000000001400000000000000000000000000000000000000000000000000000000000000000000000000000000000000000000
#05115:00000013
#05118:0013
#05318:13000013
#05315:0013
#05312:13
#05415:13
#05412:00000013
#1231b:13
#12318:00130000
#12312:00000013
#12315:0013
#09115:0013
#12418:13
#1241b:00130000
#12412:13
#12415:00130000
#12410:41
#12515:13
#12512:00130000
#1251b:13
#12518:00130000
#12618:13
#1261b:00130000
#12612:13
#12615:00130000
#12715:13
#12712:00130000
#1271b:13
#12718:00130000
#0881b:13
#08812:0013
#08918:0013
#0891b:13
#09018:0013
#0901b:13
#11715:13000000000000000000000000130000
#11713:0013
#11712:0000000000000000000000130000000000000000000000000000000000000000
#11812:0000001300000000
#11814:13
#11615:13
#11618:0013
#04615:0000000000000013
#04618:13000013
#04612:0013
#04712:0013000000000000
#05212:13
#05218:13
#0521b:0013
#05215:0013
#1051a:00140000
#10514:00000054
#10513:0000000000000054
#10712:0014000000000000
#10718:0054
#1071a:00000054
#10719:0000000000540000
#10616:00000014
#1061a:0000001400000000
#10612:54
#11112:0024
#1111a:0024
#1321a:00000000000000000000002400000000
#13212:00000000000000000000002400000000
#04858:0000000000000053
#05657:00000053
#0565b:63
#0585b:00000063
#05857:53
#0645b:00000063
#06456:00000063
#06452:53
#06457:53
#06855:00000063
#0685b:63
#06858:00000053
#06852:53
#07058:53
#07055:63
#0705b:00000063
#07052:00000053
#08052:53
#0805b:63
#08252:53
#08255:0000000000000013
#0825b:63
#08258:0000000000000013
#08155:23
#08158:23
#0845b:13
#08452:13
#08558:0000005300000000
#08652:53
#08655:0000006300000000
#09355:0000006300000000
#0945b:63
#09458:0000005300000000
#11058:54
#1105a:0000000000000014
#11054:64
#11052:0000000000000014
#11352:0000005300000000
#11458:53
#1145b:0000006300000000
#11958:00000023
#1195b:0063
#11955:00000023
#11952:0053
#1205b:13
#12052:13
#10158:0053
#10155:0063
#1015b:6300000000000013
#10152:5300000000000013
#11252:16
#11258:16
#00654:0014
#00758:0014
#00855:0000000000000013
#00952:0000000000000013
#01055:0000000000000013
#01255:0000000000000013
#0175b:0000006300000000
#01758:0053000000000000
#0165b:0000000000000063
#0195b:00630000
#02255:63
#02258:0000000000000053
#0235b:00630000
#02552:0000005300000000
#02555:0063000000000000
#02452:0000000000000053
#02655:0000000000000053
#02752:0000005300000000
#03058:53
#03055:0063
#0305b:00130000
#03052:00000013
#03158:53
#0315b:00130000
#03858:0000000000000013
#03755:0000000000000013
#03258:0000000000000013
#0335b:0000000000000013
#03458:0000000000000013
#03658:0000000000000013
#04155:0000006300000000
#04152:0053000000000000
#04055:0000000000000063
#0435b:00630000
#06056:00000063
#06052:53
#06252:00000053
#06256:63
#06652:00000053
#06657:00000053
#0665b:63
#06656:63
#07258:0000000000000053
#07455:0000000000000063
#07552:00130000
#07655:0000000000000063
#07858:0000000000000053
#09652:0013
#09655:63
#0965b:63
#09658:0013
#09758:53
#09752:53
#0975b:0013
#09755:0013
#09855:63
#0985b:63
#09852:0013
#09858:0013
#09958:53
#09952:53
#0995b:0013
#09955:0013
#10052:53
#10055:0063
#10058:0053
#1005b:63
#10854:0000000000000064
#10952:00540000
#1215b:0000006300000000
#12255:63
#12252:0000005300000000
#1285b:6363
#12858:00230000
#12852:5353
#12855:00230000
#1295b:0000230000000013
#12958:5353
#12955:6363
#12952:0000230000000013
#14058:00000000000000000000000000000053
#14055:00000000000000000000000000000063
#1365a:00000000000000000000000000000000006400000000000000000000000000000000000000000000000000000000000000000000000000000000000000000000
#13652:00000000000000000000000000000000005400000000000000000000000000000000000000000000000000000000000000000000000000000000000000000000
#01858:0000000000000053
#05055:13000063
#05455:63
#05452:00000053
#09155:0063
#09252:13
#12458:5313
#1245b:00230000
#12452:5313
#12455:00230000
#12555:6313
#12552:00230000
#1255b:6313
#12558:00230000
#12658:5313
#1265b:00230000
#12652:5313
#12655:00230000
#12755:6313
#12752:00230000
#1275b:6313
#12758:00230000
#0885b:63
#08852:0053
#08958:0053
#0895b:63
#09058:0023
#0905b:63
#11755:63000000000000000000000000230000
#11753:0053
#11752:0000000000000000000000230000000000000000000000000000000000000000
#11852:0000002300000000
#11854:63
#11655:63
#11658:0053
#04655:0000000000000063
#04658:53
#04752:0053000000000000
#10458:0000000000000054
#1055a:00640000
#0163b0:0000000000000013
#017380:0033000000002300
#0173b0:0000003300000000
#018380:0000000000000013
#0193b0:00330000
#020380:23
#022350:13
#022320:00230000
#022380:0000000000000013
#0233b0:0033330000000000
#023380:00000023
#024320:0000000000000013
#025350:0033000000002300
#025320:0000003300000000
#026350:0000000000000013
#027320:0033333300000000
#028350:23
#030380:13
#0303b0:00230000
#030350:0013
#030320:00000023
#031380:13
#0313b0:00230000
#040350:0000000000000013
#041320:0033000000002300
#041350:0000003300000000
#0433b0:00130000
#044380:23
#046380:13
#0463b0:00230000
#046350:0000000000000013
#047320:0033000000000000
#047350:00000023
#048380:0000000000000013
#0493b0:00230000
#050350:00000013
#051320:00230000
#054350:13
#054320:00000033
#055350:0023
#0563b0:13
#056370:00000033
#0573b0:0023
#058370:13
#0583b0:00000033
#059370:0023
#060320:13
#060360:00000033
#061320:0023
#062360:13
#062320:00000033
#063360:0023
#064370:13
#0643b0:00000033
#065370:0023
#064321:13
#064361:00000033
#065321:0023
#066361:13
#066321:00000033
#067361:0023
#0663b0:13
#066370:00000033
#0673b0:0023
#068320:13
#068350:00000033
#069320:0023
#0683b1:13
#068381:00000033
#0693b1:0023
#070351:13
#070321:0023
#070380:13
#0703b0:0023
#070320:00000013
#071350:0023
#0703b1:00000013
#071381:0023
#072381:0000000000000013
#0733b1:00230000
#074351:0000000000000013
#075321:00230000
#076351:0000000000000013
#077321:00230000
#078381:0000000000000013
#0793b1:00230000
#080321:13
#081351:53
#082321:33
#082351:0000000000000023
#0803b0:13
#081380:53
#0823b0:33
#082380:0000000000000023
#085380:0000001300000000
#0853b0:00000023
#086320:13000023
#086350:0000003300000000
#0883b0:13
#088380:0023
#088321:0013
#089351:23
#0893b0:13
#089380:0033
#0903b0:33
#090380:0053
#0913b0:23
#091350:0013
#092320:23
#093350:0000001300000000
#093320:00000023
#0943b0:13000023
#094380:0000333300000000
#096350:13
#096320:0023
#0963b1:13
#096381:0023
#097381:13
#0973b1:0023
#097320:13
#097350:0023
#098350:13
#098320:0023
#0983b1:13
#098381:0023
#099381:13
#0993b1:0023
#099320:13
#099350:0023
#1003b0:13
#100380:0033
#1013b0:3300000000000023
#101380:0033
#100321:13
#100351:0033
#101321:3300000000000023
#101351:0033
#104381:0000000000000014
#1053a1:0034340000000000
#105381:0024
#108341:0000000000000014
#109321:00340000
#110341:34
#110321:0000000000000024
#110380:14
#1103a0:0000000000000024
#111320:0014
#112320:26
#1113a1:0014
#112381:26
#113321:0000001300000000
#113351:00000023
#114381:13000023
#1143b1:0000333300000000
#116351:13
#116321:0023
#116380:0013
#1173b0:23
#117351:13000000000000000000000000530000
#117321:0000000000000000000000530000000000000000000000000000000000000000
#117331:0033
#118341:33
#118321:0000005300000000
#119351:23
#1193b1:0013
#119381:00000053
#1203b1:23
#119320:0013
#119350:00000053
#120320:23
#1213b0:0000001300000000
#121380:00000023
#122350:13000023
#122320:0000333300000000
#124380:1323
#1243b0:00530000
#124321:1323
#124351:00530000
#125351:1323
#125321:00530000
#1253b0:1323
#125380:00530000
#126380:1323
#1263b0:00530000
#126321:1323
#126351:00530000
#127351:1323
#127321:00530000
#1273b0:1323
#127380:00530000
#1283b0:1333
#128380:00530000
#129380:3333
#1293b0:0000530000000023
#128321:1333
#128351:00530000
#129351:3333
#129321:0000530000000023
#1323a1:00000000000000000000001400000000
#1333a1:00000000000000003400000034000000340000000000000000003400000000000034000000000000340000000000000034000000000000003400000000000000
#1343a1:00000000000000340000000000000000000000000000340000000000000000000000000000000000000000003400000000000000000000000000000000000000
#1353a1:00000000000000340000000000000000000000000000000000000000000000000034000000000000000000000000000000000000000000000000000000000000
#1363a1:00000000000000000000000000000000003400000000000000000000000000000000000000000000000000000000000000000000000000000000000000000000
#140381:00000000000000000000000000000053
#1443c1:22
#132320:00000000000000000000001400000000
#133320:00000000000000003400000034000000340000000000000000003400000000000034000000000000340000000000000034000000000000003400000000000000
#134320:00000000000000340000000000000000000000000000340000000000000000000000000000000000000000003400000000000000000000000000000000000000
#135320:00000000000000340000000000000000000000000000000000000000000000000034000000000000000000000000000000000000000000000000000000000000
#136320:00000000000000000000000000000000003400000000000000000000000000000000000000000000000000000000000000000000000000000000000000000000
#140350:00000000000000000000000000000053
#144320:22
#105940:00000014
#106920:24
#107980:0014
#1079a0:00000024
