This file was generated by Ched 2.7.0.0.
#TITLE ""
#ARTIST ""
#DESIGNER ""
#DIFFICULTY 0
#PLAYLEVEL
#SONGID ""
#WAVE ""
#WAVEOFFSET 0
#JACKET ""
#REQUEST "ticks_per_beat 480"
#00002: 4
#BPM01: 232
#00008: 01
#TIL00: ""
#VOLUME: ""
#HISPEED 00
#MEASUREHS 00
#00214:14
#00218:0014
#00314:14
#00318:0014
#0081a:1414
#00912:1414
#01018:1414
#01114:1414
#0121a:14
#01212:0014
#01318:14
#01314:0014
#0411a:14
#04114:0014
#04218:14
#04212:0014
#07218:1414
#0721f:11
#07314:1414
#0741a:1414
#07512:1414
#0761a:14
#07618:0014
#07712:14
#07714:0014
#07818:14
#0781a:0014
#07914:14
#07912:0014
#09114:0014
#10612:0014
#10718:1414
#10814:14
#1081a:0014
#10912:14
#10918:0014
#1131a:14
#11312:0014
#11214:0014
#11218:24
#1191a:0014
#00618:14
#00614:0014
#00718:14
#00714:0014
#01614:0014
#01610:41
#0171a:14
#01714:0014
#01818:14
#01812:0014
#02012:14
#02018:0014
#02112:14
#02118:0014
#02214:14
#0221a:0014
#0241a:14
#02414:0014
#02518:14
#02512:0014
#02618:14
#02614:0014
#02812:14
#02818:0014
#02914:14
#0291a:0014
#03014:14
#03018:0014
#03612:14
#0361a:0014
#03714:14
#04012:0014
#04010:41
#04512:14
#04518:0014
#04614:14
#0461a:0014
#0441a:0014
#04414:14
#0481a:14
#04816:0014
#04912:14
#04916:0014
#0501a:14
#05012:0014
#0511a:14
#05116:0014
#05212:14
#05218:0014
#05314:14
#0531a:0014
#0841a:0014
#08412:24
#0841f:21
#08514:14
#08518:0014
#08510:41
#0871a:14
#08714:0014
#08718:00000014
#0891a:14
#08917:0034
#09017:14
#09212:0014
#0921a:24
#09318:14
#09314:0014
#09512:14
#09514:00000014
#09518:0014
#1041a:14
#10414:0014
#10410:41
#11512:14
#1151a:0014
#11514:00000014
#1161a:14
#11714:14
#11712:0014
#11814:14
#11418:14
#12112:14
#1211a:0014
#12018:0014
#12014:24
#1231a:14
#12312:0014
#12318:00000014
#12214:14
#13612:00000000000000000000000000000000001600000000000000000000000000000000000000000000000000000000000000000000000000000000000000000000
#13019:0000000000140000
#12918:0000000026000016
#12912:26
#10213:0000000000140000
#10112:0000000026000016
#10118:26
#0801a:14
#08116:14
#0321a:14
#03316:0014
#14012:00000000000000000000000000000014
#10018:26
#10012:0026
#12812:26
#12818:0026
#13212:00000000000000000000002600000000
#06410:41
#12410:41
#12454:0014
#0165a:14
#0825a:0000000000000014
#08452:14
#0915a:14
#0895a:64
#09057:54
#0925a:14
#09952:0014
#0965a:0014
#09752:0014
#0985a:0014
#1045a:14
#11054:0000000000000014
#11258:14
#1165a:64
#11754:64
#11752:0054
#11854:64
#11952:14
#11458:54
#12254:64
#12054:14
#12558:0014
#12654:0014
#12758:0014
#13652:00000000000000000000000000000000005600000000000000000000000000000000000000000000000000000000000000000000000000000000000000000000
#12958:0000000000000056
#13059:0000000000240000
#10253:0000000000240000
#10152:0000000000000066
#0805a:64
#08156:24
#0325a:64
#03356:0024
#05452:00000014
#14052:00000000000000000000000000000064
#0003a0:14000024
#004320:14000024
#0143a0:1400003400003400
#0153a0:0034000034000000
#0163a0:24
#019380:1424
#023340:1424
#0273a0:1424
#031320:1424
#0323a0:14
#033360:0054
#0353a0:24
#037380:0000000014003434
#0383a0:0000000000000034
#040380:24
#0433a0:1424
#047320:1424
#054320:14000024
#0563a0:14
#056390:00000034
#057380:0024
#058320:14
#058330:00000034
#059340:0024
#060380:14
#060390:00000034
#0613a0:0024
#062340:14
#062330:00000034
#063320:0024
#0643a0:14
#064380:00000034
#0653a0:0024
#066320:14
#066340:00000034
#067320:0024
#068380:14
#0683a0:00000034
#069380:0024
#070340:14
#070320:00000034
#071340:0024
#0803a0:14
#081360:54
#0823a0:3400000000000024
#086320:14
#086340:0024
#088340:14
#088320:0024
#0893a0:14
#089370:0034
#090370:34
#0913a0:24
#0943a0:14
#094380:0024
#096380:14
#0963a0:0024
#097340:14
#097320:0024
#098380:14
#0983a0:0024
#099340:14
#099320:0024
#101320:0000000016000036
#102330:0000000000540000
#103320:0026
#105380:14
#106380:24
#110340:1400000000000024
#114380:14
#1143a0:0024
#1163a0:14
#116380:0024
#117340:14
#117320:0034
#118340:34
#119320:24
#122340:14
#122320:0024
#124320:14
#124340:0024
#1253a0:14
#125380:0024
#126320:14
#126340:0024
#1273a0:14
#127380:0024
#129380:0000000016000036
#130390:0000000000540000
#131380:0026
#132320:00000000000000000000001600000000
#136320:00000000000000000000000000000000003600000000000000000000000000000000000000000000000000000000000000000000000000000000000000000000
#140320:00000000000000000000000000000054
#144340:24
