This file was generated by Ched 2.7.0.0.
#TITLE ""
#ARTIST ""
#DESIGNER ""
#DIFFICULTY 0
#PLAYLEVEL
#SONGID ""
#WAVE ""
#WAVEOFFSET 0
#JACKET ""
#REQUEST "ticks_per_beat 480"
#00002: 4
#BPM01: 185
#00008: 01
#TIL00: ""
#VOLUME: ""
#HISPEED 00
#MEASUREHS 00
#0011a:14
#00318:14
#00412:14
#0051a:14
#00614:14
#00718:14
#00812:14
#00214:14
#0091a:14
#0101a:14
#01112:14
#01212:14
#0131a:14
#01418:14
#01512:14
#01614:14
#03312:0016
#03318:26
#03310:41
#03418:16
#03412:0016
#03518:16
#03512:0016
#03618:16
#03612:0016
#03712:0016
#03718:16
#03818:1616
#03912:16
#03918:0016
#04012:1616
#04118:16
#04112:0016
#04110:41
#04218:16
#04212:0016
#04318:16
#04312:0016
#04418:16
#04412:0016
#04518:16
#04512:0016
#04618:1616
#04712:16
#04718:0016
#04812:16
#06012:0014
#06218:0014
#06414:0014
#07818:0014
#08014:0014
#08218:0014
#08518:0016
#08512:26
#0851f:21
#08612:16
#08618:0016
#08610:41
#08712:16
#08718:0016
#08812:16
#08818:0016
#08918:0016
#08912:16
#09012:1616
#09118:16
#09112:0016
#09218:1616
#09312:16
#09318:0016
#09412:16
#09418:0016
#09512:16
#09518:0016
#09612:16
#09618:0016
#09712:16
#09718:0016
#09812:1616
#09918:16
#09912:0016
#10018:16
#10112:0014
#10218:1414
#10312:14
#1031a:0014
#10414:1414
#10518:14
#10512:0014
#10510:41
#1061a:14
#10614:0014
#1071a:14
#10714:0014
#10818:14
#10812:0014
#1091a:1414
#11014:1414
#11118:1414
#11212:1414
#1131a:1414
#11414:14
#11418:0014
#11512:1414
#0691f:11
#0661a:0024
#0271a:34
#0261a:34
#03112:34
#03012:34
#01710:41
#05110:41
#0173a0:14
#0183a0:24
#019320:14
#020320:24
#021380:14
#022380:24
#023340:14
#024340:24
#025380:14
#0263a0:34
#0273a0:34
#0283a0:24
#029340:14
#030320:34
#031320:34
#032320:24
#048320:0016
#049320:26
#0513a0:1434
#0523a0:3424
#053320:1434
#054320:3424
#055380:1434
#056380:3424
#057340:1434
#058340:3424
#0593a0:1434
#0603a0:24
#061320:1434
#062320:24
#063380:1434
#064380:24
#065340:1434
#066340:24
#0663a0:0014
#0683a0:24
#069320:14
#070320:24
#0713a0:14
#0723a0:24
#073340:14
#074340:24
#075380:14
#076380:24
#077320:14
#078320:24
#079380:14
#080380:24
#081340:14
#082320:24
#083380:14
#083390:0034
#0843a0:24
#100380:0016
#101380:26
#116380:14003424
