This file was generated by Ched 2.7.0.0.
#TITLE ""
#ARTIST ""
#DESIGNER ""
#DIFFICULTY 0
#PLAYLEVEL
#SONGID ""
#WAVE ""
#WAVEOFFSET 0
#JACKET ""
#REQUEST "ticks_per_beat 480"
#00002: 4
#BPM01: 185
#00008: 01
#TIL00: ""
#VOLUME: ""
#HISPEED 00
#MEASUREHS 00
#0021b:13
#00215:130000000000130000000013
#00218:000000130000000013000000
#00212:00000013
#0031b:1313
#00318:001300001300
#00312:00130013
#00315:000000000013000000000000
#0041b:13000013
#00414:001300000000
#00419:00130000
#00416:13000013
#00412:0013
#00417:0013
#00512:1313
#0051b:001300001300
#00515:00130013
#00518:000000000013000000000013
#00615:00130000
#00612:1313
#00617:0013
#00616:0000000000000013
#0061b:000000001300000000000000000000000000000000130000
#0071b:130013
#00712:000000130013000000000013
#00717:0013
#00716:13000013
#00817:13
#0081b:001300130000
#00816:00130000
#00812:0013
#0091b:1313
#00912:23130000
#00917:0000000000130000
#00916:00000013
#01017:13
#01016:00130013
#01012:0000001300000000
#0101b:003300131300
#01019:000000000000000000000013
#01116:000000000013000000000000
#0111b:0013
#01114:130013
#01119:00000013
#01112:000000130000000000000013
#01117:001300000000
#01217:13
#0121b:000013000000000000130000
#01215:00130000
#01218:000000000013000000000000
#01212:0013
#01216:00000013
#01416:0000000000000013
#01417:0013
#0141b:1300000000000013
#01418:001300000000
#0151b:00130013
#01512:0000001300000013
#01516:0000000000130000
#01517:13
#01618:1323
#01615:0013000000000000
#0161b:00130013
#01612:0000001300000000
#00115:00000013
#00118:00131300
#00112:23131300
#0011b:23
#01715:13
#01712:00333333
#01710:41
#01812:13
#0181b:13
#01815:00333333
#01918:13
#0191b:00333333
#0201b:13
#02012:13
#02018:00333333
#0211b:00131313
#02115:13
#02212:00131313
#0221b:13
#02418:13
#02415:00131313
#02312:13
#02318:00131313
#02717:00000013
#02712:00000013
#0281b:0013
#02818:0000000000130013
#02815:00000013
#02912:1313
#02915:0000000000130013
#02918:00000013
#0301b:1313
#03018:0000000000130000
#03015:00000013
#03012:0000000000000013
#03118:1232323232323200
#03112:00130000
#03115:0000001300000000
#0331b:0013000000000013
#03315:23130023
#03312:0013
#03318:0000002300130000
#03310:41
#03512:0013000000001300
#03518:2300130000001313
#0351b:0013
#03515:0000002300130000
#03615:00130000
#03618:0000001300000000
#0361b:0013000000000000
#03612:00002413
#0361a:0000000000240000
#03712:0000131300001313
#03717:0000131300001313
#0371b:1300000000130000
#03815:0013130000001300
#0381b:00130000
#03812:0013
#03818:0000000013000013
#0431b:23130013
#04312:0000002300130000
#04316:00000013
#04315:0023000000000000
#04318:0023
#04416:00130013
#0441b:0000001300000000
#04412:0024
#0441a:0000000000240000
#0451b:00131313
#0451b:00130000
#04512:0000001300130013
#04518:0000000000130000
#04517:13
#04515:00130013
#04612:0013000013001300
#0461b:00130013
#04615:0000130000000013
#04618:0013
#04717:1313
#04712:1300000013001323
#0471b:0000130000001323
#04719:0013000000130000
#04716:00130000
#04714:0000001300000000
#04812:00131400
#0481b:00130000
#0481a:0014
#04816:00000014
#05016:00000000000000000000000000000000000000000000000000000000000000000000120000000012000000000000000022000000000000000000000000000000
#05018:00000000000000000000000000000000000000000000000000000000000000000000120000000012000000000000000022000000000000000000000000000000
#05019:00000000000000000000000000000000000000000000000000000000000000000000001200000000120000000000000000000000000000000000000000000000
#05015:00000000000000000000000000000000000000000000000000000000000000000000001200000000120000000000000000000000000000000000000000000000
#05116:001300000000000000000000
#05119:001300000000
#05114:00130000
#05117:000000001300003333133333
#05112:000000000013000000130000
#0511b:2313
#05110:41
#05312:130000001300000033133333
#0531b:001300000013000000000000
#05315:001300130000
#05318:00130000
#05317:00000013
#05217:001300000000000000000000
#05214:001300140000
#05219:00130000
#05216:001300
#0521b:000000000013000000000000
#05218:00000014
#05212:13
#05512:0000130000000013
#05518:23130000
#0551b:00001313
#05515:23
#05615:00130013
#05612:0013
#05618:0000000000130000
#0561b:0000000000000013
#05712:1313
#05718:1300001300130000
#0571b:00130013
#05715:00130000
#05818:00130000
#0581b:0013
#05916:0000001300000000
#05912:23000013
#06016:13000013
#0601b:1300000000001313
#06012:0000001313000000
#06017:0000001313000000
#06116:13
#0611b:0013000000001300
#06117:0000001300000000
#06217:13000013
#06212:130033
#0621b:0000001313000000
#06216:0000001313000000
#0631b:13230000
#06316:13130000
#06312:0013
#06317:0013
#06412:0000001300000000
#06418:0013
#06415:0000000000130000
#06516:13
#06512:0000001300000000
#06517:00130000
#0651b:0000000000130000
#06616:0012001200000000
#06618:00122600
#06912:16
#0691b:00130000
#06919:0013
#06917:00000013
#0691f:11
#06918:26
#07312:16
#0731b:0000131300000013
#07318:0000000000130000
#07216:00130013
#07212:0013
#0721b:13
#07214:0000000000130013
#0771b:00130000
#07717:0013
#07712:0013
#07812:00130000
#07816:0013
#0781b:0013
#0791b:13
#07912:00130000
#07918:0013
#07915:00000013
#08012:0013
#08015:0000000000130013
#08018:00000013
#0801b:0013
#0811b:1313
#08118:0000000000130013
#08115:00000013
#08112:0013
#08212:1313
#08215:0000000000130000
#08218:00000013
#0821b:0000000013000013
#08316:1232323232323200
#0831b:00130000
#08318:0000001300000000
#08514:0014000000000014
#0851a:00140000
#08518:0014
#08512:0000000000140000
#08517:24000024
#08515:0000002400000000
#0851f:21
#08718:0014000000000000
#08712:0000140000001313
#08714:0014
#0871a:0000000000140000
#08717:0000002400001313
#08715:24
#08818:00132600
#08815:0000001300000000
#0881b:0013000000001300
#08812:0000000000260000
#0891b:0000130000130013
#08912:1300001300001300
#08916:0000130000130000
#08917:0000001300001300
#0901b:0013000013000000
#09012:00130000
#09017:00130000
#09016:0013
#09018:00000013
#09015:0000000000000013
#09618:00130000
#09615:0000001300000000
#09617:00000013
#09616:14
#09612:0013000000240000
#0961a:0024
#09712:0000130000000013
#09718:0000001300130013
#09715:00001313
#09716:13
#0971b:00130013
#09812:0013000013001300
#09815:00130000
#09818:0000000013000013
#0981b:13130013
#09915:1300001300130000
#09918:0013000013000000
#0991a:0000000000001424
#09912:0000130000001424
#0991b:00130000
#1001a:00141400
#10012:00141400
#10016:00000014
#10116:00130000
#10117:00000013
#10112:2323
#1011b:2323
#10216:0013130000000000
#10217:0000000000131300
#1021b:0000001300000000
#10212:0000000000000013
#10312:00132300
#1031b:23000013
#10316:23
#10317:0023
#10412:0013130000000013
#1041b:0000001300131300
#1051b:1313
#10512:00001300000000000000003400003400
#10515:00130000
#10518:0000001300001300
#10510:41
#10615:00130000
#1061a:00000034000034000000000014000000
#10715:23130023
#1071b:0013000000000000
#10712:0013
#10718:0000002300130000
#1071a:0000000000000013
#10815:13002313
#10813:00130000
#10818:0023001300000013
#10819:0000000000130000
#10917:0000000013001313
#10915:23
#1091b:00230000
#11015:0000001300000000
#11018:00001313
#11012:0000000000130013
#11115:0013001313000000
#1111b:00131300
#11112:0000000000001313
#11118:0000000000000013
#1121b:0013000000001300
#11218:0000130000130000
#11215:0000001300001300
#11212:0000130013000013
#11316:0000130000000013
#1131b:2300000000001313
#11312:23
#11412:00130000
#1141b:0000001300131300
#11416:0000002300002300
#1151b:2300230000001313
#11516:0023000000000013
#11512:0000002300230000
#11517:0023
#11612:0013130000000000
#11617:00130000
#11616:0023
#07612:00131300
#07618:13
#07614:00000024
#0701b:13
#07014:0013
#07012:00000013
#07016:00130000
#07117:00130013
#0711b:0013
#07112:16
#07418:13
#07412:0013000000130000
#07415:0000001300000013
#07512:16
#0751b:0013130000000000
#03415:13
#03412:00132400
#03418:0023001300000000
#0341a:0000000000240000
#0411b:23130023
#04112:0000002300130000
#04115:0023000000000023
#04118:0023
#04110:41
#0421b:13
#04212:0023001300240000
#0421a:0024
#04218:00230000
#0861a:14
#08618:00142600
#08612:0000001400260000
#08615:0024000000000000
#08610:41
#09312:00140000
#0931a:0000000000140000
#09314:24000024
#09318:0000002400000000
#09316:0024000024000024
#09412:1424
#0941a:0000001400240000
#09418:0024000000000000
#09416:00240000
#09512:00140000
#0951a:0000000000141414
#09514:2400000000001414
#09518:0000002400000000
#09516:0024000024000000
#04018:0013000000000000
#0401b:00130023
#04016:00130023
#04014:0000001300000000
#04017:0023
#04012:0023
#04015:23
#03915:0013000000130000
#03918:00000013
#03912:00130013
#0391b:1300000013000013
#03917:00130000
#03919:0000001300000000
#0911b:13001313
#09117:00130000
#09112:13131300
#09119:0013001300000000
#09114:0000000000130013
#09116:00000013
#09216:00130023
#0921b:00130023
#09219:0013000000000000
#09214:0000001300000000
#09212:2323
#09217:2323
#01318:001300001300
#01312:13130013
#01315:000000000013000000000013
#0131b:0013
#0541b:1313
#05412:0013000000130000
#05418:00130000
#05415:0000001300000000
#02512:23
#0251b:23
#0321b:00230023
#03212:00230023
#03219:0023
#03214:0023
#0841b:00230023
#08412:00230023
#08414:0023
#08419:0023
#00255:53
#00258:00630000
#0075b:63
#00852:0063
#0085b:0053
#00855:00000013
#00858:00000013
#00952:00630000
#0095b:6363
#00957:0000000000230000
#00956:00000063
#01057:63
#01056:00630000
#01052:0000002300000000
#00158:0063
#00152:13
#0015b:13
#0165b:00000023
#01658:0053
#01755:53
#01758:13
#01958:63
#01955:13
#0205b:63
#02052:63
#01852:53
#0185b:53
#02155:53
#02158:13
#0225b:53
#02252:13
#02458:63
#02455:13
#02352:63
#02358:13
#0255b:13
#02552:13
#02757:00000053
#02752:00000063
#03158:62
#03155:0000000000000013
#0315c:0000000000000012
#0335b:0013000000000013
#03352:0013
#03552:0013000000000000
#0355b:0013
#03652:00003453
#0365a:0000000000440000
#03756:13
#03757:0000000000000053
#0375b:13
#04452:0034
#0445a:0000000000440000
#04456:00000053
#04552:13
#05056:00000000000000000000000000000000000000000000000000000000000000000000220000000022000000000000000012000000000000000000000000000000
#05058:00000000000000000000000000000000000000000000000000000000000000000000220000000022000000000000000012000000000000000000000000000000
#05055:00000000000000000000000000000000000000000000000000000000000000000000006200000000620000000000000000000000000000000000000000000000
#05059:00000000000000000000000000000000000000000000000000000000000000000000006200000000620000000000000000000000000000000000000000000000
#0515b:0053
#05157:00000023
#05254:0034
#05258:00000044
#05352:00000023
#05355:0053
#05555:13
#05558:13
#0555b:0013
#05652:0013
#05752:0013
#0585b:0013
#05952:13000013
#05956:0000001300000000
#06056:53
#0605b:53
#06156:13
#06157:0000001300000000
#0615b:00000013
#06257:63
#06252:63
#06356:00230000
#06352:0053
#06357:0053
#0635b:00230000
#06556:53
#06552:0000005300000000
#06952:56
#06958:16
#07352:66
#07757:0023
#07752:1623
#0775b:00630000
#07758:16
#07852:00530000
#07856:0023
#0785b:0023
#0795b:13
#07952:00130000
#07955:00000053
#07958:0053
#08356:52
#08358:0000000000000013
#08352:0000000000000012
#0815b:13
#08252:13
#08554:0014000000000014
#08558:0014
#08758:0014000000000000
#08754:0014
#08752:0000000000000053
#0885b:00000063
#08852:0000000000360000
#08858:0046
#09657:00000063
#0965a:0044
#09652:0000000000340000
#09656:24
#09452:0034
#0945a:0000000000440000
#09456:00140000
#08957:13
#0895b:0000000000000013
#0975b:13
#09758:0000000000000063
#09052:00130000
#09057:00130000
#0985b:23130000
#09855:00130000
#10052:00141400
#1005a:00141400
#10257:00000013
#10256:00130000
#10452:00130000
#1045b:00000013
#1075b:0013000000000000
#10752:0013
#1075a:0000000000000013
#10853:00130000
#10859:0000000000130000
#10957:0000000000000053
#10955:53
#1095b:00130000
#1115b:00136300
#11152:0000000000000013
#11158:0000000000000013
#11052:0000000000000013
#1135b:0000000000000053
#11657:00530000
#11656:00000013
#1165b:00000013
#01457:0013
#01452:0013
#00657:0013
#00652:0013
#00456:00000013
#0045b:00000013
#01256:00000013
#0125b:00000013
#06658:000000000000000000000016
#0705b:23
#0725b:23
#07152:66
#07458:23
#07552:56
#0755b:00630000
#10152:13
#1015b:0013
#10356:13
#10357:0013
#10558:00000013
#10555:00130000
#10655:00130000
#1065a:00000014
#03452:00133400
#0345a:0000000000440000
#04655:00130000
#08658:00144600
#08652:0000000000360000
#0425a:0044
#04252:0000000000340000
#04258:00130000
#0955a:0000000000000064
#09556:0014000014000000
#0385b:00130000
#0405b:00130013
#04052:0013
#03952:00130013
#09152:00130000
#0915b:00000013
#0925b:00130013
#09256:00000013
#09257:0013
#09252:0013
#1145b:00000013
#11456:00000013
#04155:0013000000000013
#04158:0013
#04355:0013000000000000
#04358:0013
#09356:0014000014000014
#07658:23
#04852:0014
#0485a:0014
#001380:0013
#0013b0:00000023
#002350:13
#002320:00230000
#002381:00130000
#0023b1:0023
#0073b1:13
#007371:00230000
#008321:000000000013330000000000
#008351:000000000000000053230000
#0083b0:0013
#008380:000000000000000053230000
#0093b0:13
#009370:00230000
#009321:00130000
#009361:0023
#0093b0:00001323
#009370:0000000000530000
#009361:00000013
#010321:23
#010370:13
#0103b0:000033230000000000000000
#010361:00132300
#010321:0000005300000000
#014321:00132300
#015321:13
#015361:00230000
#015371:0000001300000000
#0153b1:0000000000230000
#016381:0013
#0163b1:00000053
#017381:23
#017350:13
#017320:00333333
#018320:33
#018350:00333333
#019350:23
#0183b1:13
#019381:33
#0193b1:00333333
#0203b1:33
#020381:00333333
#021381:23
#020320:13
#021350:33
#022320:23
#0223b1:13
#023381:23
#023320:13
#024350:23
#024381:13
#0253b1:23
#025381:000000135353230000000000
#025391:000000000000005300530053000000000000000000000000
#025350:000000000000135353230000
#025340:000000000000000000000000005300530053000000000000
#0253b1:000000000000000000135353
#0253a1:000000000000000000000000000000000000005300530053
#0263b1:23
#026320:135353230000000000000000
#026330:005300530053000000000000000000000000000000000000
#026381:000000135353230000000000
#026371:000000000000005300530053000000000000000000000000
#026350:000000000000135353230000
#026360:000000000000000000000000005300530053000000000000
#0263b1:00000013
#027381:23
#027350:13
#027320:00230000
#027371:00130000
#0273b1:0023
#027360:0013
#027320:00000033
#028360:00230000
#027371:00000013
#0283b1:00230000
#0293b1:13230000
#030321:13230000
#031381:1232323232323200
#0313c1:0000000000000022
#031350:0000000000133323
#035320:0000000000000013
#036350:0023000000000000
#036320:00000013
#037360:23
#037370:0000000000000013
#0383b0:0023000000000000
#043320:0000000000000013
#044360:0023000000000000
#043371:0000000000000013
#0443b1:0023000000000000
#044361:00000013
#045321:23
#045381:0000000000000013
#046381:0023000000000000
#047321:0000000000000013
#048351:53
#048321:0023000000000000
#0473b0:0000000000000013
#048380:53
#0483b0:0023000000000000
#049360:120000000000000000000000520000520000520000000000000000000000000000000000000000000000000000000000520052005200520000000000520052005200000000000000000000000000000000000052005200520052005200520052
#049350:000000000000000000000000000000000000000000000000000000520000000000520000000000000000000000000000000000000000000000000000000000000000000000000000000000000000000000000000000000000000000000000000000000000000000000005200000000000000000000000000000000000000520000000000000000000000000000000000000000000000000000000000000000000000000000000000520000005200000052000000000000000000000000000000
#049330:000000000000000000000000000000000000000000000000000000000000000000000000000000000000000000000000005400000000000000000000000000000000000000000000000000000000000000000000000000000000000000005400
#049340:000000000000000000000000000000000000000000000000000000000000000000000000000000000000000000000000000000530000000000000000005300000000000000000000000000000000000000000000000000000000530053000000
#050320:5500000000000000000000000000000000000000000000000000000000000000000000000000000000000000000000000000000000550000005500000000000000000000000000000000000000000000000000000000000000000000000000000000000000000000000000000000000000000000000000000000000000000000
#050360:000052000000000000000000000000000000000000000000520000520000520000520000520000520000520000520000520000520000520000520000520000520000520000520000520000520000520000520000520000520000520000000000000000000000520000000000520000000000000000520000000000520000000000000000000000000000000000000000220000000000000000000000000000000000000000000000000000000000000000000000000000000000000000000000
#050340:0000000000000000000000000000000000530000005300000053000000530000005300000000005300000053000000530000005300000000000000000000000000000000000000000000000000000000000000000000000000000000000000000000000000000000000000000000000000000000000000000000000000000000
#050350:0000000000000000000000000000000000000052000000520000005200000052000000520000000000000000000000000000000000000000000000000000000000000000000052000000000000000000520000000000000000000000000000000000000000000000000000000000000000000000000000000000000000000000
#050330:0000000000000000000000000000000000000000000000000000000000000000000000000054000000540000005400000054000000000054000000540000000000000000000000000000000000000000000000000000000000000000000000000000000000000000000000000000000000000000000000000000000000000000
#049381:120000520000520000520000520000000000000000000000000000000000000000000000520052005200520052005200000000000000000000000000000000000000000000000000000000000000000000000000000000000000000000000000
#049391:000000520000000000520000000000520000000000520000000000000000000000000000000000000000000000000000000000000000000000000000000000000000000000000000000052000000520000000000000052000000520000000000000000000000000000000000000000000000000000000000000000000000000000000000000000000000000000000000000000000000000000000000000000000000000000000000000000000000000000000000000000000000000000000000
#050381:52525252525252525252525252525252525252525252525252525252525252000000520052000052005200000000000022000000000000000000000000000000
#050391:0052005200520052005200520052005200530052005300520053005200530052005300520054005300540053005400530054005300550054005500540000000000000000000052000000000000000000520000000000000000000000000000000000000000000000000000000000000000000000000000000000000000000000
#0513b1:0013
#051371:000000000000003333333333
#0523b1:23
#053351:0013
#053321:000000000000000033333333
#054351:23
#054381:00000013
#055381:23
#054350:0000000000000013
#055350:23
#055350:0000001300332300
#055380:0000000000000013
#056380:0023
#057350:00000013
#058350:0023
#058320:0000000000130023
#058371:0000000000000013
#059371:23
#0593b1:0000132300000000
#059371:0000000000132300
#0603b1:13
#060371:00230000
#060360:13
#060320:00230000
#061320:0000132300000000
#061360:0000000000132300
#062320:13
#062360:00230000
#062371:13
#0623b1:00230000
#062361:0013
#062321:000000000000000033230000
#063361:00130000
#063321:0033
#064361:00230000
#0633b0:00130000
#063370:0033
#0643b0:00230000
#0643b0:000000000000000000130033
#0653b0:23
#065361:13
#065321:00230000
#065321:0000001300000000
#065361:0000000000230000
#065321:00000013
#066321:23
#0653b0:0000000000000013
#0663b0:23
#066380:000000000000163636363626
#069320:16
#070320:23
#0703b1:13
#071381:26
#071320:16
#072320:23
#0723b1:13
#073381:26
#073320:16
#074350:23
#074381:13
#075381:26
#075320:16
#076350:23
#0753b1:00130000
#075381:00000023
#076381:13
#077381:26
#076340:00000014
#077320:26
#0773b0:00130023
#077370:0053
#077321:0013
#077361:00000023
#0783b1:13230000
#078320:00130023
#078360:0053
#0783b1:0013
#078371:00000023
#079381:0013
#0803b1:00230000
#079350:00000013
#080320:00230000
#081320:13230000
#0823b0:13230000
#083360:1232323232323200
#083320:0000000000000022
#083381:0000000000133323
#087321:0000000000000013
#088361:0023000000000000
#0883b1:00000013
#089371:23
#089361:0000000000000013
#090361:0023000000000000
#0953a1:0000000000000014
#096361:54
#0963a1:0024000000000000
#096371:00000013
#0973b1:23
#097381:0000000000000013
#0983b1:53
#098381:0023000000000000
#0993a1:0000000000000014
#100381:54
#1003a1:0024000000000000
#099320:0000000000000014
#100340:54
#100320:0024000000000000
#1013b0:13535353230000000000000000000000
#1013a0:0053005300530053000000000000000000000000000000000000000000000000
#101320:00000000000000001353535323000000
#101330:0000000000000000000000000000000000530053005300530000000000000000
#1023b0:13230000
#102320:00001323
#1033b0:13535353230000000000000000000000
#1033a0:0053005300530053000000000000000000000000000000000000000000000000
#103320:00000000000000001353535323000000
#103330:0000000000000000000000000000000000530053005300530000000000000000
#104380:13230000
#104350:00001323
#105320:00000000000000001400003400003400
#106350:24
#1063a1:14000034000034000000000000000000
#106371:0024
#106320:00000000000000001454545424000000
#106330:0000000000000000000000000000000000540054005400540000000000000000
#109350:13
#110320:00230000
#109371:0000000000000013
#1103b1:00230000
#1113b1:0013
#111381:00000023
#1133b1:00130000
#113371:0023
#113320:0013
#113360:00000023
#1133b0:0000000000000013
#114370:00230000
#114360:00000000000000000000000000000000000000000000000013000000005300003300005300000000230000000000000000000000000000000000000000000000
#114340:00000000000000000000000000000000000000000000000000000000000000540000000000000000000000000000000000000000000000000000000000000000
#114370:00000000000000000000000000000000000000000000000000000000000000000054000000000000000000000000000000000000000000000000000000000000
#116370:00130000
#1163b0:00003323
#116361:00001323
