This file was generated by Ched 2.7.0.0.
#TITLE ""
#ARTIST ""
#DESIGNER ""
#DIFFICULTY 0
#PLAYLEVEL
#SONGID ""
#WAVE ""
#WAVEOFFSET 0
#JACKET ""
#REQUEST "ticks_per_beat 480"
#00002: 4
#BPM01: 185
#00008: 01
#TIL00: ""
#VOLUME: ""
#HISPEED 00
#MEASUREHS 00
#00218:000013
#00215:130000000000000000130013
#00212:00130000
#00412:0013
#00415:00130013
#0041b:00130013
#00418:0013
#00612:1313
#0061b:0013
#00618:0000000000000013
#00615:003300000000
#00115:000000000000130000000033
#00112:00130013
#0011a:24
#02818:00001313
#02815:0000000000130013
#03018:00001313
#03015:0000000000130013
#03318:0013000000000013
#0331b:0013
#03312:24000024
#03314:0000002400000000
#03310:41
#03518:0000002400001300
#03515:0013000000000000
#03512:0013
#0351a:24
#03618:00130000
#03615:0000001300000000
#0361b:00000013
#0361a:0024
#03612:0000000000240000
#03712:0000130000000014
#0371b:0000001300000000
#03715:0000000000130000
#03718:00000013
#04812:0014
#0481a:0014
#0601b:13000013
#06012:0000001300000000
#06018:0013
#06015:0000000000000013
#06112:0013130000000000
#06115:0000000000130000
#0611b:23000023
#06118:0000002300000000
#06212:130033
#0621b:0000001300000000
#06215:0013
#06412:0000001300000000
#06418:0013
#06415:0000000000130000
#06918:00130013
#06915:0013
#0691f:11
#06912:24
#07912:13
#0791b:00130000
#08215:0000000000130000
#08218:00000013
#08212:0000000000000013
#0821b:0013
#1051b:13
#10512:0013000000000000
#10518:00130000
#10515:0000001300000000
#1051a:00000000000000001400003400003400
#10510:41
#10915:0000000013000013
#10918:23000013
#11018:0000001300130000
#11015:0013
#11218:0013001300130013
#11215:00131313
#1151b:0000002300230013
#11512:23230013
#11518:0023000000000000
#11515:0023
#11612:0013130000000000
#11617:0013130000000000
#11616:0023
#00318:130000000033130000000033
#0031b:000033130000000033130000
#0051b:0013
#00512:130033333333000000000000
#00518:130000000000003333333333
#00715:13
#00718:0013
#0071b:000033
#00812:13
#0081b:0013
#00815:003300000000
#00912:13
#00915:00130000
#0091b:00000013
#01018:130000000000000000130013
#01015:000013
#0101b:003300000000
#01218:000000000013000000130000
#01212:00001313
#0121b:001300000000
#01215:00130000
#01115:130000000033130000000033
#01112:000033130000000033130000
#0141b:1313
#01412:0013
#01415:0000000000000013
#01418:003300000000
#01518:13
#0151b:00000013
#01515:0000001300000013
#01618:13132300
#01615:0013001300000000
#01712:00130000
#01718:0013
#01715:00000013
#01710:41
#0181b:13
#01818:00130000
#01815:0013
#01812:00000013
#01918:13
#01915:00130000
#0191b:0013
#01912:00000013
#02018:00001313
#02015:0000000000130013
#02115:0000001300000013
#02112:0000000000130000
#02212:0013000000000000
#0221b:0000000000130000
#02218:0000000000000013
#02312:00130000
#02316:0000000000130000
#0241b:00130000
#02415:0013
#02418:00000013
#02612:00000013
#02715:13000013
#0271b:00130000
#02718:0013
#02915:00001313
#02918:0000000000130013
#0311b:1300001300000000
#03115:00130000
#03112:0000000000130013
#03118:00000013
#0341b:00130000
#03412:0024
#0341a:0000000000240000
#03414:0024000000000000
#0381a:0014
#03812:00000013
#03818:0000000000000013
#04315:00000013
#04312:24
#04314:0000002400000000
#04318:0023000000000000
#0431b:0023
#04415:00130000
#04418:0000001300000000
#04412:00002413
#0441a:0000000000240000
#03915:0013001300000000
#0391b:13130000
#03918:00001313
#03912:0000000000130013
#0401b:00130000
#04015:0000001300000000
#0401a:0024
#04012:00000024
#0451b:00130013
#04515:0000001300000014
#04518:0013
#04512:0000000000130000
#0461a:0014
#04612:00000013
#04618:0000000000000013
#0471b:0013001300000023
#04715:13130013
#04712:0000000013000023
#04718:0000000000130000
#05115:00130013
#05118:0013
#05112:13
#0511b:23
#05110:41
#0521b:13
#05212:13
#05218:00130013
#05215:0013
#0531b:13
#05315:00130000
#05318:0013
#05312:13000013
#0541b:1313
#05412:0013000000130000
#05418:00130013
#05415:0000001300000013
#0551b:13000013
#05512:0000001300000013
#05812:00131300
#0581b:0000000000130013
#05815:00000013
#0591b:00130000
#05918:0000000000130000
#05912:23000023
#05915:0000002300000000
#06312:00130000
#06316:13000013
#0631b:13000013
#06317:00230000
#0651b:1300000000330000
#06512:1300000000330000
#06515:0000331300000000
#06518:0000331300000000
#06614:00140000
#06618:0024
#07012:13
#07015:00130013
#07018:0013
#0711b:13000013
#07118:00130000
#07115:0013
#07215:00001313
#07218:0000000000130013
#07317:0000001300000013
#0731b:0000000000130000
#0741b:0013000000000000
#07412:0000000000130000
#07416:0000000000000013
#0751b:00130000
#07517:0000000000130000
#07612:00130000
#0761b:0013
#07615:00000023
#07618:00000023
#0771b:00130013
#07712:0013
#07715:00130013
#07718:0013
#07818:13000013
#0781b:00130000
#07812:13
#07815:0013
#0801b:0013
#08015:1300000000130000
#08018:13000013
#08012:0000000000000013
#08112:0013
#08118:0000000000130000
#08115:00000013
#0811b:0000000000000013
#08315:0000001300000000
#08318:0000000000130013
#08312:00000013
#01312:0013
#0131b:130033333333000000000000
#01315:130000000000000033330033
#05615:00130000000000000000000000000000
#05618:00001313
#05612:0000000000130013
#0571b:13000013
#05712:0000001300000000
#08515:0014000000000014
#08512:0014
#0851a:24000024
#08518:0000002400000000
#0851f:21
#08715:00000013
#08717:0014000000000000
#0871a:0014
#08712:24
#08714:0000002400000000
#08815:00130000
#08818:0000001300000000
#08812:00002413
#0881a:0000000000240000
#0891b:00130000
#08915:0000001300001300
#08918:0000000000130000
#0891a:0000000000000014
#08612:0000140000240000
#0861a:0024
#08618:0024000000000000
#08610:41
#09012:0014
#0901b:00000013
#09015:0000000000000013
#09518:0000002400001300
#0951a:24
#09515:0024000000000000
#09512:0024
#09618:00130000
#09615:0000001300000000
#0961b:00000013
#0961a:0024
#09612:0000000000240000
#09118:0013000000130000
#09115:00130013
#09112:1313
#0911b:0000001300000013
#09215:00130000
#09218:0000001300000000
#09212:0024
#0921a:00000024
#09712:00130013
#09718:0000001300000000
#09715:0013
#0971b:0000000000130000
#09717:0000000000000014
#09812:0014
#0981b:00000013
#09815:0000000000000013
#09912:0013001300000023
#09918:13130013
#0991b:0000000013000023
#09915:0000000000130000
#10012:0014
#1001a:0014
#10015:00000023
#10018:00000023
#1021b:13000013
#10215:0013000000130000
#10218:00131300
#10212:0000001300000000
#10412:13000013
#10418:0013000000130000
#10415:00131300
#1041b:0000001300000000
#10612:14000034000034000000000000000000
#1071b:23130023
#10715:0013000000000000
#10718:0013
#10712:0000002300130000
#10716:0000000000000013
#1081b:13
#10817:00130000
#10812:0023001300000000
#10815:0000000000130013
#10818:00002313
#1131b:23130000
#11317:0013
#11316:0000000000000013
#11312:23
#11118:0013001300000000
#11115:00131300
#11416:0000002400000000
#1011b:23
#10112:0023
#10116:23
#10117:0023
#02512:24
#0321a:00240024
#03212:0024
#0411a:24000024
#04118:0000002400000000
#04115:0023000000000023
#04112:0023
#04110:41
#0421a:0024
#04212:0000230000240000
#04218:0024000000000000
#05015:00000023
#05018:00000023
#08412:00240024
#0841a:0024
#09312:24000024
#09314:0000002400000000
#09317:0024000000000024
#0931a:0024
#09412:0024
#0941a:0000240000240000
#09414:0024000000000000
#10312:23
#1031b:0023
#10317:23
#10316:0023
#00155:0063
#0015a:14
#00152:00630063
#03358:0013000000000013
#0335b:0013
#0365a:0044
#03652:0000000000340000
#0365b:00000053
#03757:13
#03752:0000000000000064
#04852:0054
#0485a:0054
#0605b:53
#06252:63
#06255:0063
#06952:14
#07752:14
#0775a:14
#07655:00000023
#07658:00000023
#07952:13
#0795b:00130000
#11656:00000013
#1165b:00000013
#11456:00000014
#00455:00000013
#0045b:00000013
#03452:0034
#0345a:0000000000440000
#0345b:00130000
#00255:63
#00252:00630000
#00358:5353
#0035b:00530053
#0055b:0063
#00552:63
#00652:63
#00755:63
#00758:0063
#00852:63
#0085b:0053
#00857:00000013
#00952:53
#00955:00530000
#0095b:00000063
#01058:63
#01258:00000013
#01252:00000013
#01155:6363
#01152:00630063
#01558:53
#01555:0000006300000000
#02055:13
#01952:00000053
#02256:0000001300000000
#02252:0063000000000000
#0225b:0000000000630000
#02258:0000000000000063
#02155:0000006300000063
#02152:0000000000630000
#02352:00630000
#02356:0000000000230000
#02552:14
#02755:00000063
#03152:0000000000000013
#03555:0013000000000000
#03552:0013
#03855:00140000
#04452:00003453
#0445a:0000000000440000
#0425a:0044
#04252:0000130000340000
#04556:13
#04555:0000000000000054
#03952:0000000000000053
#0405a:0014
#04052:00000014
#04155:0013000000000013
#04152:0013
#04358:0013000000000000
#0435b:0013
#04652:00140000
#05058:00000013
#05055:00000013
#0555b:53
#05552:0000006300000053
#05852:0013
#06356:00000023
#0635b:00000023
#06352:00530000
#06357:00530000
#0655b:63
#06552:63
#06555:0000002300000000
#06558:0000002300000000
#06658:000000000000000000000014
#0715b:00000063
#07258:13
#07357:0000005300000053
#0735b:0000000000530000
#0745b:0053000000000000
#07452:0000000000530000
#07456:0000000000000053
#07457:0000001300000000
#0755b:00530000
#07557:0000000000230000
#08358:0000000000000013
#01352:0053
#0135b:53
#05655:00230000000000000000000000000000
#05658:0013
#0575b:53000063
#05752:0000006300000000
#08055:63
#08058:63
#08555:0014000000000014
#08552:0014
#08652:0000140000340000
#0865a:0044
#08757:0014000000000000
#0875a:0014
#0895a:0000000000000054
#08956:13
#0915b:0000000000000063
#09757:1300000000000064
#08852:00003463
#0885a:0000000000440000
#0965b:00000063
#0965a:0044
#09652:0000000000340000
#09452:0034
#0945a:0000140000440000
#09252:0014
#0925a:00000014
#09357:0014000000000014
#0935a:0014
#09555:0014000000000000
#09552:0014
#09057:00140000
#0985a:00140000
#10052:0054
#10055:00000013
#1005a:0064
#10058:00000013
#1055a:0054
#10652:54
#10655:0014
#10958:63
#1095b:00130000
#10955:0000000000000063
#1135b:00530000
#11357:0053
#11356:0000000000000063
#0145b:53
#0175b:13
#01658:0053
#1105b:0000000000000013
#11058:0000000000630000
#11155:0053
#11152:0000000000000013
#001320:00130033
#001350:000000000000330000000033
#002350:3323
#002320:00330000
#003380:130000000033330000000033
#0033b0:000033330000000033330000
#004380:23
#005320:130033333333000000000000
#005350:0023
#0053b1:0013
#005381:000000000000003333333333
#006381:23
#006320:13
#006350:000033230000000000000000
#007350:13
#007320:00230000
#007380:0013
#0073b0:000000000000000033230000
#008320:13
#008350:000033230000000000000000
#0083b0:0013
#008370:00000023
#009320:1323
#009350:00330000
#0093b0:00000013
#010380:33
#0103b0:000033230000000000000000
#011350:130000000033330000000033
#011320:000033330000000033330000
#012350:23
#0133b0:130033333333000000000000
#013380:0023
#013321:0013
#013351:000000000000000033330033
#014351:23
#0143b0:13
#014380:000033230000000000000000
#015380:13
#0153b0:00230000
#015350:0000001300000000
#015320:0000000000230000
#016380:0013
#0173b0:23
#019320:00000013
#020350:23
#021380:13
#0213b0:00230000
#021350:0000001300000033
#021320:0000000000330000
#022320:0033000000000000
#022360:0000002300000000
#0223b0:0000000000130000
#022380:0000000000000033
#0233b0:0023000000000000
#023320:00130000
#023360:0000000000530000
#024320:23
#025350:000000135353230000000000
#025340:000000000000005300530053000000000000000000000000
#0253b1:000000135353230000000000
#0253a1:000000000000005300530053000000000000000000000000
#025321:000000000000000000135353
#025331:000000000000000000000000000000000000005300530053
#026321:23
#025380:000000000000000000135353
#025390:000000000000000000000000000000000000005300530053
#026380:23
#026350:000000135353230000000000
#026340:000000000000005300530053000000000000000000000000
#0263b1:000000135353230000000000
#0263a1:000000000000005300530053000000000000000000000000
#027351:00000013
#028321:23
#0293b1:13230000
#030321:13230000
#035321:0000000000000013
#036351:0023000000000000
#0363b1:00000013
#037371:23
#037321:0000000000000014
#038351:0034240000000000
#039321:0000000000000013
#040351:0023000000000000
#0433b1:0000000000000013
#044381:0023000000000000
#044321:00000013
#045361:23
#045351:0000000000000014
#046321:0034240000000000
#047321:0000000000000013
#048351:00530000000000000000000000000000
#048341:0033000000000000
#048321:00230000
#0473b0:0000000000000013
#048380:00530000000000000000000000000000
#048390:0033000000000000
#0483b0:00230000
#048320:0014
#048350:00000053
#049350:00000000000000000000000000000000000000000000000053005300530053000000000000000053005300530053000000000000000000005300530053000000
#049340:00000000000000000000000000000000000000000000000000540054005400000000000000000000540054005400000000000000000000000054005400000000
#050350:00530053005300000053005300530053000053005300530000000000000053000000000000000000000000000000000023000000000000000000000000000000
#050360:0052520000525252520000000000000000000000000000000000000000000000
#050340:00000000000000000000000000000000005400540054000054005400540000000000000000000000000000000000000000000000000000000000000000000000
#050330:00000000000000000000000000000000000000000000005500550055000000000000000000000000000000000000000000000000000000000000000000000000
#050320:00000000000000000000000000000000000000000000000000000000005600000000000000000000000000000000000000000000000000000000000000000000
#0483a1:0014
#048381:00000053
#049381:53545354535453000000000000000000000000000000000000000000000000535453545354530000000000000000000000000000000000005354535453000000
#050381:00535253525300000053525352535253525453545354535554555456545653000000000000000000000000000000000023000000000000000000000000000000
#0553b1:13
#055381:00230000
#055321:0000001300000000
#055351:0000000000230000
#055321:0000000000000013
#056351:00530000000000000000000000000000
#056321:00230000
#0573b1:13
#057381:00230000
#057321:0000001300000000
#057351:0000000000230000
#0573b1:00000013
#058371:00230000
#0603b1:13
#060381:00230000
#062321:13
#062351:00230000
#062351:0013
#062321:000000000000000033230000
#063321:00130000
#063361:00000053
#064321:00230000
#063370:00130000
#0633b0:00000053
#064370:00230000
#0643b0:000000000000000000130033
#0653b0:3300000000333300
#065380:0000333300000000
#0663b0:23
#065321:1300000000333300
#065351:0000333300000000
#066321:23
#066381:000000000000143434343424
#0713b1:00000013
#072381:23
#073351:13
#073321:00230000
#073371:0000001300000033
#0733b1:0000000000330000
#0743b1:0033000000000000
#074371:0000002300000000
#074321:0000000000130000
#074361:0000000000000033
#075321:0023000000000000
#0753b1:00130000
#075371:0000000000530000
#0763b1:23
#076351:00000013
#077321:24
#076380:00000013
#0773a0:24
#079350:0013
#080350:33
#080320:00230000
#079381:00000013
#080381:33
#0803b1:00230000
#0813b1:13230000
#082321:13230000
#0833b1:13230000
#0873b1:0000000000000013
#088381:0023000000000000
#088321:00000013
#089361:23
#0893a1:0000000000000014
#090371:0034240000000000
#0913b1:0000000000000013
#092381:0023000000000000
#095321:0000000000000013
#096351:0023000000000000
#0963b1:00000013
#097371:23
#097371:0000000000000014
#0983a1:0034240000000000
#0993b1:0000000000000013
#100381:00530000000000000000000000000000
#100391:0033000000000000
#1003b1:00230000
#099320:0000000000000013
#100350:00530000000000000000000000000000
#100340:0033000000000000
#100320:00230000
#100320:0014
#100350:00000023
#1003a1:0014
#100381:00000023
#1013b1:13535353230000000000000000000000
#1013a1:0053005300530053000000000000000000000000000000000000000000000000
#101360:13535353230000000000000000000000
#101350:0053005300530053000000000000000000000000000000000000000000000000
#101320:00000000000000001353535323000000
#101330:0000000000000000000000000000000000530053005300530000000000000000
#101371:00000000000000001353535323000000
#101381:0000000000000000000000000000000000530053005300530000000000000000
#103321:13535353230000000000000000000000
#103331:0053005300530053000000000000000000000000000000000000000000000000
#103370:13535353230000000000000000000000
#103380:0053005300530053000000000000000000000000000000000000000000000000
#1033b0:00000000000000001353535323000000
#1033a0:0000000000000000000000000000000000530053005300530000000000000000
#103361:00000000000000001353535323000000
#103351:0000000000000000000000000000000000530053005300530000000000000000
#1053a1:00000000000000001400003400003400
#106371:24
#106320:14000034000034000000000000000000
#106350:0024
#109380:13
#1093b0:00230000
#109350:0000000000000013
#110320:00230000
#110380:0000000000130000
#1103b0:0000000000000023
#111350:0013
#111320:0000000000003323
#1133b0:00130023
#113370:0033
#113360:0000000000000013
#114320:00230000
#114360:00000000000000000000000000000000000000000000000014000000005400000000005400000000340000000000000024000000000000000000000000000000
#114340:00000000000000000000000000000000000000000000000000000000000000550000000000000000000000000000000000000000000000000000000000000000
#114370:00000000000000000000000000000000000000000000000000000000000000000055000000000000000000000000000000000000000000000000000000000000
#116360:00001323
#1163b1:00001323
