This file was generated by Ched 2.7.0.0.
#TITLE ""
#ARTIST ""
#DESIGNER ""
#DIFFICULTY 0
#PLAYLEVEL
#SONGID ""
#WAVE ""
#WAVEOFFSET 0
#JACKET ""
#REQUEST "ticks_per_beat 480"
#00002: 4
#BPM01: 185
#00008: 01
#TIL00: ""
#VOLUME: ""
#HISPEED 00
#MEASUREHS 00
#0011a:14
#00114:0014
#00218:14
#00212:0014
#0031a:14
#00314:0014
#00418:14
#00412:0014
#0051a:14
#00514:0014
#0061a:1414
#00614:00140000
#00712:14
#00718:0014
#00812:14
#00818:00140000
#00814:0014
#0081a:00000014
#00912:14
#00918:0014
#01014:14
#0101a:0014
#01112:14
#01118:0014
#01214:14
#0121a:0014
#01312:14
#01318:0014
#01412:1414
#01418:00140000
#0151a:14
#01514:0014
#0161a:14
#01614:00140000
#02514:0014
#02618:14
#02612:0014
#0271a:14
#02714:0014
#02818:14
#02812:0014
#03118:1414
#03114:00140014
#03318:00140014
#03312:2414
#03310:41
#03412:1424
#03418:00140000
#03514:00140014
#0351a:1414
#0361a:1424
#03614:00140000
#03712:14
#03718:00140000
#03714:0014
#0371a:00000014
#03814:14
#03818:00140000
#03812:0014
#03914:00140000
#0391a:14001414
#04012:14001414
#04018:00140000
#04114:00140014
#0411a:1414
#04110:41
#0421a:1424
#04214:00140000
#04318:00140014
#04312:1414
#04412:1424
#04418:00140000
#0451a:14
#04514:00140000
#04518:0014
#04512:00000014
#04618:14
#04614:00140000
#0461a:0014
#04718:00140000
#04712:14001414
#0481a:14
#04814:00140000
#06018:0014
#06014:00140000
#0601a:14
#06012:00000014
#06214:00001414
#06218:00140000
#06212:14
#06416:0014
#06512:14
#06514:0014
#0771a:0014
#07814:14
#07818:0014
#07912:14
#07918:0014
#08014:14
#0801a:0014
#08314:1414
#08318:00140014
#06912:14
#0691f:11
#08514:00140000
#08518:0014
#08512:00000014
#0851a:24
#0851f:21
#0861a:14
#08614:00140000
#08618:0024
#08610:41
#08718:00140000
#08714:0014
#0871a:00000014
#08712:14
#08812:1424
#08818:00140000
#0891a:14
#08914:00140000
#08918:0014
#08912:00000014
#0901a:14
#09016:00140000
#09012:0014
#09118:14
#09114:00140000
#0911a:0014
#09112:00000014
#09218:14
#09214:00140000
#0921a:00001414
#09318:00140000
#09314:0014
#0931a:00000014
#09312:24
#09412:14
#09418:00140000
#09414:0024
#09514:00140000
#09518:0014
#09512:00000014
#0951a:14
#0961a:14
#09614:00140000
#09618:0024
#09712:14
#09718:00140000
#09714:0014
#0971a:00000014
#09812:14
#09816:00140000
#0981a:0014
#09912:14
#09918:00140000
#09914:0014
#0991a:00000014
#10012:14
#10018:00140000
#1011a:0014
#10212:14
#10218:00140000
#10214:00001414
#1031a:14
#10312:0014
#1041a:14
#10414:00140000
#10418:00001414
#10512:1414
#1051a:00140014
#10510:41
#10614:14
#10618:00140000
#10718:0014
#10812:14
#1081a:0014
#10918:00140000
#10912:0014
#1091a:00000014
#10914:24
#11114:00140000
#1111a:0014
#11112:00000014
#11118:14
#11312:14
#11318:00140000
#11314:0014
#1131a:00000014
#1151a:14
#11514:00140000
#11518:0014
#11512:00000014
#05912:14
#0611a:14
#0631a:14
#06318:0014
#06618:0024
#1161a:00000024
#0321a:24
#08412:24
#01710:41
#05110:41
#0175a:14
#01952:14
#02158:14
#02354:14
#0255a:14
#04958:14
#05954:0014
#05952:64
#06158:0014
#0615a:54
#06552:64
#06554:0024
#07158:14
#07352:14
#0755a:14
#07754:14
#06952:14
#10154:14
#1015a:0014
#1035a:14
#10352:0014
#03852:0014
#0465a:0014
#09052:0014
#0985a:0014
#10754:14
#10758:0014
#10852:14
#1085a:0014
#11054:0014
#11258:0014
#11452:0014
#1165a:00000014
#08658:0014
#09454:0014
#03452:0014
#0425a:0014
#0325a:14
#0365a:0014
#04452:0014
#0635a:54
#06358:0024
#08452:14
#08852:0014
#09658:0014
#0163a0:0014
#0173a0:24
#018320:14
#019320:24
#020380:14
#021380:24
#022340:14
#023340:24
#0243a0:14
#0253a0:24
#0293a0:1424
#030320:1424
#0483a0:0014
#049380:24
#051320:14
#051340:0034
#052340:34
#052320:0024
#0533a0:14
#053380:0034
#054380:34
#0543a0:0024
#055340:14
#055320:0034
#056320:34
#056340:0024
#057380:14
#0573a0:0034
#0583a0:34
#058380:0024
#059320:14
#059340:0024
#0613a0:14
#061380:0024
#0633a0:14
#063380:0034
#0643a0:24
#065320:14
#065340:0034
#066320:24
#066380:00001434
#068380:24
#0703a0:14
#071380:24
#072340:14
#073320:24
#074380:14
#0753a0:24
#076320:14
#077340:24
#081320:1424
#0823a0:1424
#100320:0014
#101340:24
#106340:0014
#107340:24
#110340:1424
#112380:1424
#114320:1424
#1163a0:14003424
