This file was generated by Ched 2.7.0.0.
#TITLE ""
#ARTIST ""
#DESIGNER ""
#DIFFICULTY 0
#PLAYLEVEL
#SONGID ""
#WAVE ""
#WAVEOFFSET 0
#JACKET ""
#REQUEST "ticks_per_beat 480"
#00002: 4
#BPM01: 180
#00008: 01
#TIL00: ""
#VOLUME: ""
#HISPEED 00
#MEASUREHS 00
#01214:0014
#0131a:0014
#01414:0014
#01518:0014
#01612:0014
#01718:0014
#01812:0014
#0191a:0014
#0201a:0014
#02114:0014
#02110:0041
#02214:0014
#02318:0014
#02418:0014
#02512:0014
#02612:0014
#0271a:0014
#02814:0014
#02918:0014
#03012:0014
#0311a:0014
#03110:0041
#03214:0014
#03318:0014
#03412:0014
#05312:16
#05318:0016
#05310:41
#05412:16
#05418:0016
#05612:1616
#05718:1616
#05812:16
#05818:0016
#05912:16
#05918:0016
#06012:1626
#06118:1616
#06212:16
#06218:0016
#06312:16
#06318:0016
#05518:0016
#05512:16
#06612:16
#06618:0016
#06712:16
#06718:0016
#06812:16
#07012:0014
#0711a:0014
#07214:0014
#07318:0014
#07412:0014
#0751a:0014
#0431f:0011
#0111a:0024
#01110:0041
#05118:0024
#05214:24
#05218:0026
#0521f:0021
#04110:0041
#06510:0041
#001320:14
#002320:24
#0033a0:14
#0043a0:24
#005340:14
#006340:24
#007380:14
#008380:24
#009330:14
#011320:26
#0353a0:0014
#036380:0024
#037340:0014
#038320:0024
#039380:0014
#0403a0:0024
#041320:0014
#042340:0024
#043380:0014
#0443a0:0034
#0453a0:0034
#046380:0024
#047340:0014
#048320:0034
#049320:0034
#050340:0024
#064320:1626
#065380:1626
#068380:0016
#069380:0026
#077320:0014
#079340:54
#080320:54
#081340:0024
