This file was generated by Ched 2.7.0.0.
#TITLE ""
#ARTIST ""
#DESIGNER ""
#DIFFICULTY 0
#PLAYLEVEL
#SONGID ""
#WAVE ""
#WAVEOFFSET 0
#JACKET ""
#REQUEST "ticks_per_beat 480"
#00002: 4
#BPM01: 180
#00008: 01
#TIL00: ""
#VOLUME: ""
#HISPEED 00
#MEASUREHS 00
#0011b:13
#00112:13
#00116:0013000000000000
#0021b:13
#00212:13
#00216:0013000000000000
#0031b:13
#00312:13
#00316:0013000000000000
#0041b:13
#00412:13
#00416:0013000000000000
#00612:13
#0061b:13
#00617:0013000000000000
#00712:13
#0071b:13
#00717:0013000000000000
#00812:13
#0081b:13
#00817:0013000000000000
#01912:00130000
#01918:0000001300000013
#01915:00001313
#0191b:2300000000130000
#02012:13
#02015:0013000013000000
#02018:00130000
#0201b:0000001300000000
#0211b:00130000
#02115:0000001300000013
#02118:00001313
#02112:0000000000130000
#02110:0041
#0221b:13
#02218:0013000013000000
#02215:00130000
#02212:0000001300000000
#02416:0013
#02415:00130013
#02412:0013000000000000
#02418:0000001300000000
#0241a:00000013
#0241b:0013
#02514:13
#02513:00130000
#0251b:0000000000001313
#02519:13
#02518:00130000
#02517:0013
#02712:00000014
#0271b:0000000023130000
#02812:00140014
#02818:1313000000001300
#02815:0013
#0281b:0023
#03315:0013000000000013
#03318:1313
#0331b:00000013
#0331a:00140000
#03312:00132323
#03418:0013000000130000
#03415:0000001300001300
#0341b:1300130013000013
#03416:00000000000000000000000000000013
#03412:23232300
#04518:12
#04416:12
#04616:12
#04718:12
#04918:0000000000000014
#0491a:0024
#04915:00000024
#05019:0014000000000000
#0501a:0000001400000000
#05018:0000000000131313
#05015:00000000000000000000001300130013
#05014:24
#05013:00240000
#05012:0024
#05416:0000001300001300
#0541b:00001313
#05417:13
#05414:0013000000000000
#05419:00130000
#05412:0014
#05519:13
#05514:13
#05512:00131300
#05517:00130000
#0551a:0014
#0551b:00000013
#0561b:1313
#05619:0013001300000000
#05617:00130000
#05616:1313
#05612:00130013
#05717:1313
#05714:0013001300000000
#0571b:00130013
#05716:00230000
#05712:2323
#0581b:1313
#05819:0013001300000000
#05817:00130013
#05816:1313
#05812:00130000
#0051b:13
#00517:0013000000000000
#0091b:13
#00912:13
#04218:0000000000001313
#04215:00000000130000000000000000130013
#04217:13
#0421b:00130000
#04212:0013
#05316:13000013
#05319:0013000000000000
#05314:00130000
#05317:0000001300000000
#05312:0013
#0531b:00000013
#0531a:0014
#05310:41
#05212:2424000024001300
#0521b:0013
#05217:00000013
#0521a:2424000000000000
#0521f:0021
#06415:0013001300000000
#06413:00130000
#06417:1313
#06412:00001324
#0641a:00240000
#06518:0013001300000000
#0651a:00130024
#06516:1313
#0651b:0013
#06512:00240000
#06510:0041
#06115:1313
#0611b:00130000
#06118:0013001300000000
#06112:00240013
#0611a:00000024
#0601b:00000013
#06014:00000014001400140000000000000000
#06018:0014141424000000
#06012:23000024
#02618:0013001300000000
#02615:00130000
#02612:0024
#0261a:0024
#07418:0013001300001300
#0741b:13131300
#07415:00132300
#07412:13000023
#01016:0000001200000000
#01018:0000001200000000
#01218:0013000023000000
#01215:00130000
#0121b:0000001300000000
#01212:1313
#0131b:13
#01315:0013000000000000
#01318:00130024
#01312:0000001300000000
#0131a:0024
#0111b:0013
#01115:0023
#01110:0041
#01512:0000001300000000
#01518:0013000013000000
#0151b:13
#01515:00132300
#0351b:1300001313000000
#03512:0013130026000000
#03517:00000013000000000000000000000000
#06317:00130000
#0631b:1313
#06316:1313
#06312:00240013
#0631a:00000024
#06218:1313
#06215:0013001300000000
#06212:00130024
#06217:00000013
#0621a:00240000
#0591b:00000013
#05916:1313
#05917:00130000
#06615:0013000013001300
#06618:13131300
#0661b:0000001300130000
#06612:0000240000000013
#02915:13
#02918:0013000000000000
#02912:0000140023130000
#0291b:00130000
#0291a:00000014
#0301a:00140014
#03015:1313000000001300
#03018:0013
#03012:0023
#03118:13
#03115:0013000023000000
#0311a:00140000
#03112:00130014
#0311b:00001313
#03110:0041
#03212:00141313
#03215:13
#03218:0013000023000000
#0321b:00130000
#0321a:00000014
#01715:00132300
#01712:0000001300002300
#01718:0013000000001300
#0171b:1313
#07516:13
#07514:00130000
#0751b:23000013
#07512:0000000013000023
#07519:00230000
#07517:0023
#07617:13
#07612:23
#07616:0000002400000000
#0761b:00000000333300000000000000000000
#0761a:00000033000000000000000000000000
#07619:0033000000000000
#07618:00330000000000000000000000000000
#0161b:0000001300000000
#01615:0013000013000000
#01612:13
#01618:00132300
#01816:13
#01814:00130000
#01812:0013
#0181b:2300000000000023
#01819:00230000
#01817:0023
#03617:13130000
#03619:0000001300000000
#03712:13130013
#0371b:0013
#03717:13000013
#03818:0000130000000013
#03816:13
#03812:00130000
#0381b:0013
#03815:00000013
#04016:13130000
#04014:0000001300000000
#03912:1313
#0391b:00130000
#0411b:13130013
#04112:0013
#04116:13000013
#04110:0041
#0691b:13
#06912:00130000000000000000000000000000
#06715:00130013
#06712:0000001300000000
#0671b:0013000000130000
#06718:1313
#0701b:13
#07015:0013001300000000
#07012:1323
#07018:00130024
#0701a:0024
#07218:0013001300000000
#07212:13000013
#0721b:13131300
#07215:00132300
#07219:0000000000330000
#07315:0013001300000000
#0731b:13000013
#07312:13131300
#07318:00132300
#07314:0000000000330000
#0431f:0011
#04314:00000000003300000000000000000000
#04313:0000003300000000
#04312:00000000000000330000000000000000
#04318:00000033000000000000000000000000
#04319:0033000000000000
#0431a:00330000000000000000000000000000
#02312:00230000
#02318:0023
#02315:0000002300000000
#05116:0024
#0511a:0033000000240000
#05112:00000000000000330000240000000000
#0511b:00000033000000000000000000000000
#05119:00330000000000000000000000000000
#05114:00000000003300000000000000000000
#05113:0000003300000000
#01414:00240000
#01416:24
#01412:0024
#0141a:0024
#06818:2323
#06815:0000230000230000
#07114:00240000
#07116:24
#07112:0024
#0711b:0023
#0015b:13
#00152:53
#00156:0023000000000000
#0025b:13
#00252:53
#00256:0023000000000000
#0035b:13
#00352:53
#00356:0023000000000000
#0045b:13
#00452:53
#00456:0023000000000000
#00552:13
#0055b:63
#00557:0023000000000000
#00652:13
#0065b:63
#00657:0023000000000000
#00752:13
#0075b:63
#00757:0023000000000000
#00852:13
#0085b:63
#00857:0023000000000000
#02752:00000014
#02852:00140014
#0495a:0014
#02055:0053
#0205b:0000005300000000
#02252:0000006300000000
#02258:0063
#0095b:63
#00952:53
#05757:0013
#05752:0063
#05656:0013
#0565b:0053
#0525b:0063
#05257:00000023
#05252:0014
#05352:0053
#05356:00000023
#0535a:0014
#06058:0014
#05452:0014
#0555a:0014
#05552:0053
#06457:0053
#06452:0013
#06556:0063
#0655b:0013
#01056:0000002200000000
#01058:0000002200000000
#05852:00000013
#0585b:0013
#05856:0023
#05857:00000053
#0595b:1313
#05952:00130000
#05956:2323
#05957:00530000
#04352:0013
#01252:0053
#01258:0013
#0115b:0063
#01155:0013
#02952:00140000
#0295a:00000014
#0305a:00140014
#0315a:00140000
#03152:00000014
#03252:00140000
#0325a:00000014
#0335a:00140000
#01558:0053
#01555:0013
#07657:23
#01655:0063
#01658:0013
#01852:0063
#0355b:0063
#03552:0016
#0375b:0063
#03757:63000063
#03752:00630000
#03756:0013
#03856:6313
#03852:00630000
#0385b:1313
#03952:5353
#0395b:00630000
#03957:0013
#04152:0053
#04156:53000053
#0415b:00530000
#04157:0013
#04257:5313
#0425b:00530000
#04252:1313
#06258:0013
#06155:0013
#0695b:23
#06952:00230000000000000000000000000000
#06958:0043
#06955:0033
#06858:0053
#06855:0000000000630000
#06356:0013
#06655:00001363
#06652:0000000000000023
#06658:00006313
#0665b:0000000000230000
#06758:53135300
#06755:13631300
#06752:0000002300000000
#0675b:0023000000230000
#07052:0013
#0715b:0013
#0725b:0063
#07255:0013
#07358:0013
#07352:0053
#07552:0013
#0145a:0014
#001320:13
#001360:0053000000000000
#002320:33
#002360:0053000000000000
#003320:33
#003360:0053000000000000
#004320:33
#004360:0053000000000000
#005320:23
#0053b1:13
#005371:0053000000000000
#0063b1:33
#006371:0053000000000000
#0073b1:33
#007371:0053000000000000
#0083b1:33
#008371:0053000000000000
#0093b1:33
#009381:0053000000000000
#010381:0000005200000000
#011381:25
#009320:13
#009350:0053000000000000
#010360:0000005200000000
#011330:25
#0113b0:0013
#012370:23
#012320:0013
#013360:23
#015380:0013
#0163b0:23
#016350:0013
#017320:23
#018320:0013
#019360:23
#0203b0:0000001300000000
#021370:23
#020351:0013
#021321:23
#022321:0000001300000000
#023361:23
#022380:0013
#0233b0:23
#023380:0013
#024380:0023000000000000
#025320:0013
#025360:0000000000003333
#026320:0023000000000000
#0353b0:0013
#035370:00000023
#036320:13330000
#036360:00003323
#0363b1:00001323
#037371:13
#0373b1:00230000
#037320:00130000
#037360:0023
#0373b1:0013
#037371:00000033
#0383b1:23
#038360:1323
#038320:00330000
#039320:13
#039360:00230000
#0393b1:00130000
#039371:0023
#039320:0013
#039360:00000023
#0403b0:13330000
#040370:00003323
#040321:00001323
#041361:13
#041321:00230000
#0413b0:00130000
#041370:0023
#041321:0013
#041361:00000033
#042321:23
#042370:1323
#0423b0:00330000
#0433b0:13
#0433a0:00330000000000000000000000000000
#043390:0033000000000000
#043380:00000033230000000000000000000000
#043351:00130000
#043341:00000000003300000000000000000000
#043331:0000003300000000
#043321:00000000000000332300000000000000
#0433c0:0012
#044380:0022
#044321:0012
#045361:0022
#045380:0012
#0463c0:0022
#046361:0012
#047321:0022
#047380:0012
#048380:0022
#048361:0012
#049361:0022
#051381:13
#051391:00330000000000000000000000000000
#0513a1:0033000000000000
#0513b1:00000033230000000000000000000000
#051350:00130000
#051340:00000000003300000000000000000000
#051330:0000003300000000
#051320:00000000000000332300000000000000
#0523b0:0013
#052370:00000033
#0533b0:23
#053320:0013
#053360:00000033
#054320:23
#055320:0013
#055360:00000023
#0563b0:0013
#056370:00000023
#057320:0013
#057360:00000023
#058360:0013
#058320:00000023
#058371:00000013
#0593b1:23
#059360:13
#059320:00230000
#059371:00130000
#0593b1:0023
#059360:0013
#059320:00000023
#064370:0013
#0653b0:23
#065360:0013
#066320:23
#066380:00001323
#0663b0:0000000000530000
#066351:00000013
#066321:0000000000000053
#067351:23
#067380:13230000
#0673b0:0053000000000000
#067351:00132300
#067321:0000005300000000
#067380:00001323
#0673b0:0000000000530000
#068380:13230000
#068351:00132300
#068380:0013
#0693b0:53
#069380:0023
#068351:0000000000130000
#069321:00530000000000000000000000000000
#069351:0023
#0723b1:0013
#072391:0000000000330000
#072371:00000023
#073321:0013
#073341:0000000000330000
#073361:00000023
#076371:13
#076381:00330000000000000000000000000000
#076391:0033000000000000
#0763a1:00000033000000000000000000000000
#0763b1:00000000333323000000000000000000
#077381:0000000000000000000000000000001333000000000000000000000000000000
#0793b1:0033000000000000000000000000000000000000000000000000000000000000
#080351:00350000000000000000000000000000
#081371:0027
