This file was generated by Ched 2.7.0.0.
#TITLE ""
#ARTIST ""
#DESIGNER ""
#DIFFICULTY 0
#PLAYLEVEL
#SONGID ""
#WAVE ""
#WAVEOFFSET 0
#JACKET ""
#REQUEST "ticks_per_beat 480"
#00002: 4
#BPM01: 180
#00008: 01
#TIL00: ""
#VOLUME: ""
#HISPEED 00
#MEASUREHS 00
#05412:0013000000001300
#0541b:13000013
#05418:00131300
#05415:0000001300000000
#05518:13
#05515:00130000
#05512:0013
#0551b:0013
#0561b:1313
#05615:0013001300000000
#05618:00130000
#05718:0013001300000000
#05715:00230000
#05712:2323
#0581b:1313
#05815:0013001300001300
#05818:00130013
#05812:0013
#00112:14
#00115:0014000000000000
#00212:14
#00215:0014000000000000
#00312:14
#00315:0014000000000000
#00412:14
#00415:0014000000000000
#0681b:1300000000130000
#06818:00130000
#06812:1300000000130000
#06815:00130000
#05315:00131300
#05312:13
#0531b:0013000000000000
#05318:0000001300000000
#05310:41
#03918:1313
#03915:00130000
#0391b:00130000
#03912:0013
#03815:0000000000000013
#03812:13
#03814:00130000
#03816:0013
#03817:23
#0381b:0023
#0051a:14
#00517:0014000000000000
#0061a:14
#00617:0014000000000000
#0071a:14
#00717:0014000000000000
#0081a:14
#00817:0014000000000000
#03218:0013001300001300
#03215:00130000
#0321b:0023
#03212:0023
#03315:1300000013000013
#03312:00130000
#03318:00000013
#03418:00131300
#03415:0000001300000000
#03515:1323
#0351b:1323
#03518:00130000
#03512:00130000
#03615:00130000
#0361b:00130000
#03613:0033
#03614:0000003300000000
#03712:13
#03714:00130013
#03716:0013
#0371b:0023
#04914:0000000000000014
#04916:0022
#04918:00000024
#05014:0014001400000000
#05012:00000000000000000000143434343434
#05018:24242400
#06018:13130000
#06015:0013000000000000
#0601b:0000001300002300
#06012:00002613
#0091a:14
#01215:0013001300000000
#0121b:13131300
#02418:00130013
#0241b:0013
#02415:0000001300000000
#02412:0013000000000000
#02515:13
#02512:00130000
#0251b:0013
#02518:00000033
#0411b:13
#04119:00130013
#04117:0013
#04112:0023
#04110:0041
#0421b:13
#04219:00130000
#04217:0013
#04216:23
#04212:0023
#0431b:13
#04318:00130000
#0431f:0011
#0591b:13
#05918:00130000
#05912:13
#05915:00130000
#06118:1313
#06115:0013001300000000
#0611b:00230013
#06112:00000023
#0651b:1313
#06515:0000001300000000
#06512:0013000000001300
#06518:00230023
#06510:0041
#06412:1313
#06418:0000001300000000
#0641b:0013000000001300
#06415:00230023
#0661b:0000001313000000
#06615:13230013
#06618:0013000000001300
#06612:0013
#06212:00230013
#06215:1313
#06218:0013001300000000
#0621b:00000023
#06312:00000013
#06318:1313
#0631b:00000023
#06315:00230000
#05115:14
#05118:0000000026260000
#05112:00343434343400000000000000000000
#06712:13
#06715:00130000
#0671b:13
#06718:00130000
#01912:00130013
#01918:0000001300130000
#01915:0013
#0191a:24
#02016:0000333313000000
#02015:0033000000000000
#02014:33
#0211b:00130013
#02115:0000001300130000
#02118:0013
#02110:0041
#01312:13132400
#01318:0013001300000000
#0131a:00000024
#01715:0013001300000000
#0171b:13
#01718:00130000
#01712:00000024
#0171a:0024
#01518:00130000
#01515:0013001300000000
#0151b:1313
#01612:1313
#01615:00130000
#01618:0013001300000000
#02217:0000333313000000
#02218:0033000000000000
#02219:33
#04018:00130000
#04012:00130000
#0401a:0033
#04019:0000003300000000
#0701b:13130000
#07015:0013001300000000
#0701a:0024
#07012:00000024
#07415:00130000
#07418:0013001300000000
#07412:1324
#0741a:00000024
#07215:00130000
#07218:0013001300000000
#07212:1313
#0731b:1313
#07315:0013001300000000
#07318:00130000
#02618:00130000
#02615:0000001300000000
#02612:0013000000000000
#0261a:0024
#02715:00002313
#02712:00130000
#02718:0000001300130000
#02714:0000000000000033
#02915:0000001300130000
#0291b:00130000
#02918:00002313
#02919:0000000000000033
#02812:0013000000000000
#02814:0000003300000000
#02813:33330000
#0301b:0013000000000000
#03019:0000003300000000
#0301a:33330000
#05212:2626000000000000
#05218:0026
#0521f:0021
#01112:0024
#01110:0041
#0181a:2400000000000024
#01816:00240000
#01812:0024
#06915:0023
#06918:0023
#02318:0000002300000000
#02312:0023
#02315:00230000
#01412:0024
#01418:00240000
#01414:24
#0711a:0024
#07114:00240000
#07118:24
#07512:2400000000000024
#07516:00240000
#0751a:0024
#07612:24
#03112:00230000
#03118:0000002300000000
#03115:0023
#03110:0041
#0355b:0013
#03555:0013
#04956:0012
#00152:54
#00155:0024000000000000
#00252:54
#00255:0024000000000000
#00352:54
#00355:0024000000000000
#00452:54
#00455:0024000000000000
#05258:0016
#0685b:6300000000630000
#06858:00530000
#06852:5300000000530000
#06855:00630000
#05355:0013
#05458:0013
#01152:0014
#0055a:64
#00557:0024000000000000
#0065a:64
#00657:0024000000000000
#0075a:64
#00757:0024000000000000
#0085a:64
#00857:0024000000000000
#05552:0013
#0555b:0013
#0565b:0053
#06052:0016
#0095a:64
#03458:0053
#03355:0000000000000063
#03952:0013
#03958:0013
#05752:0063
#0585b:0053
#05858:00000053
#05852:0063
#05855:00000063
#0595b:5313
#05958:00530000
#05952:6313
#05955:00630000
#0655b:0013
#06452:0013
#06955:0013
#06958:0013
#05155:24
#05052:0000000000640000
#06652:0063
#06655:00000063
#0665b:0053
#06658:00000053
#06752:6313
#06755:00630000
#0675b:5313
#06758:00530000
#06158:0013
#02056:0053
#01952:00000053
#02257:0063
#0215b:00000063
#03655:00530000
#0365b:00530000
#04058:00630000
#04052:00630000
#02755:00000063
#02852:0023000000000000
#02855:0013
#02958:00000053
#0305b:0023000000000000
#03058:0013
#0255b:0063
#06255:0013
#001320:14
#001350:0054000000000000
#002320:34
#002350:0054000000000000
#003320:34
#003350:0054000000000000
#004320:34
#004350:0054000000000000
#005320:24
#0053a1:14
#005371:0054000000000000
#0063a1:34
#006371:0054000000000000
#0073a1:34
#007371:0054000000000000
#0083a1:34
#008371:0054000000000000
#0093a1:34
#009361:0054000000000000
#011341:28
#019321:00000013
#020341:33
#020351:0033000000000000
#020361:0000333333000000
#021321:23
#0213b1:00000013
#022391:33
#022381:0033000000000000
#022371:0000333333000000
#0233b1:23
#0253b1:0013
#025381:0000000000003323
#027351:00000013
#027341:0000000000000033
#028331:33330000
#028321:0033000000000000
#028341:0000003300000000
#028351:0023
#029381:00000013
#029391:0000000000000033
#0303a1:33330000
#0303b1:0033000000000000
#030391:0000003300000000
#030381:0023
#031351:0013
#032351:23
#033351:0000000000000013
#034321:0023000000000000
#034381:0013
#0343b1:00000023
#0363b1:13330000
#036381:00000023
#036350:00130000
#036340:0000003300000000
#036330:0033
#036320:00000023
#040320:13330000
#040350:00000023
#040381:00130000
#040391:0000003300000000
#0403a1:0033
#0403b1:00000023
#043361:0012
#044331:0022
#044380:0012
#0453b0:0022
#045361:0012
#046331:0022
#046380:0012
#0473b0:0022
#047361:0012
#048361:0032
#049361:0022
#050321:00000000000000000000143434343434
#051351:34
#051321:00343434343424000000000000000000
#0563b1:0013
#056381:00000023
#057321:0013
#057351:00000023
#0583b1:0013
#058381:00000033
#0593b1:3323
#059381:00330000
#058320:0013
#058350:00000033
#059320:3323
#059350:00330000
#066320:0013
#066350:00000033
#067320:3323
#067350:00330000
#0663b1:0013
#066381:00000033
#0673b1:3323
#067381:00330000
#0683b1:1300000033330000
#068381:00330000
#069381:0023
#068320:1300000033330000
#068350:00330000
#069350:0023
#077380:0013
#0793a0:0034000000000000000000000000000000000000000000000000000000000000
#080360:00350000000000000000000000000000
#081380:0026
