This file was generated by Ched 2.7.0.0.
#TITLE ""
#ARTIST ""
#DESIGNER ""
#DIFFICULTY 0
#PLAYLEVEL
#SONGID ""
#WAVE ""
#WAVEOFFSET 0
#JACKET ""
#REQUEST "ticks_per_beat 480"
#00002: 4
#BPM01: 180
#00008: 01
#TIL00: ""
#VOLUME: ""
#HISPEED 00
#MEASUREHS 00
#01214:14
#01218:00140000
#01212:0024
#01318:14
#01312:00000014
#01314:00140000
#0131a:0024
#01712:14
#01718:00140000
#0171a:00000014
#01714:0024
#01814:14
#01818:00140000
#02112:0014
#02110:0041
#0191a:0014
#03218:00140000
#03212:0014
#0321a:00000014
#03314:14
#03318:00140000
#03312:0014
#03313:00000034
#03612:1414
#03618:00140000
#04912:0014
#0491a:00000014
#05012:14
#0501a:00140000
#05014:0014
#05018:00000014
#05114:14
#05118:00140000
#05112:0024
#0511a:0024
#05518:14
#05514:00140000
#0551a:0014
#05612:14
#05618:00140000
#05614:0014
#05718:14
#05714:00140000
#0571a:0014
#05812:14
#05818:00140000
#05814:0014
#0581a:00000014
#05912:14
#05916:00140000
#0591a:0014
#0621a:00000014
#06212:14
#06218:00140000
#06214:0014
#06314:14
#06318:00140000
#06312:0014
#0641a:14
#06414:00140000
#06418:0014
#06514:14
#06518:00140000
#06512:0014
#06510:0041
#0661a:14
#06614:00140000
#06618:0014
#06612:00000014
#0671a:14
#06716:00140000
#06712:0014
#06018:00140000
#06012:24
#0611a:14
#06114:00140000
#05314:14
#05318:00140000
#05312:0014
#05310:41
#0681a:14
#06817:0000000034140000
#06818:00340000
#00112:14
#0031a:14
#00512:14
#0071a:14
#00912:14
#01614:00140000
#0161a:14
#01618:0024
#02318:0014
#02414:0014
#02518:0014
#02018:14
#0201a:0014
#02214:14
#02212:0014
#03912:1424
#03918:00140000
#0401a:1414
#04014:00140000
#01418:14
#01414:00140000
#0141a:0024
#01512:14
#01518:00140000
#01514:0024
#02712:0014
#0271a:00000014
#02814:14
#02818:00140000
#02812:0014
#02918:00140000
#02914:0014
#0291a:00000014
#03012:14
#03018:00140000
#03014:0014
#03414:14
#03413:00340000
#0351a:1424
#03514:00140000
#0371a:1414
#03714:00140000
#03719:00000034
#03818:14
#03819:00340000
#04112:1414
#04118:00140000
#04113:00000034
#04110:0041
#04214:14
#04213:00340000
#04318:14
#04314:00140000
#0431f:0011
#07014:14
#0701a:00000014
#07018:00140000
#07012:0024
#0741a:14
#07414:00140000
#07412:00000014
#07418:0024
#07518:14
#07514:00140000
#07318:00140000
#07312:14
#07314:0024
#07114:14
#07118:00140000
#07112:0024
#0721a:14
#07214:00140000
#07218:0024
#05414:00140000
#0541a:14
#05412:00000014
#05418:0014
#0111a:0024
#01110:0041
#02613:0024
#02619:0024
#05212:24
#0521a:24
#05218:0026
#0521f:0021
#0691a:0024
#03112:0024
#0311a:00240000
#03110:0041
#04612:0034
#0441a:0034
#00254:14
#00458:14
#00654:14
#00858:14
#0115a:0014
#02152:0054
#0195a:0064
#05654:0014
#0575a:0014
#06458:0014
#06552:0014
#05258:0016
#0685a:54
#06857:0000000000540000
#00152:54
#0035a:64
#00552:54
#0075a:64
#00952:54
#02358:0064
#02454:0054
#02558:0064
#02058:64
#0205a:0064
#02254:54
#02252:0054
#0595a:0014
#0555a:0014
#06352:0014
#06752:0014
#0695a:0014
#02852:0014
#03054:0014
#03452:0014
#03454:64
#03352:0064
#0355a:0014
#03652:0014
#0375a:0054
#03858:54
#0385a:0014
#03952:0014
#04152:0064
#04254:64
#04252:0014
#001320:14
#002340:24
#0033a0:14
#004380:24
#005320:14
#006340:24
#0073a0:14
#008380:24
#009320:14
#011350:26
#018320:0014
#019320:24
#0193a0:0014
#020380:34
#0203a0:0034
#021380:24
#021320:0014
#022340:34
#022320:0034
#023340:24
#023380:0014
#0243a0:24
#024340:0014
#025320:24
#025380:0014
#0263a0:24
#033320:0014
#033330:00000034
#034340:34
#034330:00340000
#034320:0024
#0373a0:0014
#037390:00000034
#038380:34
#038390:00340000
#0383a0:0024
#041320:0014
#041330:00000034
#042340:34
#042330:00340000
#042320:0024
#043380:0014
#0443a0:0034
#0453a0:24
#045340:0014
#046320:0034
#047320:24
#047380:0014
#049380:24
#060340:00001424
#061380:00001424
#0683a0:14
#068380:00340000
#068370:0000000034340000
#0693a0:0024
#0753a0:0014
#0763a0:24
#077320:0014
#079350:54
#080320:55
#081340:0026
