This file was generated by Ched 2.7.0.0.
#TITLE ""
#ARTIST ""
#DESIGNER ""
#DIFFICULTY 0
#PLAYLEVEL
#SONGID ""
#WAVE ""
#WAVEOFFSET 0
#JACKET ""
#REQUEST "ticks_per_beat 480"
#00002: 4
#BPM01: 174
#00008: 01
#TIL00: ""
#VOLUME: ""
#HISPEED 00
#MEASUREHS 00
#0001a:14
#00114:14
#00218:14
#00312:14
#0071a:14
#00814:14
#00914:14
#01018:14
#01118:14
#01212:14
#01312:14
#0141a:14
#01414:0014
#01410:41
#0151a:14
#01612:14
#01618:0014
#01712:14
#0181a:14
#01814:0014
#0191a:14
#02012:14
#02018:0014
#02112:14
#0301a:14
#03114:14
#03218:14
#03418:0016
#03512:16
#03510:00410000
#03612:0016
#03718:16
#03712:0016
#03812:16
#03818:0016
#03918:16
#03912:0016
#04118:16
#04312:0016
#04418:1616
#04512:1616
#04510:0000000000000041
#05212:14
#05318:14
#05414:14
#05410:00410000
#0551a:14
#05612:14
#05718:14
#05814:14
#0591a:14
#06218:14
#06318:14
#06414:14
#06514:14
#06618:14
#0251f:11
#03312:0000000000000026
#0331f:0000000000000021
#00610:41
#02210:41
#0043a0:14
#0063a0:24
#0223a0:14
#0233a0:24
#024340:14
#025340:24
#026380:14
#027380:24
#028320:14
#029320:24
#035380:0000000016000026
#040380:1626
#041320:0000000016000026
#042380:0000000016000026
#046380:16
#046360:00000026
#047320:16
#047340:00000026
#048380:16
#048360:00000026
#049320:16
#049340:00000026
#050380:16
#050350:0000000000003626
#060320:1400000000000024
#067380:1400000000342400
