This file was generated by Ched 2.7.0.0.
#TITLE ""
#ARTIST ""
#DESIGNER ""
#DIFFICULTY 0
#PLAYLEVEL
#SONGID ""
#WAVE ""
#WAVEOFFSET 0
#JACKET ""
#REQUEST "ticks_per_beat 480"
#00002: 4
#BPM01: 174
#00008: 01
#TIL00: ""
#VOLUME: ""
#HISPEED 00
#MEASUREHS 00
#00015:13
#00018:0013000000000000
#00012:0000130013000013
#00014:0000000000130000
#00016:00000013
#00017:0000000000000013
#0001b:00130013
#00112:0013000013001300
#00115:00130000
#00118:0000001300130000
#0011b:00001313
#00518:0000000000000013
#0051a:22
#00513:00220000
#0051b:0022
#00512:00000022
#0061b:13
#00618:0000131300000013
#00612:1300000000130000
#00615:0000001300001300
#00610:41
#00715:1300001300000013
#00712:0013000000000000
#0071b:0013000000130000
#00718:00000013
#00812:1300000000000013
#00815:0013000000130000
#00818:0000130013000013
#0081b:1300001300130000
#00918:0000000000130013
#00915:00000013
#0101b:1300000013001313
#01012:0000130013130000
#01018:0000131300000000
#01015:1313000000001300
#01118:1300001300130000
#01115:0013000013001300
#01112:1300130000000013
#0111b:0000130013000013
#01212:0013130000000013
#01217:0000130000001313
#01216:0013
#0171b:0013000013000013
#01719:0000130000130000
#01717:0000001300001300
#01716:0023000023000023
#01714:0000230000230000
#01712:0000002300002300
#01918:0013000000000013
#01919:00130013
#0191a:0000001300130000
#0191b:0013
#01915:0023000000000023
#01914:00230023
#01913:0000002300230000
#01912:0023
#02118:0013000000000013
#0211b:00000000000000130000000000000000
#02112:00000000000000130000000000000000
#02115:0023000000000000
#0221b:13
#02218:00000013
#02215:0000000000000013
#02217:00000013000000000000000000000000
#02212:2300002323000000
#02210:41
#0231b:1313
#02319:00000013000000000000000000000000
#02317:0000001300000000
#02312:23000013000013000000000000000000
#02316:0013
#02315:0000000000000013
#0251b:23000013000013000000000013000000
#02512:1313
#02514:00000013000000000000000000000000
#02516:0000001300001300
#02517:0013
#0251f:11
#0261b:0000001300000013
#02619:00001313
#02617:0000000000130000
#02612:00232323
#02717:0000001300000000
#0271b:0000000000000013
#02712:23232323
#02817:0000001300000013
#02819:00001313
#0281b:0000000000130000
#02812:23232323
#02917:0000130000000013
#0291b:0000001300000000
#02912:2300230023002323
#03412:0013000013130000
#03418:00130000
#03415:0000001300000013
#0341b:0013000000130000
#0371b:00130013
#03719:0000001300130000
#03717:0000000013000013
#03712:0000000000000013
#03917:0013000000003300
#03912:0013000000003300
#03916:0000000000130000
#0391b:0000000000130000
#0411b:0013000000000013
#04118:00131300
#04115:0000001300130000
#04112:0013000000000000
#0441b:23000013
#04415:0000000000000013
#04419:00230000
#04417:0023
#04416:23
#04414:00230000
#04412:0023
#04518:1300130000000013
#04512:0013000000000000
#0451b:0000001300001300
#04517:0000000000130000
#04516:0000001300000000
#04515:0000000000000013
#04510:0000000000000041
#04614:13
#04613:0013000000001300
#04612:0000131300130000
#0461b:0000001300000000
#04615:0000000000000013
#05116:0000131300000000
#0511b:0000131300000000
#05117:0000000000131300
#05112:0000000000131300
#05216:1200000012120000
#0521c:1200000012120000
#05218:0000120000000012
#05212:0000120000000012
#0531c:0012000000000000
#05312:0000001200000000
#0531a:0000000000121200
#05316:0012000000121200
#05318:0000001200000000
#0541b:00131313
#05418:0000001300000000
#05415:00131313
#05412:0000000000130013
#05417:0000000000000013
#05410:00410000
#05517:0013000000000023
#0551b:0000130000130000
#05519:00000013
#05516:13
#05512:0000001300000023
#05918:0013001300130013
#05915:00131313
#0591b:0013
#05912:0013000000000013
#06016:0013000000000000
#06012:0013
#0601b:0013000000000000
#06017:0013
#06118:0000001200000000
#06116:00000000000000120000000000000000
#0611a:0000000022000022
#06114:0000000000220000
#06117:00000022
#00218:13
#00215:0013000000000000
#0021b:0000130013000013
#00219:0000000000130000
#00217:00000013
#00216:0000003300000013
#00212:00130013
#0031b:0013000013001300
#00318:00130000
#00315:0000001300130000
#00312:00001313
#01316:00000000001300000000000000000000
#0131b:00000000001300000000000000000000
#01315:0000000000000013
#01412:13
#01415:0000131300000013
#0141b:1300000000130000
#01418:0000001300001300
#01410:41
#01518:1300001300000013
#0151b:0013000000000000
#01512:0013000000130000
#01515:00000013
#0161b:13
#01618:0013000000130000
#01615:0000130013000013
#01612:1300001300130000
#01812:0013000013000013
#01814:0000130000130000
#01816:0000001300001300
#01817:0023000023000023
#01819:0000230000230000
#0181b:0000002300002300
#02012:0013000000000013
#02015:0000001300001300
#02018:0000001300002300
#0201b:0023000000000023
#02412:13
#02415:00000013
#02418:0000000000000013
#02416:00000013000000000000000000000000
#0241b:2300002323000000
#0301b:00000000001300000000000000000000
#03016:00000000001300000000000000000000
#03117:00000000000000000000001500000000
#03114:00000000000012000000000000150000
#0311a:12
#03118:0012000000000000
#03116:00120021
#03119:0000000000210022
#03216:0012120000000000
#0321c:0012120000000000
#03212:00000000000000000012000000000000
#03218:00000000000000000012000000000000
#03318:0000000000130023
#0331b:00000013
#03315:0000000000000023
#0331f:0000000000000021
#03515:0000000000130023
#03512:00000013
#03518:0000000000000023
#03510:00410000
#0361b:0013000013130000
#03615:00130000
#03618:0000001300000013
#03612:0013000000130000
#03812:00130013
#03814:0000001300130000
#03816:0013000013000013
#0381b:0013000000000013
#04212:0013000000000013
#04215:00131300
#04218:0000001300130000
#0421b:0013000000000000
#0431b:0013000000130000
#04318:00131300
#04315:0000001300000000
#04317:0000000000000013
#04312:0013000000130013
#04719:13
#0471a:0013000000001300
#0471b:0000131300130000
#04712:0000001300000000
#04718:0000000000000013
#04814:13
#04813:0013000000001300
#04812:0000131300130000
#0481b:0000001300000000
#04815:0000000000000013
#04919:13
#0491a:0013000000001300
#0491b:0000131300130000
#04912:0000001300000000
#04918:0000000000000013
#05014:13
#05013:0013000000002300
#05012:0000131300230000
#0501b:0000001300000000
#05015:0000000000000023
#05712:0012000000000000
#0571c:0000001200000000
#05714:0000000000121200
#05718:0012000000121200
#05716:0000001200000000
#05616:0000120000000012
#05612:0000000012120000
#0561c:0000120000000012
#05618:0000000012120000
#06218:00121200
#06216:0000000000120012
#06212:00120000
#0621c:0000000000000012
#06312:0012000000000000
#0631a:0000001200000000
#06314:0000000000120000
#06318:00000012
#0641c:0012
#06418:0000000000000012
#06618:0000000000120012
#0661c:00120000
#0661a:0012
#0671c:0012000000000000
#06714:0000001200000000
#0671a:0000000000120000
#06716:00000012
#0401b:0000232300000000
#04012:0000000000002323
#04016:0000002300000000
#04017:0000000000000023
#0581b:2323000000002323
#05816:2323000000002323
#05812:0000002323000000
#05817:0000002323000000
#00418:22
#00415:00220000
#00419:0022
#00414:00000022
#0535c:0012000000000000
#05352:0000001200000000
#0535a:0000000000120000
#05356:00000012
#0005b:00530000
#00057:0000000000000053
#00256:0000000000000063
#00252:00630000
#00652:53
#00658:0000005300000000
#0075b:0023000000000000
#00755:0000005300000000
#00858:0000000000000053
#00852:0000000000000053
#01257:0000000000000053
#01252:0000530000000053
#01256:0023
#01356:00000000002300000000000000000000
#0135b:00000000002300000000000000000000
#0115b:0000000000000053
#01455:0000006300000000
#0145b:63
#01558:0000006300000000
#01552:0023000000000000
#01658:0000000000530000
#0165b:0000000000000013
#01655:0000000000000013
#0205b:0053000000000000
#02052:0053000000000000
#02055:0000005300000000
#02058:0000005300000000
#02155:0063000000000000
#02158:0063000000000000
#02152:00000000000000230000000000000000
#0215b:00000000000000230000000000000000
#0225b:53
#02257:00000053000000000000000000000000
#0235b:0013
#02356:0013
#02452:63
#02456:00000063000000000000000000000000
#02552:0053
#02556:00000053
#0255b:00000053
#02652:13
#02657:13
#0265b:0000000000000053
#0275b:0000000000000053
#02757:0000005300000000
#02857:0000000000000053
#0295b:0000005300000000
#02957:0000000000000053
#02952:0000000000000053
#0305b:00000000002300000000000000000000
#03056:00000000002300000000000000000000
#03159:0000000000210000
#03157:00000000000000000000005500000000
#03154:00000000000000000000000000650000
#03156:00000021
#0325c:00520000
#03256:00520000
#03258:00000000000000000022000000000000
#03252:00000000000000000022000000000000
#03358:0000000000530013
#0335b:00000023
#03355:0000000000000013
#0345b:0000000000630000
#03458:0000000000000013
#03555:0000000000630013
#03552:00000023
#03558:0000000000000013
#03652:0000000000530000
#03655:0000000000000013
#03952:0063000000000013
#03957:0063000000000013
#03956:0000001300630000
#0395b:0000001300630000
#03757:0000000000000013
#03752:0000000000000013
#03856:0000000000000013
#0385b:0000000000000013
#04056:0000001300000000
#04057:0000000000000013
#04152:0000000000000013
#04155:0000000000530000
#0415b:0000000000000013
#04258:0000000000630000
#0425b:0000000000000013
#04252:0000000000000013
#04556:0000005300000000
#04558:0000000000000053
#0465b:0000002300000000
#04655:0000000000000063
#04752:0000002300000000
#04758:0000000000000053
#0485b:0000002300000000
#04855:0000000000000063
#04952:0000002300000000
#04958:0000000000000053
#0505b:0000002300000000
#05152:00000013
#05157:00000013
#05752:0012000000000000
#0575c:0000001200000000
#05754:0000000000120000
#05758:00000012
#05452:0000000000000053
#05557:0053000000000013
#05556:23
#0555b:00230000
#05552:0000005300000013
#0585b:0013000000000013
#05856:0013000000000013
#05857:0013
#05852:0013
#06056:0053000000000000
#06052:0023
#0605b:0053000000000000
#06057:0023
#06352:0012000000000000
#0635a:0000001200000000
#06354:0000000000120000
#06358:00000012
#0675c:0012000000000000
#06754:0000001200000000
#0675a:0000000000120000
#06756:00000012
#0003b0:00130000
#000370:0023
#000370:0000000000000013
#0013b0:0023000000000000
#002320:00130000
#002360:0000003323000000
#002360:0000000000000013
#003320:0023000000000000
#006320:13
#006350:00230000
#006380:0000001300000000
#0063b0:0000000000230000
#0073b0:0013000000000000
#007380:0000002300000000
#007351:0000001300000000
#007321:0000000000230000
#008321:0000000000000013
#009351:0023
#008380:0000000000000013
#0093b0:0023
#0113b0:0000000000000013
#012370:0023000000000000
#012320:0000130000003333
#012360:0053
#013360:00000000005300000000000000000000
#013320:00000023
#012371:0000000000000013
#0133b1:00000000005300000000000000000000
#013371:00000023
#0143b1:13
#014381:00230000
#014351:0000001300000000
#014321:0000000000230000
#015321:0013000000000000
#015351:0000002300000000
#015380:0000001300000000
#0153b0:0000000000230000
#016380:0000000000130000
#0163b0:0000000000000023
#0203b0:0013000000230000
#020380:0000003300000000
#020321:0013000000230000
#020351:0000003300000000
#021351:0013000000002300
#021321:00000000000000530000000000000000
#021380:0013000000002300
#0213b0:00000000000000530000000000000000
#0223b0:1300003323000000
#022370:00000033000000000000000000000000
#024320:1300003323000000
#024360:00000033000000000000000000000000
#025320:0013
#025360:00000033
#026320:23
#0253b1:00000013
#026371:23
#0263b1:0000000000000013
#027371:00230000
#027371:0000001300000000
#0273b1:00000023
#0273b1:0000000000000013
#028371:00230000
#028371:0000000000000013
#0293b1:0023000000000000
#0293b1:0000001300000000
#029371:00000023
#029371:0000000000000013
#0303b1:00000000005300000000000000000000
#030371:00000023
#029320:0000000000000013
#030360:00000000005300000000000000000000
#030320:00000023
#031390:0000000000112100
#031370:00000000000000000000005500000000
#031361:0000000000001121
#031341:00000000000000000000000000550000
#032361:0000120000000022
#032321:00000000000000000052000000000000
#0323c0:0000120000000022
#032380:00000000000000000052000000000000
#033380:0013230000000000
#033351:0000132300000000
#033380:0000001323000000
#033351:0000000013230000
#033380:0000000000130023
#0333b0:00000053
#0343b0:0000000000130000
#034380:0000000000000023
#035380:0000132300000000
#035351:0000001323000000
#035380:0000000013230000
#035351:0000000000130023
#035321:00000053
#036321:0000000000130000
#036351:0000000000000023
#037361:00130023
#037341:0000003300330000
#037321:0033
#038371:00130023
#038391:0000003300330000
#0383b1:0033
#039321:0013000000000000
#039361:0000002300000000
#039370:0013000000000000
#0393b0:0000002300000000
#0393b0:0000000000130000
#039370:0000000000003323
#039361:0000000000130000
#039321:0000000000003323
#041351:0000000000130000
#041321:0000000000000023
#042381:0000000000130000
#0423b1:0000000000000023
#045361:0000001300000000
#045321:0000000000230000
#045381:0000000000000013
#0463b1:0000005300000000
#046381:0000000000000023
#046350:0000000000000013
#047320:0000005300000000
#047350:0000000000000023
#047381:0000000000000013
#0483b1:0000005300000000
#048381:0000000000000023
#048350:0000000000000013
#049320:0000005300000000
#049350:0000000000000023
#049381:0000000000000013
#0503b1:0000005300000000
#050381:0000000000000023
#054321:0000000000000013
#055361:53
#055321:0023000000000000
#055370:0013002300000000
#0553b0:00530000
#055321:0000001300000000
#055361:0000000000230000
#060361:0013000000000023
#060321:0053
#0603b0:0013000000000023
#060370:0053
#065320:0013333300330033
#065350:00003333
#067320:0023000000000000
