This file was generated by Ched 2.7.0.0.
#TITLE ""
#ARTIST ""
#DESIGNER ""
#DIFFICULTY 0
#PLAYLEVEL
#SONGID ""
#WAVE ""
#WAVEOFFSET 0
#JACKET ""
#REQUEST "ticks_per_beat 480"
#00002: 4
#BPM01: 174
#00008: 01
#TIL00: ""
#VOLUME: ""
#HISPEED 00
#MEASUREHS 00
#00015:13000013
#00018:0013000000130000
#0001b:0000000000000013
#00012:00130000
#00115:00130013
#00118:0000001300130000
#00112:0013
#00515:0000000000000013
#00513:2222
#0051b:00220022
#00615:0000001300000013
#00618:13000013
#00610:41
#00718:13000013
#00715:0000001300000013
#00712:0013000000000000
#00812:13
#00815:0013000000130000
#00818:0000130013000013
#0081b:0000001300000000
#00912:0000000000130000
#00915:00000013
#00918:0000000000000013
#01012:1313000000000000
#01018:0000131300000000
#01015:0000000013130000
#0101b:0000000000001313
#01112:1313
#01118:0013000000130000
#01115:00130013
#0111b:0000001300000013
#0121b:0000000000000013
#01212:00130000
#01215:0013
#02118:0013000000000013
#02115:0023000000000000
#02215:1300000000000013
#02218:00000013
#02212:00000033000000000000000000000000
#02210:41
#0261b:0000001300000013
#02615:0013
#02618:0000000000130000
#02612:00000013
#02712:0000001300000000
#0271b:0000000000000013
#02812:0000001300000000
#02818:0013
#02815:0000000000130013
#0281b:00000013
#02918:0000131300000000
#0291b:0000000000000013
#02915:0000000000000023
#03412:0013000000000000
#03418:00130000
#03415:0000001300130000
#0341b:0013
#0371b:00130013
#03718:0000001300130000
#03715:0000000013000013
#03912:0013000000000000
#0391b:0000000000130000
#03918:00000033
#04115:0000130000130000
#04118:0000001300000000
#0411b:0013
#04112:0013000000000000
#0441b:00000013
#04418:0000000000000013
#0441a:24
#04416:00240000
#04412:0024
#04515:1300001300000013
#04512:0013000000000000
#04518:00130000
#0451b:00000013
#04510:0000000000000041
#0511a:0000141400000000
#05112:0000000000141400
#0531c:0012000000000000
#05316:0000001200000000
#05318:0000000000120000
#05314:00000012
#0541b:00130013
#05415:0000001300000013
#05418:0013
#05412:0000000000130000
#05410:00410000
#05515:00000013
#05518:0000001300000023
#05918:00130013
#05915:0000001300130000
#05912:0013
#0591b:0013000000000013
#06012:0013000000000000
#06018:0013000000000000
#06118:0000001300000000
#06115:00000000000000130000000000000000
#0611b:0023
#06112:0000000000230000
#06116:00000023
#0611a:0000000000000023
#01318:00000000001300000000000000001300
#02012:0013000000001313
#0201b:0023000000002323
#02018:0000003300000000
#02015:0000003300000000
#0311a:12
#03116:0012000000000000
#03118:00120000
#03114:0000001200000000
#03117:00000016
#03119:0000000000220000
#0331b:0013000000130000
#03318:0000130000000023
#03315:0000001300000000
#03312:0013
#0331f:0000000000000021
#04315:00131300
#04318:0000001300000000
#04312:0013000000130014
#0431b:0000000000130000
#04612:3333331300333300
#04618:0000000000000013
#05216:0000120000120000
#05212:0000000000000012
#0521c:00120000
#05218:0000000012000012
#06218:0012
#06216:0000000000120000
#06214:00120000
#0621a:0000000000000012
#06314:0012000000000000
#0631a:0000001200000000
#06316:0000000000120000
#06318:00000012
#0641a:0012
#06418:0000000000000012
#06618:0000000000120000
#06614:0000000000000012
#0661a:00120000
#06616:0012
#0671a:0012000000000000
#06714:0000001200000000
#06718:0000000000120000
#06716:00000012
#00218:1300003300001300
#00215:0013000000130000
#00212:0000000000000013
#0021b:00130000
#00318:00130013
#00315:0000001300130000
#0031b:0013
#01418:0000001300000013
#01415:13000013
#01410:41
#01515:13000013
#01518:0000001300000013
#0151b:0013000000000000
#0161b:13
#01618:0013000000130000
#01615:00131300
#01612:0000001300000000
#02318:13
#02315:0000000000000013
#0231b:00000033000000000000000000000000
#02418:1300000000000013
#02415:00000013
#0241b:00000033000000000000000000000000
#02515:13000013
#0251b:00000013
#0251f:11
#02512:00000033000000000000000000000000
#0321b:0013130000000000
#03212:0013130000000000
#03215:00000000000000000013000000000000
#03218:00000000000000000013000000000000
#0361b:0013000000000000
#03615:00130000
#03618:0000001300130000
#03612:0013
#03812:00130013
#03815:0000001300130000
#03818:0013000013000013
#04218:0000130000130000
#04215:0000001300000000
#04212:0013
#0421b:0013000000000000
#0471b:3333331300333300
#04715:0000000000000013
#04812:3333331300333300
#04818:0000000000000013
#0491b:3333331300333300
#04915:0000000000000013
#05012:3333331300333300
#05018:0000000000000023
#05712:0012000000000000
#05718:0000001200000000
#05716:0000000000120000
#0571a:00000012
#05618:0000120000120000
#0561c:0000000000000012
#05612:00120000
#05616:0000000012000012
#0351b:0013
#03518:0000001300000000
#03515:0000130000000023
#03512:0000000000130000
#03510:00410000
#04012:00230000
#04015:00000023
#04018:0000002300000000
#0401b:0000000000000023
#05812:2424000000000000
#05818:0000002424000000
#05814:0000000000002424
#00415:2222
#00419:00220022
#01712:0023002300000000
#01718:00230000
#01715:0000000000230023
#0171b:00002323
#01912:0023000000230000
#01918:00230023
#01915:0000002300000023
#0191b:0023
#0181b:0023002300000000
#01815:00230000
#01818:0000000000230023
#01812:00002323
#06512:0000333300333300
#0535c:0012000000000000
#05356:0000001200000000
#05358:0000000000120000
#05354:00000012
#00052:00530000
#0005b:0000000000000053
#00658:53
#00655:0000005300000000
#00755:0000005300000000
#00752:0053000000000000
#00858:0000000000000053
#0125b:0000000000000063
#01255:0023
#01252:00530000
#01358:00000000002300000000000000000000
#0115b:0000000000000053
#0205b:0053000000000000
#02052:0053000000000000
#02155:0063000000000000
#02158:0063000000000000
#02255:53
#0275b:0000000000000053
#02752:0000005300000000
#0265b:0000000000000053
#02652:13
#02658:13
#02855:0000000000000053
#02958:0000005300000000
#0295b:0000000000000053
#02955:0000000000000053
#0335b:0000000000530000
#03358:0000000000000013
#03455:0000000000630000
#03452:0000000000000013
#03952:0063000000000000
#0395b:0000000000630000
#03955:0000001300000000
#03958:0000000000000013
#03755:0000000000000013
#04058:0000001300000000
#0405b:0000000000000013
#04152:0000000000000013
#04155:0000000000530000
#04555:0000005300000063
#04652:0000002300000000
#04658:0000000000000053
#05152:00000014
#05558:0000005300000013
#05852:0014000000000000
#05858:0014
#05854:0000000000000014
#06052:0053000000000000
#06058:0053000000000000
#06354:0012000000000000
#0635a:0000001200000000
#06356:0000000000120000
#06358:00000012
#0675a:0012000000000000
#06754:0000001200000000
#06758:0000000000120000
#06756:00000012
#00252:0000000000000063
#0025b:00630000
#01458:0000006300000000
#01455:63
#01558:0000006300000000
#0155b:0023000000000000
#0165b:0000000000000013
#01658:0000000000530000
#02358:63
#0235b:0013
#02458:63
#02555:53000053
#0255b:00000053
#03157:00000056
#03159:0000000000220000
#03252:00530000
#03255:00000000000000000023000000000000
#0325b:00630000
#03258:00000000000000000023000000000000
#03658:0000000000530000
#0365b:0000000000000013
#03858:0000000000000013
#04258:0000000000630000
#0425b:0000000000000013
#0475b:0000002300000000
#04755:0000000000000063
#04852:0000002300000000
#04858:0000000000000053
#0495b:0000002300000000
#04955:0000000000000063
#05052:0000002300000000
#05455:0000000000000053
#05752:0012000000000000
#05758:0000001200000000
#05756:0000000000120000
#0575a:00000012
#03555:0000000000000013
#03552:0000000000630000
#000320:00130000
#000350:0023
#0003b0:0000000000000013
#001380:0023000000000000
#0023b0:00130000
#002380:0000003323000000
#002320:0000000000000013
#003350:0023000000000000
#006380:13
#0063b0:00230000
#006350:0000001300000000
#006320:0000000000230000
#007320:0013000000230000
#007350:0000003300000000
#008380:0000000000000013
#0093b0:0023
#0113b0:0000000000000013
#012380:0023000000000000
#012320:00130023
#012350:0053
#0123b0:0000000000000013
#013380:00000000005300000000000000000000
#0133b0:00000023
#014350:13
#014320:00230000
#014380:0000001300000000
#0143b0:0000000000230000
#0153b0:0013000000230000
#015380:0000003300000000
#016380:0000000000130000
#0163b0:0000000000000023
#0203b0:0013000000000000
#020380:0000003300230000
#020321:0013000000000000
#020351:0000003300230000
#021351:0013000000000000
#021321:00000023
#021380:0013000000000000
#0213b0:00000023
#022350:13
#022320:00000033000033002300000000000000
#023380:13
#0233b0:00000033000033002300000000000000
#024380:13
#0243b0:00000033000033002300000000000000
#025350:13
#025320:00000033000033002300000000000000
#025350:00000013
#026320:23
#0253b1:00000013
#026381:23
#0263b1:0000000000000013
#027381:00230000
#027321:0000001300000000
#027351:00000023
#0273b1:0000000000000013
#028381:00230000
#028351:0000000000000013
#029321:0023000000000000
#029381:0000001300000000
#0293b1:00000023
#0293b1:0000000000000013
#030381:00000023
#029350:0000000000000013
#030320:00000023
#031390:0000000000120022
#031370:00000036
#032320:0000130000000023
#032350:00000000000000000053000000000000
#0323b1:0000130000000023
#032381:00000000000000000053000000000000
#0333b1:0000000000130000
#033381:0000000000000023
#034351:0000000000130000
#034321:0000000000000023
#035321:0000000000130000
#035351:0000000000000023
#036381:0000000000130000
#0363b1:0000000000000023
#039321:0013000000000000
#039351:0000002300000000
#0393b1:0000000000130000
#039381:0000000000003323
#041351:0000000000130000
#041321:0000000000000023
#042381:0000000000130000
#0423b1:0000000000000023
#045351:0000001300000000
#045321:0000000000230000
#045351:0000000000000013
#046321:3333333300333300
#046351:0000000000000023
#046380:0000000000000013
#0473b0:3333333300333300
#047380:0000000000000023
#047351:0000000000000013
#048321:3333333300333300
#048351:0000000000000023
#048380:0000000000000013
#0493b0:3333333300333300
#049380:0000000000000023
#049351:0000000000000013
#050321:3333333300333300
#050351:0000000000000023
#054351:0000000000000013
#055321:0023000000000000
#055381:0000001300000000
#0553b1:0000000000230000
#060321:0013000000000000
#060351:0000000000000023
#060380:0013000000000000
#0603b0:0000000000000023
#065320:0013333300333323
#065360:0033
