This file was generated by Ched 2.7.0.0.
#TITLE ""
#ARTIST ""
#DESIGNER ""
#DIFFICULTY 0
#PLAYLEVEL
#SONGID ""
#WAVE ""
#WAVEOFFSET 0
#JACKET ""
#REQUEST "ticks_per_beat 480"
#00002: 4
#BPM01: 174
#00008: 01
#TIL00: ""
#VOLUME: ""
#HISPEED 00
#MEASUREHS 00
#00018:1200000000000012
#0001a:0012000000001200
#00012:13130013
#0001c:0000120000120000
#00112:00130013
#0011a:0000001200120000
#0011c:0012
#00118:00120012
#00519:0000000022000012
#00515:0000000000002212
#0051c:2222
#00512:00220022
#00518:22
#00516:00220000
#0061c:1200000000000012
#00618:0000121200000000
#00612:1200000000120000
#00614:00000012
#00616:0000001200000012
#00610:41
#00714:12
#00712:0012000000000000
#0071a:12000012
#00718:0012000000000000
#0071c:0000001200000012
#00716:0000001200000012
#01117:0000000000000012
#0111c:0000120000001212
#01118:1212
#0111a:0012000000120000
#01114:12120000
#01116:0000001200000000
#01112:00000012
#01212:0012120000001212
#01217:0000120000000012
#0121c:0012
#0171b:0013000013000013
#01719:0000130000130000
#01717:0000001300001300
#01718:0023000023000023
#01716:0000230000230000
#01714:0000002300002300
#01918:0013001500150013
#0191a:00120012
#0191c:0012
#01915:0023000000000023
#01914:00220022
#01913:0000002500250000
#01912:0022
#0211a:0000000000000012
#02118:0012000000000000
#0211c:00000000000000120000000000000000
#02112:00000000000000120000000000000000
#02114:0000000000000012
#02116:0022000000000000
#02218:0000001200001200
#0221a:00000012000000000000000000001200
#0221c:1212
#02214:0000000000000012
#02212:2200002222001200
#02210:41
#0231c:1212
#0231a:00000012000000000000120000000000
#02318:0000001200001200
#02316:00000000000000120000000000001200
#02312:22000012000000000000000000000000
#0251c:22000012000000000000000012000000
#02516:0000001200001200
#02512:12
#02514:00000012000000000000000000000000
#02518:00000000000000120000000000000000
#0251a:0012
#0251f:11
#0261c:0000001200000012
#0261a:00001212
#02618:0000000000120000
#02614:0000001200002200
#02612:0000220022000012
#02718:0000001200000012
#02714:2200001200002200
#02712:0000220022000012
#0271c:00000000000000000012000000000000
#02818:0000001200000012
#0281a:00001212
#0281c:0000000000120000
#02814:2200001200002200
#02812:0000220022000012
#02918:00000000120000000012000000000000
#0291c:0000001200000012
#02914:2200001200000000
#02912:0000220022002424
#03416:00000012000000000000120000001200
#03418:00120012
#0341c:0012001200120000
#03414:0012
#03412:0000001200001200
#0341a:0012
#0371b:00130013
#03719:0000001300000000
#03716:0000140014001414
#03712:0000000013000013
#03714:0000000000130000
#0411c:0012000000000012
#0411a:00120012
#04118:00000000000012000012000000000000
#04116:0000000012120000
#04112:0012000000000000
#0441c:22000012
#04416:24000014
#0441a:0000220000000012
#04414:0000240000000014
#04418:0022
#04412:0024
#04518:1212000000120000
#04512:1414000000001400
#0451a:00120014
#0451c:0000001200000000
#04516:0000001400000014
#04514:0000140000000012
#04510:0000000000000041
#0511a:0000141400000000
#05112:0000000000141400
#05217:1200120000000012
#0521c:1200000012120000
#05318:0000000000121200
#05317:0012001200000000
#0531c:00000012
#06115:0000001200000000
#06117:00000000000000120000000000000000
#06119:0022
#06112:0000000000220000
#06116:00000022
#0611a:0000000000000022
#0161c:1200000000000012
#0161a:0012000000000000
#01618:0000120000120000
#01616:0000001200000000
#01614:0012
#01612:0000000000120000
#02012:0013001300000012
#0201b:0023001300000000
#02016:00000012
#02018:00000022
#0201c:0000000000000022
#0301a:00000000001400000000000000000000
#03014:00000000001200000000000000000000
#03119:00001200000000000000001500000000
#03112:00000000000000000000000000150000
#0311c:1200001200000000
#03116:00120000
#03113:1200001200000000
#0311b:0000000000210021
#03114:0000000000212100
#03217:00001200120000000012000000001200
#0321c:0012000012120000
#03212:00120000
#0321a:0000001200001200
#0381b:0013000013000013
#03816:0014140014001414
#03812:00130013
#03814:0000001300000000
#03819:0000000000130000
#0431c:0012000000120000
#0431a:00121200
#04317:0000000000000012
#04312:0000000000000012
#04318:0000001200000000
#06218:0000120012121200
#06216:0000000000000012
#06212:00120012
#0621c:0000000000000012
#06312:0012000000120000
#0631a:0000001200000000
#0631c:00000012
#06318:0012000000120000
#06316:0000001200001200
#0641c:0012
#06417:0000000012000012
#06412:0000000000000012
#0661a:0000000000120000
#06616:0000000000000012
#0661c:00120000
#06618:0012
#0671c:0012000000000000
#06716:0000001200000000
#06718:0000000000120000
#06712:00000012
#00216:1200003200000012
#00214:0012000000001200
#0021b:13130013
#00212:0000120000120000
#0031b:00130013
#00314:0000001200120000
#00312:0012
#00316:00120012
#00812:12
#00814:0012000000000000
#00816:0000120000120012
#00818:0000001200000000
#0081a:0012
#0081c:0000000000120012
#00819:00000012
#00918:00000012000000000000000012000000
#00912:00000012000000000000000000000000
#0091a:0000000000120000
#00916:0000000000000012
#01014:12000012
#01016:0012000000120012
#01018:00121212
#0101a:0000001200000000
#0101c:1212
#01012:00120000
#01318:00000012
#01317:00000000001200000000000000000000
#0131c:0012121200000000
#0131b:0012
#0131a:0000000000120000
#01315:0000000000000012
#01319:0000000000000012
#01412:1200000000000012
#01416:0000121200000000
#0141c:1200000000120000
#0141a:00000012
#01418:0000001200000012
#01410:41
#0151a:12
#0151c:0012000000000000
#01514:12000012
#01516:0012000000000000
#01512:0000001200000012
#01518:0000001200000012
#01812:0013000013000013
#01814:0000130000130000
#01816:0000001300001300
#01815:0023000023000023
#01817:0000230000230000
#01819:0000002300002300
#02416:0000001200001200
#02414:00000012000000000000000000001200
#02412:1212
#0241a:0000000000000012
#0241c:2200002222001200
#03312:0012000000001200
#03318:0000000000120022
#0331c:00000012
#03316:0000000000000022
#0331f:0000000000000021
#0351c:00000012
#03516:0000000000120022
#03512:00120012
#03518:0000000000000022
#03510:00410000
#03618:00000012000000000000120000001200
#03616:00120012
#03612:0012001200120000
#0361a:0012
#0361c:0000001200001200
#03614:0012
#0501a:0000001400000000
#05013:0012000000000000
#05012:0000121200220024
#05014:12000022
#04912:0000001400000000
#04916:000000000000000000000000000000000000000000000000000000000000000000000000000000000000000000000000000000000000000000000000000000000000000000000000000000000000000000000000000000000000000000000000000000000000000000000000000000000000000000000000000000000000000000000000000000000000000000000000000000000000000000000000000000000000000000000000000000000000000000000000000000000000000000000000000000000000000000000000000000000000000000000000000000000000000000000000000000000000000000000000000000000000000000000000000000000000000000000000000000000000000000000000000000000000000000000000000000000000000000000000000000000000000000000000000000000000000000000000000000000000000000000000000000000000000000000000000000000000000000000000000000000000000000000000000000000000000000000000000000000000000000000000000000000000000000000000000000000000000000000000000000000000000000000000000000000000000000000000000000000000000000000000000000000000000000000000000000000000000000000000000000000000000000000000000000000000000000000000000000000000000000000000000000000000000000000000000000000000000000000000000000000000000000000000000000000000000000000000000000000000000000000000000000000000000000000000000000000000000000000000000000000000000000000000000000000000000000000000000000000000000000000000000000000000000000000000000000000000000000000000000000000000000000000000000000000000000000000000000000000000000000000000000000000000000000000000000000000000000000000000000000000000000000000000000000000000000000000000000000000000000000000000000000000000000000000000000000000000000000000000000000000000000000000000000000000000000000000000000000000000000000000000000000000000000000000000000000000000000000000014000000000000000000000000000000000000000000000000000000000000000000000000000000000000000000000000000000000000000000000000000000000000000000000000000000000000000000000000000000000000000000000000000000000000000000000000000000000000000000000000
#0491a:12000012
#0491c:0000121200120000
#0491b:0012000000000000
#04918:0000000000000022
#0481a:0000001400000000
#04816:000000000000000000000000000000000000000000000000000000000000000000000000000000000000000000000000000000000000000000000000000000000000000000000000000000000000000000000000000000000000000000000000000000000000000000000000000000000000000000000000000000000000000000000000000000000000000000000000000000000000000000000000000000000000000000000000000000000000000000000000000000000000000000000000000000000000000000000000000000000000000000000000000000000000000000000000000000000000000000000000000000000000000000000000000000000000000000000000000000000000000000000000000000000000000000000000000000000000000000000000000000000000000000000000000000000000000000000000000000000000000000000000000000000000000000000000000000000000000000000000000000000000000000000000000000000000000000000000000000000000000000000000000000000000000000000000000000000000000000000000000000000000000000000000000000000000000000000000000000000000000000000000000000000000000000000000000000000000000000000000000000000000000000000000000000000000000000000000000000000000000000000000000000000000000000000000000000000000000000000000000000000000000000000000000000000000000000000000000000000000000000000000000000000000000000000000000000000000000000000000000000000000000000000000000000000000000000000000000000000000000000000000000000000000000000000000000000000000000000000000000000000000000000000000000000000000000000000000000000000000000000000000000000000000000000000000000000000000000000000000000000000000000000000000000000000000000000000000000000000000000000000000000000000000000000000000000000000000000000000000000000000000000000000000000000000000000000000000000000000000000000000000000000000000000000000000000000000000000000000000000000000000000000000000000000000000000000000000000000000000000000000000000000000000000000000000000000000000000000000000000000000000000000000000000000000000000000000000000000000000000000000000000000000000000000000000000000000000000000000000000000000000000000000000000000000000000000000000000000000000000000000000000000000000000000000000000000000000000000000000000000000000000000000000000000000000000000000000000000000000000000000000000000000000000000000000000000000000000000000000000000000000000000000000000000000000000000000000000000000000000000000000000000000000000000000000000000000000000000000000000000000000000000000000000000000000000000000000000000000000000000000000000000000000000000000000000000000000000000000000000000000000000000000000000000000000000000000000000000000000000000000000000000000000000000000000000000000000000000000000000000000000000000000000000000000000000000000000000000000000000000000000000000000000000000000000000000000000000000000000000000000000000000000000000000000000000000000000000000000000000000000000000000000000000000000000000000000000000000000000000000000000000000000000000000000000000000000000000000000000000000000000000000000000000000000000000000000000000000000000000000000000000000000000000000000000000000000000000000000000000000000000000000000000000000000000000000000000000000000000000000000000000000000000000000000000000000000000000000000000000000000000000000000000000000000000000000000000000000000000000000000000000000000000000000000000000000000000000000000000000000000000000000000000000000000000000000000000000000000000000000000000000000000000000000000000000000000000000000000000000000000000000000000000000000000000000000000000000000000014220000000000000000000000000000000000000000000000000000000000000000000000000000000000000000000000000000000000000000000000000000000000000000000000000000000000000000000000000000000000000000000000000000000000000000000000000000000000000000000000000000000000000000000000000000000000000000000000000000000000000000000000000000000000000000000000000000000000000000000000000000000000000000000000000000000000000000000000000000000000000000000000000000000000000000000000000000000000000000000000
#04814:12000012
#04813:0012000000000000
#04812:0000121200120000
#04712:0000001400000000
#04716:000000000000000000000000000000000000000000000000000000000000000000000000000000000000000000000000000000000000000000000000000000000000000000000000000000000000000000000000000000000000000000000000000000000000000000000000000000000000000000000000000000000000000000000000000000000000000000000000000000000000000000000000000000000000000000000000000000000000000000000000000000000000000000000000000000000000000000000000000000000000000000000000000000000000000000000000000000000000000000000000000000000000000000000000000000000000000000000000000000000000000000000000000000000000000000000000000000000000000000000000000000000000000000000000000000000000000000000000000000000000000000000000000000000000000000000000000000000000000000000000000000000000000000000000000000000000000000000000000000000000000000000000000000000000000000000000000000000000000000000000000000000000000000000000000000000000000000000000000000000000000000000000000000000000000000000000000000000000000000000000000000000000000000000000000000000000000000000000000000000000000000000000000000000000000000000000000000000000000000000000000000000000000000000000000000000000000000000000000000000000000000000000000000000000000000000000000000000000000000000000000000000000000000000000000000000000000000000000000000000000000000000000000000000000000000000000000000000000000000000000000000000000000000000000000000000000000000000000000000000000000000000000000000000000000000000000000000000000000000000000000000000000000000000000000000000000000000000000000000000000000000000000000000000000000000000000000000000000000000000000000000000000000000000000000000000000000000000000000000000000000000000000000000000000000000000000000000000000000000000014000000000000000000000000000000000000000000000000000000000000000000000000000000000000000000000000000000000000000000000000000000000000000000000000000000000000000000000000000000000000000000000000000000000000000000000000000000000000000000000000
#0471a:12000012
#0471b:0012000000000000
#0471c:0000121200120000
#04718:0000000000000022
#0461a:0000001400000000
#04616:000000000000000000000000000000000000000000000000000000000000000000000000000000000000000000000000000000000000000000000000000000000000000000000000000000000000000000000000000000000000000000000000000000000000000000000000000000000000000000000000000000000000000000000000000000000000000000000000000000000000000000000000000000000000000000000000000000000000000000000000000000000000000000000000000000000000000000000000000000000000000000000000000000000000000000000000000000000000000000000000000000000000000000000000000000000000000000000000000000000000000000000000000000000000000000000000000000000000000000000000000000000000000000000000000000000000000000000000000000000000000000000000000000000000000000000000000000000000000000000000000000000000000000000000000000000000000000000000000000000000000000000000000000000000000000000000000000000000000000000000000000000000000000000000000000000000000000000000000000000000000000000000000000000000000000000000000000000000000000000000000000000000000000000000000000000000000000000000000000000000000000000000000000000000000000000000000000000000000000000000000000000000000000000000000000000000000000000000000000000000000000000000000000000000000000000000000000000000000000000000000000000000000000000000000000000000000000000000000000000000000000000000000000000000000000000000000000000000000000000000000000000000000000000000000000000000000000000000000000000000000000000000000000000000000000000000000000000000000000000000000000000000000000000000000000000000000000000000000000000000000000000000000000000000000000000000000000000000000000000000000000000000000000000000000000000000000000000000000000000000000000000000000000000000000000000000000000000000000000000000000000000000000000000000000000000000000000000000000000000000000000000000000000000000000000000000000000000000000000000000000000000000000000000000000000000000000000000000000000000000000000000000000000000000000000000000000000000000000000000000000000000000000000000000000000000000000000000000000000000000000000000000000000000000000000000000000000000000000000000000000000000000000000000000000000000000000000000000000000000000000000000000000000000000000000000000000000000000000000000000000000000000000000000000000000000000000000000000000000000000000000000000000000000000000000000000000000000000000000000000000000000000000000000000000000000000000000000000000000000000000000000000000000000000000000000000000000000000000000000000000000000000000000000000000000000000000000000000000000000000000000000000000000000000000000000000000000000000000000000000000000000000000000000000000000000000000000000000000000000000000000000000000000000000000000000000000000000000000000000000000000000000000000000000000000000000000000000000000000000000000000000000000000000000000000000000000000000000000000000000000000000000000000000000000000000000000000000000000000000000000000000000000000000000000000000000000000000000000000000000000000000000000000000000000000000000000000000000000000000000000000000000000000000000000000000000000000000000000000000000000000000000000000000000000000000000000000000000000000000000000000000000000000000000000000000000000000000000000000000000000000000000000000000000000000000000000000000000000000000000000000000000000000000000000000000000000000000000000000000000000000000000000000000000000000000000000000000000000000000000000000000000000000000000000000000000000000000000000000000014220000000000000000000000000000000000000000000000000000000000000000000000000000000000000000000000000000000000000000000000000000000000000000000000000000000000000000000000000000000000000000000000000000000000000000000000000000000000000000000000000000000000000000000000000000000000000000000000000000000000000000000000000000000000000000000000000000000000000000000000000000000000000000000000000000000000000000000000000000000000000000000000000000000000000000000000000000000000000000000000
#04613:12
#04612:0012121200120000
#04614:00000012
#03916:00140014
#03912:0023000000000000
#0391b:0000000000230000
#04017:0012000000120000
#0401c:0012000000000000
#04012:0000232300120000
#04016:0000002400000024
#0401b:0000000000002323
#04212:0012000000000012
#04214:00120012
#04216:00000000000012000012000000000000
#04218:0000000012120000
#0421c:0012000000000000
#05418:00120000
#05410:00410000
#05514:0012000000000000
#0551b:0000001300001300
#05516:0000000000001424
#05518:0013
#05512:0000001300000023
#05515:0013
#05716:00000000000000000000120012000012
#05717:0012001200000000
#05712:00000012
#05718:0000000000000012
#05617:0000120000000012
#05612:0000000012120000
#05912:0012000000000000
#05915:00120000
#05918:0012001200000012
#0591c:0012
#05919:0000000000120000
#05916:00000000000000001200000012000012
#06019:1212121214141424
#06015:1212121200000000
#06013:0000000014141424
#06518:0012000012000000
#0651a:00120000
#06516:0000001200001200
#06514:0000000000120000
#0581b:2323000000002323
#05816:2424002424002424
#05812:0000002323000000
#0041c:2222
#0041a:00220000
#00412:00220022
#00416:0022
#00414:22
#00418:00000022
#05358:00000012
#0535c:0012000000120000
#05352:0000001200000000
#05357:0052005200000000
#0005c:00520000
#00058:0000000000000052
#00652:52
#00658:0000005200000000
#0115c:0000000000000052
#0165c:0000000000000012
#01652:0000000000520000
#01656:0000000000000012
#0205b:0053005300000000
#02052:0053005300000000
#02156:0062000000000000
#02158:0062000000000000
#02152:00000000000000220000000000000000
#0215c:00000000000000220000000000000000
#0235c:0012
#02556:00000052
#0255c:00000052
#02652:12
#02658:12
#0265c:0000000000000052
#02758:0000005200000052
#0275c:00000000000000000022000000000000
#02858:0000000000000052
#0295c:0000005200000052
#02952:0000000000000054
#02958:00000000000000000022000000000000
#0305a:00000000002400000000000000000000
#03054:00000000002200000000000000000000
#0315b:0000000000210000
#03159:00000000000000000000005500000000
#03152:00000000000000000000000000650000
#03154:00000021
#03356:0000000000000012
#03358:0000000000520012
#0335c:00000022
#0345c:0000000000620042
#03458:00000022
#03756:0000140014001414
#03752:0000000000000013
#0375b:00000013
#04056:0000001400000014
#04152:0000000000000012
#04156:0000000000520000
#0415c:0000000000000012
#04556:0000005400000054
#05152:00000014
#05156:00000014
#05556:0000000000000014
#05552:0000006300000013
#0555b:0000005300000000
#05558:0023
#05555:0023
#0585b:0013000000000013
#05856:0014000014000014
#05852:0013
#06352:0012000000120000
#0635a:0000001200000000
#0635c:00000012
#0675c:0012000000000000
#06756:0000001200000000
#06758:0000000000120000
#06752:00000012
#00256:0000000000000062
#00252:00620000
#00758:0052000000000000
#0075c:0000005200000000
#00756:0000005200000000
#0085c:0000000000520052
#00856:0000000000000052
#00859:00000022
#00958:00000022000000000000000000000000
#00952:00000022000000000000000000000000
#01257:00520000
#01252:0000000000000052
#0125c:0022
#01357:00000000002200000000000000000000
#01456:0000006200000000
#0145c:62
#01556:0062000000000000
#01552:0000006200000000
#01558:0000006200000000
#01958:0000000000000013
#01955:0000000000000013
#02252:1212
#0245c:1212
#03252:00520000
#03257:00000000000000000022000000000000
#03556:0000000000620012
#03552:00000022
#03558:0000000000000012
#03652:0000000000520032
#03656:00000022
#0465a:0000002400000000
#04656:000000000000000000000000000000000000000000000000000000000000000000000000000000000000000000000000000000000000000000000000000000000000000000000000000000000000000000000000000000000000000000000000000000000000000000000000000000000000000000000000000000000000000000000000000000000000000000000000000000000000000000000000000000000000000000000000000000000000000000000000000000000000000000000000000000000000000000000000000000000000000000000000000000000000000000000000000000000000000000000000000000000000000000000000000000000000000000000000000000000000000000000000000000000000000000000000000000000000000000000000000000000000000000000000000000000000000000000000000000000000000000000000000000000000000000000000000000000000000000000000000000000000000000000000000000000000000000000000000000000000000000000000000000000000000000000000000000000000000000000000000000000000000000000000000000000000000000000000000000000000000000000000000000000000000000000000000000000000000000000000000000000000000000000000000000000000000000000000000000000000000000000000000000000000000000000000000000000000000000000000000000000000000000000000000000000000000000000000000000000000000000000000000000000000000000000000000000000000000000000000000000000000000000000000000000000000000000000000000000000000000000000000000000000000000000000000000000000000000000000000000000000000000000000000000000000000000000000000000000000000000000000000000000000000000000000000000000000000000000000000000000000000000000000000000000000000000000000000000000000000000000000000000000000000000000000000000000000000000000000000000000000000000000000000000000000000000000000000000000000000000000000000000000000000000000000000000000000000000000000000000000000000000000000000000000000000000000000000000000000000000000000000000000000000000000000000000000000000000000000000000000000000000000000000000000000000000000000000000000000000000000000000000000000000000000000000000000000000000000000000000000000000000000000000000000000000000000000000000000000000000000000000000000000000000000000000000000000000000000000000000000000000000000000000000000000000000000000000000000000000000000000000000000000000000000000000000000000000000000000000000000000000000000000000000000000000000000000000000000000000000000000000000000000000000000000000000000000000000000000000000000000000000000000000000000000000000000000000000000000000000000000000000000000000000000000000000000000000000000000000000000000000000000000000000000000000000000000000000000000000000000000000000000000000000000000000000000000000000000000000000000000000000000000000000000000000000000000000000000000000000000000000000000000000000000000000000000000000000000000000000000000000000000000000000000000000000000000000000000000000000000000000000000000000000000000000000000000000000000000000000000000000000000000000000000000000000000000000000000000000000000000000000000000000000000000000000000000000000000000000000000000000000000000000000000000000000000000000000000000000000000000000000000000000000000000000000000000000000000000000000000000000000000000000000000000000000000000000000000000000000000000000000000000000000000000000000000000000000000000000000000000000000000000000000000000000000000000000000000000000000000000000000000000000000000000000000000000000000000000000000000000000000000000000000000000000000000000000000000000000000000000000000000000000000000000000000000000000000000000054000000000000000000000000000000000000000000000000000000000000000000000000000000000000000000000000000000000000000000000000000000000000000000000000000000000000000000000000000000000000000000000000000000000000000000000000000000000000000000000000000000000000000000000000000000000000000000000000000000000000000000000000000000000000000000000000000000000000000000000000000000000000000000000000000000000000000000000000000000000000000000000000000000000000000000000000000000000000000000000000
#04752:0000002400000000
#04756:000000000000000000000000000000000000000000000000000000000000000000000000000000000000000000000000000000000000000000000000000000000000000000000000000000000000000000000000000000000000000000000000000000000000000000000000000000000000000000000000000000000000000000000000000000000000000000000000000000000000000000000000000000000000000000000000000000000000000000000000000000000000000000000000000000000000000000000000000000000000000000000000000000000000000000000000000000000000000000000000000000000000000000000000000000000000000000000000000000000000000000000000000000000000000000000000000000000000000000000000000000000000000000000000000000000000000000000000000000000000000000000000000000000000000000000000000000000000000000000000000000000000000000000000000000000000000000000000000000000000000000000000000000000000000000000000000000000000000000000000000000000000000000000000000000000000000000000000000000000000000000000000000000000000000000000000000000000000000000000000000000000000000000000000000000000000000000000000000000000000000000000000000000000000000000000000000000000000000000000000000000000000000000000000000000000000000000000000000000000000000000000000000000000000000000000000000000000000000000000000000000000000000000000000000000000000000000000000000000000000000000000000000000000000000000000000000000000000000000000000000000000000000000000000000000000000000000000000000000000000000000000000000000000000000000000000000000000000000000000000000000000000000000000000000000000000000000000000000000000000000000000000000000000000000000000000000000000000000000000000000000000000000000000000000000000000000000000000000000000000000000000000000000000000000000000000000000000000000000000054000000000000000000000000000000000000000000000000000000000000000000000000000000000000000000000000000000000000000000000000000000000000000000000000000000000000000000000000000000000000000000000000000000000000000000000000000000000000000000000000
#0485a:0000002400000000
#04856:000000000000000000000000000000000000000000000000000000000000000000000000000000000000000000000000000000000000000000000000000000000000000000000000000000000000000000000000000000000000000000000000000000000000000000000000000000000000000000000000000000000000000000000000000000000000000000000000000000000000000000000000000000000000000000000000000000000000000000000000000000000000000000000000000000000000000000000000000000000000000000000000000000000000000000000000000000000000000000000000000000000000000000000000000000000000000000000000000000000000000000000000000000000000000000000000000000000000000000000000000000000000000000000000000000000000000000000000000000000000000000000000000000000000000000000000000000000000000000000000000000000000000000000000000000000000000000000000000000000000000000000000000000000000000000000000000000000000000000000000000000000000000000000000000000000000000000000000000000000000000000000000000000000000000000000000000000000000000000000000000000000000000000000000000000000000000000000000000000000000000000000000000000000000000000000000000000000000000000000000000000000000000000000000000000000000000000000000000000000000000000000000000000000000000000000000000000000000000000000000000000000000000000000000000000000000000000000000000000000000000000000000000000000000000000000000000000000000000000000000000000000000000000000000000000000000000000000000000000000000000000000000000000000000000000000000000000000000000000000000000000000000000000000000000000000000000000000000000000000000000000000000000000000000000000000000000000000000000000000000000000000000000000000000000000000000000000000000000000000000000000000000000000000000000000000000000000000000000000000000000000000000000000000000000000000000000000000000000000000000000000000000000000000000000000000000000000000000000000000000000000000000000000000000000000000000000000000000000000000000000000000000000000000000000000000000000000000000000000000000000000000000000000000000000000000000000000000000000000000000000000000000000000000000000000000000000000000000000000000000000000000000000000000000000000000000000000000000000000000000000000000000000000000000000000000000000000000000000000000000000000000000000000000000000000000000000000000000000000000000000000000000000000000000000000000000000000000000000000000000000000000000000000000000000000000000000000000000000000000000000000000000000000000000000000000000000000000000000000000000000000000000000000000000000000000000000000000000000000000000000000000000000000000000000000000000000000000000000000000000000000000000000000000000000000000000000000000000000000000000000000000000000000000000000000000000000000000000000000000000000000000000000000000000000000000000000000000000000000000000000000000000000000000000000000000000000000000000000000000000000000000000000000000000000000000000000000000000000000000000000000000000000000000000000000000000000000000000000000000000000000000000000000000000000000000000000000000000000000000000000000000000000000000000000000000000000000000000000000000000000000000000000000000000000000000000000000000000000000000000000000000000000000000000000000000000000000000000000000000000000000000000000000000000000000000000000000000000000000000000000000000000000000000000000000000000000000000000000000000000000000000000000000000000000000000000000000000000000000000000000000000000000000000000000000000000000000000000000000000054000000000000000000000000000000000000000000000000000000000000000000000000000000000000000000000000000000000000000000000000000000000000000000000000000000000000000000000000000000000000000000000000000000000000000000000000000000000000000000000000000000000000000000000000000000000000000000000000000000000000000000000000000000000000000000000000000000000000000000000000000000000000000000000000000000000000000000000000000000000000000000000000000000000000000000000000000000000000000000000000
#04952:0000002400000000
#04956:000000000000000000000000000000000000000000000000000000000000000000000000000000000000000000000000000000000000000000000000000000000000000000000000000000000000000000000000000000000000000000000000000000000000000000000000000000000000000000000000000000000000000000000000000000000000000000000000000000000000000000000000000000000000000000000000000000000000000000000000000000000000000000000000000000000000000000000000000000000000000000000000000000000000000000000000000000000000000000000000000000000000000000000000000000000000000000000000000000000000000000000000000000000000000000000000000000000000000000000000000000000000000000000000000000000000000000000000000000000000000000000000000000000000000000000000000000000000000000000000000000000000000000000000000000000000000000000000000000000000000000000000000000000000000000000000000000000000000000000000000000000000000000000000000000000000000000000000000000000000000000000000000000000000000000000000000000000000000000000000000000000000000000000000000000000000000000000000000000000000000000000000000000000000000000000000000000000000000000000000000000000000000000000000000000000000000000000000000000000000000000000000000000000000000000000000000000000000000000000000000000000000000000000000000000000000000000000000000000000000000000000000000000000000000000000000000000000000000000000000000000000000000000000000000000000000000000000000000000000000000000000000000000000000000000000000000000000000000000000000000000000000000000000000000000000000000000000000000000000000000000000000000000000000000000000000000000000000000000000000000000000000000000000000000000000000000000000000000000000000000000000000000000000000000000000000000000000000000000000054000000000000000000000000000000000000000000000000000000000000000000000000000000000000000000000000000000000000000000000000000000000000000000000000000000000000000000000000000000000000000000000000000000000000000000000000000000000000000000000000
#0505a:0000002400000000
#03856:0000140014001414
#0385b:0000000000000013
#03852:00000013
#03952:0023000000000013
#0395b:0000001300230000
#03956:0000541400005414
#04258:0000000000620000
#04252:0000000000000012
#0425c:0000000000000012
#0445c:12
#0445a:00120000
#04458:0012
#05257:0000000000000052
#05756:00000012
#05757:0062006200000000
#05752:0012000000120000
#0575c:0000001200000000
#05657:0000000000000062
#06059:0000000000000014
#06053:0000000000000014
#0615a:0000000000000012
#0003c0:00120000
#000380:0022
#000380:0000000000000012
#0013c0:0022000000000000
#002320:00120000
#002360:0000003222000000
#002360:0000000000000012
#003320:0022000000000000
#006320:12
#006360:00220000
#006380:0000001200000000
#0063c0:0000000000220000
#007380:0012000000220000
#0073c0:0000003200000000
#007361:0000001200000000
#007321:0000000000220000
#0083c1:0000000000120032
#008391:00000052
#009381:00000052000000000000000000000000
#0093c1:0022
#008360:0000000000000012
#009320:00000052000000000000000000000000
#009360:0022
#0113c0:0000000000000012
#012370:0022000000000000
#012370:00120022
#0123c0:0052
#012320:0000000000000012
#013370:00000000005200000000000000000000
#013320:00000022
#0143c0:12
#014380:00220000
#014360:0000001200000000
#014320:0000000000220000
#015360:0012000000220000
#015320:0000003200000000
#015381:0000001200000000
#0153c1:0000000000220000
#016321:0000000000120000
#016361:0000000000000022
#0203b1:0013000000230000
#020321:0000003300000000
#020320:0013000000230000
#0203b0:0000003300000000
#021360:0012000000002200
#021320:00000000000000520000000000000000
#021381:0012000000002200
#0213c1:00000000000000520000000000000000
#025321:0012
#025361:00000032
#026321:22
#0253c0:00000012
#026380:22
#0263c0:0000000000000012
#027380:00220000
#027380:0000001200002200
#0273c0:00000000000000000052000000000000
#027380:0000000000000012
#0283c0:00220000
#028380:0000000000000012
#0293c0:0022000000000000
#0293c0:0000001200002200
#029380:00000000000000000052000000000000
#029320:0000000000000014
#0303a0:00000000005400000000000000000000
#030320:00000024
#0293c1:0000000000000012
#030341:00000000005200000000000000000000
#0303c1:00000022
#0313b1:0000000000112100
#031391:00000000000000000000005500000000
#031340:0000000000001121
#031320:00000000000000000000000000550000
#032320:0000120000000022
#032370:00000000000000000052000000000000
#0333c0:0012000000000000
#0333a0:00220000
#033331:00120000
#033351:0000002200000000
#0333a0:0000001200000000
#033380:0022
#033361:0000000012220000
#033380:0000000000120022
#0333c0:00000052
#0343c0:0000000000120022
#034380:00000052
#0353b0:00120000
#035390:0000002200000000
#035341:0000001200000000
#035361:0022
#035380:0000000012220000
#035361:0000000000120022
#035321:00000052
#036321:0000000000120022
#036361:00000052
#039321:0013000000000000
#039361:00540000
#0393b1:0000002300000000
#039360:0014002400000000
#0393b0:0000000000130000
#039360:00000034
#039320:0000000000000023
#039361:0000000000140024
#041361:0000000000120000
#041321:0000000000000022
#042381:0000000000120000
#0423c1:0000000000000022
#043321:0012000000220000
#043341:00323200
#043361:0000003200000000
#045361:0000001400000000
#045321:0000000000240000
#045361:0000000000000014
#0463a1:0000005400000000
#046361:000000000000000000000000000000000000000000000000000000000000000000000000000000000000000000000000000000000000000000000000000000000000000000000000000000000000000000000000000000000000000000000000000000000000000000000000000000000000000000000000000000000000000000000000000000000000000000000000000000000000000000000000000000000000000000000000000000000000000000000000000000000000000000000000000000000000000000000000000000000000000000000000000000000000000000000000000000000000000000000000000000000000000000000000000000000000000000000000000000000000000000000000000000000000000000000000000000000000000000000000000000000000000000000000000000000000000000000000000000000000000000000000000000000000000000000000000000000000000000000000000000000000000000000000000000000000000000000000000000000000000000000000000000000000000000000000000000000000000000000000000000000000000000000000000000000000000000000000000000000000000000000000000000000000000000000000000000000000000000000000000000000000000000000000000000000000000000000000000000000000000000000000000000000000000000000000000000000000000000000000000000000000000000000000000000000000000000000000000000000000000000000000000000000000000000000000000000000000000000000000000000000000000000000000000000000000000000000000000000000000000000000000000000000000000000000000000000000000000000000000000000000000000000000000000000000000000000000000000000000000000000000000000000000000000000000000000000000000000000000000000000000000000000000000000000000000000000000000000000000000000000000000000000000000000000000000000000000000000000000000000000000000000000000000000000000000000000000000000000000000000000000000000000000000000000000000000000000000000000000000000000000000000000000000000000000000000000000000000000000000000000000000000000000000000000000000000000000000000000000000000000000000000000000000000000000000000000000000000000000000000000000000000000000000000000000000000000000000000000000000000000000000000000000000000000000000000000000000000000000000000000000000000000000000000000000000000000000000000000000000000000000000000000000000000000000000000000000000000000000000000000000000000000000000000000000000000000000000000000000000000000000000000000000000000000000000000000000000000000000000000000000000000000000000000000000000000000000000000000000000000000000000000000000000000000000000000000000000000000000000000000000000000000000000000000000000000000000000000000000000000000000000000000000000000000000000000000000000000000000000000000000000000000000000000000000000000000000000000000000000000000000000000000000000000000000000000000000000000000000000000000000000000000000000000000000000000000000000000000000000000000000000000000000000000000000000000000000000000000000000000000000000000000000000000000000000000000000000000000000000000000000000000000000000000000000000000000000000000000000000000000000000000000000000000000000000000000000000000000000000000000000000000000000000000000000000000000000000000000000000000000000000000000000000000000000000000000000000000000000000000000000000000000000000000000000000000000000000000000000000000000000000000000000000000000000000000000000000000000000000000000000000000000000000000000000000000000000000000000000000000000000000000000000000000000000000000000000000000000000000000000000000000000000000000000000000000000000000000000000000000000000000000000000000000000000000000000000000000000000054000000000000000000000000000000000000000000000000000000000000000000000000000000000000000000000000000000000000000000000000000000000000000000000000000000000000000000000000000000000000000000000000000000000000000000000000000000000000000000000000000000000000000000000000000000000000000000000000000000000000000000000000000000000000000000000000000000000000000000000000000000000000000000000000000000000000000000000000000000000000000000000000000000000000000000000000000000000000000000000000
#047321:0000005400000000
#047361:000000000000000000000000000000000000000000000000000000000000000000000000000000000000000000000000000000000000000000000000000000000000000000000000000000000000000000000000000000000000000000000000000000000000000000000000000000000000000000000000000000000000000000000000000000000000000000000000000000000000000000000000000000000000000000000000000000000000000000000000000000000000000000000000000000000000000000000000000000000000000000000000000000000000000000000000000000000000000000000000000000000000000000000000000000000000000000000000000000000000000000000000000000000000000000000000000000000000000000000000000000000000000000000000000000000000000000000000000000000000000000000000000000000000000000000000000000000000000000000000000000000000000000000000000000000000000000000000000000000000000000000000000000000000000000000000000000000000000000000000000000000000000000000000000000000000000000000000000000000000000000000000000000000000000000000000000000000000000000000000000000000000000000000000000000000000000000000000000000000000000000000000000000000000000000000000000000000000000000000000000000000000000000000000000000000000000000000000000000000000000000000000000000000000000000000000000000000000000000000000000000000000000000000000000000000000000000000000000000000000000000000000000000000000000000000000000000000000000000000000000000000000000000000000000000000000000000000000000000000000000000000000000000000000000000000000000000000000000000000000000000000000000000000000000000000000000000000000000000000000000000000000000000000000000000000000000000000000000000000000000000000000000000000000000000000000000000000000000000000000000000000000000000000000000000000000000000000000000000000054000000000000000000000000000000000000000000000000000000000000000000000000000000000000000000000000000000000000000000000000000000000000000000000000000000000000000000000000000000000000000000000000000000000000000000000000000000000000000000000000
#0483a1:0000005400000000
#048361:000000000000000000000000000000000000000000000000000000000000000000000000000000000000000000000000000000000000000000000000000000000000000000000000000000000000000000000000000000000000000000000000000000000000000000000000000000000000000000000000000000000000000000000000000000000000000000000000000000000000000000000000000000000000000000000000000000000000000000000000000000000000000000000000000000000000000000000000000000000000000000000000000000000000000000000000000000000000000000000000000000000000000000000000000000000000000000000000000000000000000000000000000000000000000000000000000000000000000000000000000000000000000000000000000000000000000000000000000000000000000000000000000000000000000000000000000000000000000000000000000000000000000000000000000000000000000000000000000000000000000000000000000000000000000000000000000000000000000000000000000000000000000000000000000000000000000000000000000000000000000000000000000000000000000000000000000000000000000000000000000000000000000000000000000000000000000000000000000000000000000000000000000000000000000000000000000000000000000000000000000000000000000000000000000000000000000000000000000000000000000000000000000000000000000000000000000000000000000000000000000000000000000000000000000000000000000000000000000000000000000000000000000000000000000000000000000000000000000000000000000000000000000000000000000000000000000000000000000000000000000000000000000000000000000000000000000000000000000000000000000000000000000000000000000000000000000000000000000000000000000000000000000000000000000000000000000000000000000000000000000000000000000000000000000000000000000000000000000000000000000000000000000000000000000000000000000000000000000000000000000000000000000000000000000000000000000000000000000000000000000000000000000000000000000000000000000000000000000000000000000000000000000000000000000000000000000000000000000000000000000000000000000000000000000000000000000000000000000000000000000000000000000000000000000000000000000000000000000000000000000000000000000000000000000000000000000000000000000000000000000000000000000000000000000000000000000000000000000000000000000000000000000000000000000000000000000000000000000000000000000000000000000000000000000000000000000000000000000000000000000000000000000000000000000000000000000000000000000000000000000000000000000000000000000000000000000000000000000000000000000000000000000000000000000000000000000000000000000000000000000000000000000000000000000000000000000000000000000000000000000000000000000000000000000000000000000000000000000000000000000000000000000000000000000000000000000000000000000000000000000000000000000000000000000000000000000000000000000000000000000000000000000000000000000000000000000000000000000000000000000000000000000000000000000000000000000000000000000000000000000000000000000000000000000000000000000000000000000000000000000000000000000000000000000000000000000000000000000000000000000000000000000000000000000000000000000000000000000000000000000000000000000000000000000000000000000000000000000000000000000000000000000000000000000000000000000000000000000000000000000000000000000000000000000000000000000000000000000000000000000000000000000000000000000000000000000000000000000000000000000000000000000000000000000000000000000000000000000000000000000000000000000000000000000000000000000000000000000000000000000000000000000000000000000000000000000000000000000000000054000000000000000000000000000000000000000000000000000000000000000000000000000000000000000000000000000000000000000000000000000000000000000000000000000000000000000000000000000000000000000000000000000000000000000000000000000000000000000000000000000000000000000000000000000000000000000000000000000000000000000000000000000000000000000000000000000000000000000000000000000000000000000000000000000000000000000000000000000000000000000000000000000000000000000000000000000000000000000000000000
#049321:0000005400000000
#049361:000000000000000000000000000000000000000000000000000000000000000000000000000000000000000000000000000000000000000000000000000000000000000000000000000000000000000000000000000000000000000000000000000000000000000000000000000000000000000000000000000000000000000000000000000000000000000000000000000000000000000000000000000000000000000000000000000000000000000000000000000000000000000000000000000000000000000000000000000000000000000000000000000000000000000000000000000000000000000000000000000000000000000000000000000000000000000000000000000000000000000000000000000000000000000000000000000000000000000000000000000000000000000000000000000000000000000000000000000000000000000000000000000000000000000000000000000000000000000000000000000000000000000000000000000000000000000000000000000000000000000000000000000000000000000000000000000000000000000000000000000000000000000000000000000000000000000000000000000000000000000000000000000000000000000000000000000000000000000000000000000000000000000000000000000000000000000000000000000000000000000000000000000000000000000000000000000000000000000000000000000000000000000000000000000000000000000000000000000000000000000000000000000000000000000000000000000000000000000000000000000000000000000000000000000000000000000000000000000000000000000000000000000000000000000000000000000000000000000000000000000000000000000000000000000000000000000000000000000000000000000000000000000000000000000000000000000000000000000000000000000000000000000000000000000000000000000000000000000000000000000000000000000000000000000000000000000000000000000000000000000000000000000000000000000000000000000000000000000000000000000000000000000000000000000000000000000000000000000000000054000000000000000000000000000000000000000000000000000000000000000000000000000000000000000000000000000000000000000000000000000000000000000000000000000000000000000000000000000000000000000000000000000000000000000000000000000000000000000000000000
#0503a1:0000005400000000
#050361:0000000000000024
#051361:0000142400000000
#051361:0000000000142400
#052321:0000120000000022
#052371:0000000032320000
#052370:0000000000000012
#0533c0:0022000000000000
#053371:0012000000000000
#053321:0000002200000000
#053370:0000001200000000
#0533c0:0000000000220000
#0543c0:00120000
#0543a0:0000002200000000
#054371:0000001200000000
#054351:0022
#054380:0012
#0543a0:0000000000220000
#054321:0000000000120000
#054341:00000022
#0543c0:00000012
#0543a0:0000000000000022
#054371:0000000000000012
#055351:22
#055380:12
#0553a0:0022000000000000
#0553b0:0000001300230000
#055380:0053
#055321:0000001300230000
#055351:0053
#0563c1:0000120000000022
#056371:0000000032320000
#056370:0000000000000012
#057320:0022000000000000
#057371:0012000000000000
#0573c1:0000002200000000
#057370:0000001200000000
#057320:0000000000220000
#062360:0000000012220000
#065320:0000000000000012
#067320:0022000000000000
