This file was generated by Ched 2.7.0.0.
#TITLE ""
#ARTIST ""
#DESIGNER ""
#DIFFICULTY 0
#PLAYLEVEL
#SONGID ""
#WAVE ""
#WAVEOFFSET 0
#JACKET ""
#REQUEST "ticks_per_beat 480"
#00002: 4
#BPM01: 174
#00008: 01
#TIL00: ""
#VOLUME: ""
#HISPEED 00
#MEASUREHS 00
#0001a:14140000
#00014:00001414
#00118:14140000
#00112:00001414
#0021a:14140000
#00214:00001414
#00318:14140000
#00312:00001414
#0041a:14
#00612:0014
#00610:41
#0071a:14
#00714:0014
#00818:14
#00812:0014
#0091a:14
#00914:0014
#0141a:0014
#01414:14140000
#01410:41
#01512:14140000
#01518:0014
#01614:14140000
#0161a:0014
#01712:14
#01714:0014
#01718:00140014
#01812:14
#01818:0014
#01814:00000014
#0191a:14
#01914:0014
#01918:00000014
#02012:14
#02018:0014
#02114:14
#0241a:14
#02412:0014
#02418:0014
#0251a:14
#02514:14
#0251f:11
#02612:14343434
#02714:14
#02712:00343434
#02918:00140000
#0291a:34003434
#0281a:00001434
#03414:0014
#03418:00000014
#03514:14
#03518:00140000
#03512:0000000000000024
#03510:00410000
#03618:0014
#03614:00000014
#03718:14000014
#03712:0014
#03812:14
#03818:00140000
#03814:0014
#0381a:00000014
#03914:14
#0391a:00140000
#0441a:00140000
#04414:0014
#04418:00000014
#04512:1414
#04518:00140014
#04510:0000000000000041
#04614:14
#04612:0000001400000000
#04718:14
#0471a:0000001400000000
#04814:14
#04812:0000001400000000
#04918:14
#0491a:0000001400000000
#05014:14
#05012:0000001400000000
#0521a:14
#05214:0014
#05318:1414
#05314:00140014
#05518:00000014
#05512:14
#05612:14
#05618:0014
#05714:1414
#05718:00140014
#05418:14
#05410:00410000
#0601a:14
#06112:0014
#06218:14
#06214:0014
#0631a:14
#06314:0014
#0641a:14
#06414:0014
#06518:14
#06512:0014
#06618:14
#06612:0014
#02214:0014
#0221a:0014
#02210:41
#02312:14
#02318:14
#03114:24
#03118:0024
#03214:24
#0331a:0000000000000024
#0331f:0000000000000021
#04112:0000000000000024
#04218:0000000000000024
#05813:24000024
#05819:0000002400000000
#0045a:54
#02154:64
#02652:54
#02754:24
#02958:00240000
#0285a:0054
#0335a:0000000000000014
#03552:0000000000000014
#04152:0000000000000014
#04258:0000000000000014
#04654:54
#04652:0000002400000000
#04758:64
#0475a:0000002400000000
#04854:54
#04852:0000002400000000
#04958:64
#0495a:0000002400000000
#05054:5400000000000014
#05052:0000002400000000
#05458:54
#05552:54
#0605a:54
#06058:0000000000000014
#02252:14
#0245a:14
#0043a0:14
#006380:24
#0103a0:14
#010380:0024
#011320:14
#011340:0024
#012380:14
#0123a0:0024
#0133a0:14
#013380:0024
#013341:14
#013321:0024
#021341:14
#022321:24
#026321:14343434
#027341:34
#027321:00343434
#028321:24
#0283a1:00001434
#0293a1:34003434
#029381:00340000
#0303a1:24
#032341:1400000000000024
#035321:0000000014000024
#039321:00001424
#040381:14240000
#040341:00001424
#0413a1:14240000
#041321:0000000014000024
#042381:0000000014000024
#043341:0000000014000034
#044341:24
#046341:14000024
#046321:0000005400000000
#047381:14000024
#0473a1:0000005400000000
#048341:14000024
#048321:0000005400000000
#049381:14000024
#0493a1:0000005400000000
#050341:1400000000003424
#050321:0000005400000000
#054381:14
#0543a1:0024
#055321:14
#055341:0024
#0603a1:14
#060381:0000000000000024
#067381:1434003400342400
