This file was generated by Ched 2.7.0.0.
#TITLE ""
#ARTIST ""
#DESIGNER ""
#DIFFICULTY 0
#PLAYLEVEL
#SONGID ""
#WAVE ""
#WAVEOFFSET 0
#JACKET ""
#REQUEST "ticks_per_beat 480"
#00002: 4
#BPM01: 126
#BPM02: 119
#BPM03: 116.19
#BPM04: 116.56
#BPM05: 116.94
#BPM06: 117.31
#BPM07: 117.69
#BPM08: 118.06
#BPM09: 118.44
#BPM0A: 118.81
#00008: 01
#04608: 01
#03708: 02
#04408: 03040506
#04508: 0708090A
#TIL00: ""
#VOLUME: ""
#HISPEED 00
#MEASUREHS 00
#0001a:14
#00112:14
#00218:14
#00314:14
#00518:14
#00614:14
#00712:14
#0081a:14
#00918:14
#01014:14
#01112:14
#01218:14
#01210:41
#01314:14
#01418:14
#01514:14
#0161a:14
#01712:14
#0181a:14
#01912:14
#02818:2616
#02810:41
#02912:1616
#03018:16
#03012:0016
#03212:2616
#03318:1616
#03412:16
#03418:0016
#03712:14
#03710:41
#03818:14
#03914:14
#0401a:14
#04112:14
#04218:14
#04314:14
#0441a:14
#04514:14
#04510:41
#05418:14
#05512:2616
#0551f:21
#05618:1616
#05610:41
#05712:16
#05718:0016
#05918:2616
#06012:1616
#06118:16
#06112:0016
#06518:14
#06614:14
#06712:14
#0681a:14
#06918:14
#07014:14
#0461f:11
#0041a:24
#0641a:24
#02010:41
#020380:14
#021380:24
#022340:14
#023340:24
#0243a0:14
#0253a0:24
#026320:14
#027320:24
#031380:1626
#035320:1626
#036380:1626
#046380:14
#047380:24
#048340:14
#049340:24
#0503a0:14
#0513a0:24
#052320:14
#053320:24
#058320:1626
#062380:1626
#063320:1626
#071320:14003424
