This file was generated by Ched 2.7.0.0.
#TITLE ""
#ARTIST ""
#DESIGNER ""
#DIFFICULTY 0
#PLAYLEVEL
#SONGID ""
#WAVE ""
#WAVEOFFSET 0
#JACKET ""
#REQUEST "ticks_per_beat 480"
#00002: 4
#BPM01: 126
#BPM02: 119
#BPM03: 116.19
#BPM04: 116.56
#BPM05: 116.94
#BPM06: 117.31
#BPM07: 117.69
#BPM08: 118.06
#BPM09: 118.44
#BPM0A: 118.81
#00008: 01
#04608: 01
#03708: 02
#04408: 03040506
#04508: 0708090A
#TIL00: ""
#VOLUME: ""
#HISPEED 00
#MEASUREHS 00
#02812:2300230000130000
#02817:0013000000130000
#02814:00000013
#02816:0000000000000000000000130000000000000000000000000000000013000000
#02819:00000013
#0281b:23000000000000230000000000001300
#02810:41
#0291b:1300000000000000130000000000000000000013000000000000000013000000
#02912:00130000001300130000000000000000
#02918:0013000000000000
#02915:00000013000000000000000000000000
#02917:00000000000000130000000000000000
#02916:0000000000000000000000000000000000000013000000000000000013000000
#03017:1300001300001300
#03012:1300001300001300
#0301b:0013000013000000
#03016:00000013000000001300000000000000
#03019:0000000000130013
#03014:0000000000130013
#03112:00130023
#03116:13
#0311b:1323
#03115:0000000000130000
#03118:00000000000000000000001300001300
#03117:0023000000000000
#03119:00000000002300000000000000000000
#03416:13000000000013000000000013130000
#0341b:13000000000013000000000013130000
#03417:00000013000000001300000000000013
#03412:00001300000000001300000000000013
#03414:0000000000130000
#03419:0000000000130000
#0351b:0000000000000013000000000000000000000000000000000000000000000000
#03518:00000000000000000000001300130000
#03515:00000013
#03512:000000000000000000000000000000000000000000000000230000130000000000000000000000000000000000001300
#03516:0023000000000000
#03514:00000000002300000000000000000000
#03712:13001313
#03716:0013000000000000
#0371b:0000130000130013
#03717:000000000000000033130033000000000000000000000000
#03715:000000000000001300001300
#03718:000000000000000000000000000000000013000000000013
#03710:41
#03815:130000000013000000000000000000000000000000000000
#03818:0013000000000000
#0381b:00132323
#03812:0000001300230000
#03816:00001313
#03817:0000000000130000
#03912:130000000000000000000013000000000013000000000013
#03916:001300000000000000000000
#0391b:130000130000000000000000000013000000000013000000
#03917:000000000013000013000000000000000000000000000000
#03918:00001313
#03915:0000000000130013
#0401b:1300000000230000
#04016:0000000000130000
#04017:00001313
#04018:0013001300000013
#04015:000000130000000000130000000000000000000000000013
#04012:00132323
#0411b:131300000000131300000000
#04115:000000130013000000000000000000130013000000000000
#04118:000000131300000000131300
#04112:000000000000000000130013000000000000000000130013
#04216:00131300
#04217:00001300000013000000001300000000
#04215:0000000000000013
#04218:000000000000000000000000000000000000000000000013
#0421b:13232300
#04212:00002300000023000000002300000000
#04417:000000000000130000000000000000000013000000000000
#04416:0013000013000013
#04412:130000000000230000000000000000000023000000000000
#0441b:0023000023000023
#04518:000000000000000000000013000000120000120000000000
#04516:00000000130000000000001200000000
#04514:0000000000000012
#04517:13
#0451b:0000231300000000
#04515:000000000013000000000000
#04512:2323
#04510:41
#0461c:1200000000120000
#04616:12000000000000120000120000000000
#04612:0000120000000012
#0461a:0000001200001200
#04618:0000000000000012
#04614:00000012
#0461f:11
#0471c:12000000120000120000000000000000
#04714:000000120000000000000000000000001200000000000000000000000000000000000000000000000000000000000000
#0471a:0012000000000012
#04716:00000012000000120000000000001200
#04816:12000012
#0481a:00001212000000001200000000000000
#0481c:12
#04818:0000001200000000
#04812:0012
#04814:0000000000120012
#04912:12
#04918:12000000000000001200001200000000
#0491a:0012001200000012
#0491c:00120000
#04916:0000120000121200
#05216:0000001212000000
#0521c:0012
#0521a:0000000000120000
#05218:120000000000000000000000000000000000120012000012
#05212:120000000000000000000000000000000000000000000012
#05214:00001212000000000000000000000000
#05314:00000000000000000000120000000012
#05312:00000012
#0531a:0000000000120000
#05318:00000000000000000000000012120000
#0541a:12
#05416:000000001200000000120000000000000000000000000000000000000000000000000000000000000000000000000000
#05418:0012000000131300
#0541c:0012
#05415:00000000000000000000001300001300
#03618:13000000130013000013000000130000
#03612:000013130000
#03615:000000001300000000130000000000000000000000000000000000000000130000000000000000000000130000000000
#0361b:00001300000000000000001300000013
#00418:0013000000000000
#00415:000000000013000000000000000000000000000000000000
#0041b:23131300
#00412:230000000000000013000000000000000013000000000000
#00417:000000000000000000000000000000000013000000000000
#00416:0000000000000013
#00512:130000000000000000000000000000000013000000000013
#00516:000000000013000000000000130000000000000000000000
#00517:1300001300000000
#0051b:000000000013000000000000130000000000000000130000
#00515:000000000013
#00618:130000000013000000000000000000000000000000000000
#00612:0013000000000000
#00615:00130000
#00616:0000000013000013
#00617:000000000000000000000000000000000013000000000000
#0061b:0000000000000013
#00717:1300000000000013
#00712:130000130013
#00716:000000000013000000000000000000000014000000000000
#00715:0000001300000000
#0071b:0013
#00718:001300
#01116:13130013
#01117:0013000013000013
#01115:001300
#01118:0000001300000000
#01112:0023000023000013
#0111b:23230000
#01215:000000000000000000000013000000000013000000000013
#0121b:00001313
#01212:000000000000001300000000
#01218:0000000000130013
#01210:41
#0131b:1313
#01318:0013001300000013
#01315:000000130000000000000013000000000000000013000013
#01312:000000000000130000000000000000000013000000000000
#01317:000000000000000000000000000000000000000000000000000000000013000000000000000000000000000000000000
#0141b:130000000000130000000000130000000013000000000000
#01415:001300001300000000000000
#01418:0013001300000000
#01412:000000000013000000000013000000130000000013000000
#01416:000000000000000000000000000000000013000000000000
#01417:000000000013
#01515:000000130013000000000000000000001300130000000000
#01518:000000001300130000000000000000130013000000000000
#0151b:0000000000000013
#01512:0023
#01612:1300000013000013
#01618:000013000000000000130000000000000000000000000000
#01615:000000130000000013000000000000000000000000000000
#0161b:000000130000000000001300
#01617:000000000000001300000000
#01614:0000000000130000
#01619:000000000000000000000000000000000013000000000000
#01616:00000013
#0171b:1323
#01712:0013000000230000
#01718:00130023
#01715:0000001300000000
#0181b:13000013
#01816:000013000000000000000000000000000013000000000000
#01819:0013000000130013
#01814:000000000013000000000000000013000000000000130000
#01817:0000131313000000
#01812:000000000000000013000013000000000000000000000000
#01912:130000000000130000000000130000000013000000000000
#01916:0013000000130000
#01918:000000000000000000000000000000000000000000000013
#01917:13131300
#0191b:000000000000000000130000000000000013000000000000
#02015:000000000000000000230000000000001300000000000000000000000000130000000000000000000000000000001300
#02018:00000000000013000000001300000000
#02012:230000000000000000000013000000000000000000130000
#0201b:0013
#02010:41
#02312:1300000000130000
#02318:130000000013000000130000130000001300000000000013
#0231b:0013000000000000
#02315:000000001300000000000013000000000013000000130000
#02415:1313001300000000
#0241b:000013000000000013000000000000130000000000000000
#02418:000000000013000000000013000000000000000000000000
#02412:000000000000000000000000130000000000000000000000130000000000000000130000000000000000000000001300
#02417:00000000000000000000001300000000
#02515:000000000000000013000000000000130000000000000000
#0251b:000000000000000000000000000000000000130000000000000000000000000000130000000000000000000000001300
#02512:0000000013000013
#02518:230000000000000000002300000000000000000000000000000000130000000000000000000000000000000000000000
#00018:120000120000000000000000000000000000000012000000
#0001c:00120000
#00012:12120000
#00014:0012
#0001a:0000000000120000
#00016:000000000000000000000000000000000012000000120000
#00116:120000120000000000000000000000000000000012000000
#00112:00120000
#0011c:12120000
#0011a:0012
#00114:000000000000001200000000
#00118:000000000000000000000000000000000012000000120000
#0271b:13
#02718:0013000023000000
#02715:00131300
#02712:0000001300000000
#04312:131300000000131300000000
#04318:000000130013000000000000000000130013000000000000
#04315:000000131300000000131300
#0431b:000000000000000000130013000000000000000000130013
#06415:0013000000000000
#06418:000000000013000000000000000000000000000000000000
#0641b:230000000000000013000000000000000013000000000000
#06412:0013
#06416:000000000000000000000000000000000013000000000000
#06417:0000000013000013
#0651b:130000000000000000000000000000000013000000000013
#06517:000000000013000000000000130000000000000013000000
#06516:1300001300001300
#06512:000000000013000000000000130000000000000000130000
#06616:130000000000000000000000000000000013000000000000
#0661b:000000130000000000000000000000000013000000000000
#06615:000000000013000000000000000000000000000000000000
#06618:00130000
#06612:000000000000000013000000130000000000000000130000
#06617:0013
#06716:1300000000000013
#0671b:130000130013
#06717:000000000013000000000000000000000013000000000000
#06718:0000001300000000
#06712:0013
#06715:001300
#07117:1300130013000013
#07118:001300
#07115:0000001300000000
#07116:0013000000001300
#07112:2300230023000013
#0711b:0023000000000000
#00815:0013000000000000
#00818:000000000013000000000000000000000000000000000000
#00812:23131300
#0081b:230000000000000013000000000000000013000000000000
#00816:000000000000000000000000000000000013000000000000
#00817:0000000000000013
#0091b:130000000000000000000000000000000013000000000013
#00917:000000000013000000000000130000000000000000000000
#00916:1300001300000000
#00912:000000000013000000000000130000000000000000130000
#00918:000000000013
#01015:130000000013000000000000000000000000000000000000
#0101b:0013000000000000
#01018:00130000
#01017:0000000013000013
#01016:000000000000000000000000000000000013000000000000
#01012:0000000000000013
#0031a:0000000012000012
#00314:000000000012
#00318:000000000000000000000000000000000012000000000000
#00316:1212000000120000
#0031c:12120000
#00312:00120000
#00218:120000120000000000000000000000000000000012000000
#0021c:00120000
#00212:12120000
#00214:0012
#0021a:0000000000120000
#00216:000000000000000000000000000000000012000000120000
#02118:000000000023000013000000000000130000000000000013
#02115:000000000000000000130000000000000013000000000000
#0211b:230000000000000000000013000000000000000000130000
#02112:0013
#02215:000000000000000000230000000000001300000000000000000000000000130000000000000000000000000000000000
#02218:00000000000013000000001300000000
#02212:230000000000000000000013000000000000000000130000
#0221b:0013
#02612:000000000000000000130000000000130000000013000000
#0261b:00000000000000130000001300000000
#02618:00000000000000000013000000000000
#02615:23000023000000001300000000000000
#0321b:2300230000130000
#03216:0013000000130000
#03219:00000013
#03217:0000000000000000000000130000000000000000000000000000000013000000
#03214:00000013
#03212:23000000000000230000000000001300
#03312:1300000000000000130000000000000000000013000000000000000013000000
#0331b:00130000001300130000000000000000
#03315:0013000000000000
#03318:00000013000000000000000000000000
#03316:00000000000000130000000000000000
#03317:0000000000000000000000000000000000000013000000000000000013000000
#05114:0012000000000012
#05118:00000012000000120000000000001200
#05112:12000000120000120000000000000000
#0511a:00120000001200000000000000000000
#05012:12000000000000120000120000000000
#05018:12000000000000120000120000000000
#0501c:0000120000000012
#05014:00000012
#05016:0000000000000012
#0501a:00000012
#0551b:2300230000130013
#05516:0013000000130013
#05517:0000000000000000000000130000000000000000000000001300000000000000
#05512:23000000000000230000000013000000
#0551f:21
#05612:130000000000000000000000130000000000000000000000000000000013000000000000000000000000130000000000
#05618:00130000000000000000000000000000
#05615:0013000000000000
#0561b:000000000000000000130000000000000000000000001300000000000000000000000000000000000000000000000000
#05616:000000000000000014000013000000000000000000000000
#05617:000000000000000000000000000000000000000000000000000000000013000000000000000000000000130000000000
#05610:41
#05716:1300001300000000
#0571b:1300001300000000
#05717:0013000000000000
#05712:00000013000000001300000000000000
#05714:0000000000130000
#05719:0000000000000013
#0581b:00130023
#05817:13
#05818:0000000000130000
#05815:00000000000000000000001300001300
#05816:0023000000000000
#05814:00000000002300000000000000000000
#05812:0023
#05912:2300230000130013
#05917:0013000000130013
#05916:0000000000000000000000130000000000000000000000001300000000000000
#0591b:23000000000000230000000013000000
#0601b:1300000000000000130000000000000000000013000000000000000013000000
#06015:00130000001300000000000000000000
#06018:0013000000000000
#06012:00000013000000130000000000000000
#06017:00000000000000130000000000000000
#06016:0000000000000000000000000000000000000013000000000000000013000000
#06117:13000000000013000000000013130000
#06112:1300001300000000
#06116:00001300000000000000000000000013
#0611b:00000013000000001300000000000013
#06119:0000000000130000
#06212:0000000000000013000000000000000000000000000000000000000000000000
#0621b:00000000000000002313000000000013
#06215:00000000000000000000001300130000
#06218:00000013
#06217:0023000000000000
#06219:00000000002300000000000000000000
#06315:13001300000013000013000000130013
#06318:000000001300000000130000000000001300000000000000000000000000130000000000000000000000130000000000
#06312:00000000130000000000001300000000
#0631b:0013
#06818:0013000000000000
#06815:000000000013000000000000000000000000000000000000
#06812:230000000000000013000000000000000013000000000000
#0681b:2313
#06817:000000000000000000000000000000000013000000000000
#06816:0000000013000013
#06912:130000000000000000000000000000000013000000000013
#06916:000000000013000000000000130000000000000013000000
#06917:1300001300001300
#0691b:000000000013000000000000130000000000000000130000
#07017:130000000000000000000000000000000013000000000000
#07012:000000130000000000000000000000000013000000000000
#07018:000000000013000000000000000000000000000000000000
#07015:00130000
#0701b:000000000000000013000000130000000000000000130000
#07016:0013
#0295b:0000000000000000000000000000000000000023000000000000000000000000
#02957:00000000000000530000000000000000
#02956:0000000000000000000000000000000000000023000000000000000000000000
#02952:00000000000000530000000000000000
#03057:13
#03056:00000013000000000000000000000000
#03152:00230000
#03156:53
#0355b:0000000000000023000000000000000000000000000000000000000000000000
#03457:00000013000000000000000000000063
#03456:13
#03752:63
#03756:0023000000000000
#0375b:00530000
#03757:0000002300000000
#0405b:5300000000130000
#04058:0063000000000000
#04052:00631313
#04055:0000005300000000
#04256:0053
#04257:00000000000000000000006300000000
#04252:00001300000013000000001300000000
#0425b:00131300
#04457:000000000000630000000000000000000053000000000000
#04456:0063
#0445b:0013000013000013
#04452:000000000000130000000000000000000013000000000000
#0465c:52
#0475c:00000000000000520000000000000000
#04756:00000000000000520000000000000000
#04856:52
#0485a:0062
#04952:52
#04956:00220000
#05256:0052
#05258:620000000000000000000000000000000000000000000052
#05252:000000000000000000000000000000000000000000000052
#05456:00000052000000000000000000000000
#0545c:0012
#05452:0012
#02857:0023000000000000
#02856:0000000000000000000000230000000000000000000000000000000000000000
#0285b:53000000000000430000000000000000
#02852:13000000530000330000000000000000
#00452:005300
#0045b:0053
#00457:000000000000000000000000000000000053000000000000
#00552:63
#00556:000000000063000000000000000000000000000000000000
#0055b:0053
#00656:0053
#00657:000000000000000000000000000000000013000000000000
#00757:63
#00756:000000000013000000000000000000000000000000000000
#01157:0063
#0115b:13130000
#01152:0013000013000000
#0135b:530000000000000000000000530000000043000000000000
#01358:0023000000000000
#01352:000000000000630000000000000000000033000000000000
#01357:000000000000000000000000000000000000000000000000000000000023000000000000000000000000000000000000
#0145b:000000000000000000000000630000000013000000000013
#01452:000000000013
#01457:000000000053
#01558:00530000
#01552:0013
#0155b:0013
#01652:13
#0165b:00130000
#0175b:1313
#01752:0013000000130000
#01758:00130013
#01755:0000001300000000
#0205b:0053
#02058:00000000000000000000006300000000
#02358:0000001300000000
#02355:0000000000000013
#02452:0063
#02457:00000000000000000000006300000000
#0245b:0000000000000013
#0255b:00000000000000000000005300000000
#0005c:00520000
#00152:00620000
#01957:5353
#01952:000000000000530000000000000000000063000000000000
#0195b:000000000000000000000000000000000053000000000000
#02755:0063
#02758:0063
#0275b:00000013
#02752:00000013
#06452:0063
#06456:000000000000000000000000000000000063000000000000
#0655b:53
#06557:000000000053000000000000000000000000000000000000
#06552:0063
#06657:0063
#0665b:000000000000000000000000000000000063000000000000
#06756:53
#07157:0063
#07152:13131300
#0715b:0013000000000000
#0085b:005300
#00852:0063
#00856:000000000000000000000000000000000063000000000000
#0095b:53
#00957:000000000053000000000000000000000000000000000000
#00952:0063
#01057:0063
#01056:000000000000000000000000000000000013000000000000
#00352:00620000
#0025c:00520000
#02152:0063
#02155:000000000000000000000000000000000053000000000000
#0225b:0053
#02258:00000000000000000000006300000000
#0265b:00000000000000000000006300000000
#03352:0000000000000000000000000000000000000023000000000000000000000000
#03356:00000000000000630000000000000000
#03357:0000000000000000000000000000000000000023000000000000000000000000
#0335b:00000000000000630000000000000000
#03256:0023000000000000
#03257:0000000000000000000000230000000000000000000000000000000000000000
#03252:53000000000000330000000000000000
#0325b:13000000530000430000000000000000
#05052:62
#05152:00000000000000620000000000000000
#05158:00000000000000620000000000000000
#05652:000000000000000000000000000000000000000000000000000000000023000000000000000000000000000000000000
#05656:000000000000000000000063000000000000000000000000
#05657:000000000000000000000000000000000000000000000000000000000023000000000000000000000000000000000000
#0565b:000000000000000000000063000000000000000000000000
#0575b:13
#05752:00000013000000000000000000000000
#0585b:00230000
#05857:63
#05556:0023000000000000
#05557:0000000000000000000000230000000000000000000000000000000000000000
#05552:53000000000000330000000000000000
#0555b:13000000530000430000000000000000
#0605b:0000000000000000000000000000000000000023000000000000000000000000
#06057:00000000000000530000000000000000
#06056:0000000000000000000000000000000000000023000000000000000000000000
#06052:00000000000000530000000000000000
#06152:13
#0615b:00000013000000000000000000000000
#06156:00000000000000000000000000000053
#06252:0000000000000023000000000000000000000000000000000000000000000000
#05957:0023000000000000
#05956:0000000000000000000000230000000000000000000000000000000000000000
#0595b:53000000000000430000000000000000
#05952:13000000530000330000000000000000
#0685b:0053
#06857:000000000000000000000000000000000053000000000000
#06952:63
#06956:000000000063000000000000000000000000000000000000
#0695b:0053
#07056:0053
#07052:000000000000000000000000000000000053000000000000
#0385b:00001313
#03852:0000000000130000
#0455b:00130000
#04552:1313
#0003c0:00120000
#000380:0022
#001320:00120000
#001360:0022
#0023c0:00120000
#002380:0022
#003320:00120000
#003360:0022
#004320:001300
#004360:0023
#0043b1:0000000013000023
#004371:000000000000000000000000000000000033000000000000
#005321:1300002300000000
#005361:000000000033000000000000000000000000000000000000
#0053b1:0013
#005371:000000000000000000000000000000000023000000000000
#0063b1:000013230000
#006360:0013
#006320:000000000000000000000000000000000023000000000000
#007370:13
#0073b0:000000000023000000000000000000000000000000000000
#0073b0:000000000000000000000000000000130023000000000000
#0083b0:001300
#008370:0023
#008321:0000000013000023
#008361:000000000000000000000000000000000033000000000000
#0093b1:1300002300000000
#009371:000000000033000000000000000000000000000000000000
#009321:0013
#009361:000000000000000000000000000000000023000000000000
#010321:000013230000
#010370:0013
#0103b0:000000000000000000000000000000000023000000000000
#011370:0013
#0113b0:00000023
#012390:14540000000000530000000000000000000000000000000000000000000000000000000000000000000000000000000000000000000000000000000000000000
#0123a0:000000000000000000000000000000000000000000000000000000000000005200000000000000000000000000000000000000000000000000000000000000000000000000000000000000000000000000000000000000000000000000000000000000000000000000000000000000000000000000000000000000000000000000000000000000000000000000000000000000000000000000000000000000000000000000000000000000000000000000000000520000000000000000000000000000000000000000000000000000000000000000000000000000000000000000000000000000000000000000000000220000000000000000000000000000000000000000000000000000000000000000000000000000000000000000000000000000000000000000000000000000000000000000000000000000000000000000000000000000000000000000000000000000000000000000000000000000000000000000000000000000000000000000000000000000000000000000000000000000000000000000000000000000000000000000000000000000000000000000000000000000000000000000000000000000000000000000000000000000000000000000000000000000000000000000000000000000000000000000000000000000000000000000000000000000000000000000000000000000000000000000000000000000000000000000000000000000000000000000000000000000000000000000000000000000000000000000000000000000000000000000000000000000000000000000000000000000000000000000000000000000000000000000000000000000000000000000000000000000000000000000000000000000000000000000000000000000000000000000000000000000000000000000000000000000000000000000000000000000000000000000000000000000000000000000000000000000000000000000000000000000000000000000000000000000000000000000000000000000000000000000000000000000000000000000000000000000000000000000000000000000000000000000000000000000000000000000000000000000000000000000000000000000000000000000000000000000000000000000000000000000000000000000000000000000000000000000000000000000000000000000000000000000000000000000000000000000000000000000000000000000000000000000000000000000000000000000000000000000000000000000000000000000000000000000000000000000000000000000000000000000000000000000000000000000000000000000000000000000000000000000000000000000000000000000000000000000000000000000000000000000000000000000000000000000000000000000000000000000000000000000000000000000000000000000000000000000000000000000000000000000000000000000000000000000000000000000000000000000000000000000000000000000000000000000000000000000000000000000000000000000000000000000000000000000000000000000000000000000000000000000000000000000000000000000000000000000000000000000000000000000000000000000000000000000000000000000000000000000000000000000000000000000000000000000000000000000000000000000000000000000000000000000000000000000000000000000000000000000000000000000000000000000000000000000000000000000000000000000000000000000000000000000000000000000000000000000000000000000000000000000000000000000000000000000000000000000000000000000000000000000000000000000000000000000000000000000000000000000000000000000000000000000000000000000000000000000000000000000000000000000000000000000000000000000000000000000000000000000000000000000000000000000000000000000000000000000000000000000000000000000000000000000000000000000000000000000000000000000000000000000000000000000000000000000000000000000000000000000000000000000000000000000000000000000000000000000000000000000000000000000000000000000000000000000000000000000000000000000000000000000000000000000000000000000000000000000000000000000000000000000000000000000000000000000000000000000000000000000000000000000000000000000000000000000000000000000000000000000000000000000000000000000000000000000000000000000000000000000000000000000000000000000000000000000000000000000000000000000000000000000000000000000000000000000000000000000000000000000000000000000000000000000000000000000000000000000000000000000000000000000000000000000000000000000000000000000000000000000000000000000000000000000000000000000000000000000000000000000000000000000000000000000000000000000000000000000000000000000000000
#012331:000000000000000000000000000000000000000000000000000000000000000000000000000000000000000000000000000000000000000000000000000000000000000000000000000000000000000000000000000000000000000000000000000000000000000000000000000000000000000000000000000000000000000000000000000000000000000000000000000000000000000000000000000000000000000000000000000000000000000000000000000000000000000000000000000000000000000000000000000000000000000000000000000000000000000000000000000000000000000000000000140000000000000000000000000000000000000000000000000000000054520000000000000000000000000000000000000000000000000000000000000000000000000000000000000000000000000000000000000000000000000000000000000000000000000000000000000000000000000000000000000000000000000000000000000000000000000000000000000000000000000000000000000000000000000000000000000000000000000000000000000000000000000000000000000000000000000000000000000000000000540000000000000000000000000000000000000000000000000000000000000000000000000000000000000000000000000000000000000000000000000000000000000000000000000000000000000000000000000000000000000000000000000000000000000000000000000000000000000000000000000000000000000000000000000000000000000000000000000000000000000000000000000000000000000000000000000000000000000000000000000000000000000000000000000000000000000000000000000000000000000000000000000000000000000000000000000000000000000000000000000000000000000000000000000000000000000000000000000000000000000000000000000000000000000000000000000000000000000000000000000000000000000000000000000000000000000000000000000000000000000000000000000000000000000000000000000000000000000000000000000000000000000000000000000000000000000000000000000000000000000000000000000000000000000000000000000000000000000000000000000000000000000000000000000000000000000000000000000000000000000000000000000000000000000000000000000000000000000000000000000000000000000000000000000000000000000000000000000000000000000000000000000000000000000000000000000000000000000000000000000000000000000000000000000000000000000000000000000000000000000000000000000000000000000000000000000000000000000000000000000000000000000000000000000000000000000000000000000000000000000000000000000000000000000000000000000000000000000000000000000000000000000000000000000000000000000000000000000000000000000000000000000000000000000000000000000000000000000000000000000000000000000000000000000000000000000000000000000000000000000000000000000000000000000000000000000000000000000000000000000000000000000000000000000000000000000000000000000000000000000000000000000000000000000000000000000000000000000000000000000000000000000000000000000000000000000000000000000000000000000000000000000000000000000000000000000000000000000000000000000000000000000000000000000000000000000000000000000000000000000000000000000000000000000000000000000000000000000000000000000000000000000000000000000000000000000000000000000000000000000000000000000000000000000000000000000000000000000000000000000000000000000000000000000000000000000000000000000000000000000000000000000000000000000000000000000000000000000000000000000000000000000000000000000000000000000000000000000000000000000000000000000000000000000000000000000000000000000000000000000000000000000000000000000000000000000000000000000000000000000000000000000000000000000000000000000000000000000000000000000000000000000000000000000000000000000000000000000000000000000000000000000000000000000000000000000000000000000000000000000000000000000000000000000000000000000000000000000000000000000000000000000000000000000000000000000000000000000000000000000000000000000000000000000000000000000000000000000000000000000000000000000000000000000000000000000000000000000000000000000000000000000000000000000000000000000000000000000000000000000000000000000000000000000000000000000000000000000000000000000000000000000000000000000000000000000000000000000000000000
#012351:000000000000000000000000000000000000000000000000000000000000000000000000000000000000000000000000000000000000000000000000000000000000000000000000000000000000000000000000000000000000000000000000000000000000000000000000000000000000000000000000000000000000000000000000000000000000000000000000000000000000000000000000000000000000000000000000000000000000000000000000000000000000000000000000000000000000000000000000000000000000000000000000000000000000000000000000000000000000000000000000000000000000000000000000000000000000000000000000000000000000000000000000000000000000000000000000000000000000000000000000000000000000000000000000000000000000000000000000000000000000000000000000000000000000000000000000000000000000000000000000000000000000000000000000000000000000000000000000000000000000000000000000000000000000000000000000000000000000000000000000000000000000000000000000000000000000000000000000000000000052000000000000000000000000000000000000000000000000000000000000000000000000000000000000000000000000000000000000000000000000000000000000000000000000000000000000000000000000000000000000000000000000000000000000000000000000000000000000000000000000000000000000000000000000000000000000000000000000000000000000000000000000000000000000000000000000000000000000000000000000000000000000000000000000000000000000000000000000000000000000000000000000000000000000000000000000000000000000000000000000000000000000000000000000000000000000000000000000000000000000000000000000000000000000000000000000000000000000000000000000000000000000000000000000000000000000000000000000000000000000000000000000000000000000000000000000000000000000000000000000000000000000000000000000000000000000000000000000000000000000000000000000000000000000000000000000000000000000000000000000000000000000000000000000000000000000000000000000000000000000000000000000000000000000000000000000000000000000000000000000000000000000000000000000000000000000000000000000000000000000000000000000000000000000000000000000000000000000000000000000000000000000000000000000000000000000000000000000000000000000000000000000000000000000000000000000000000000000000000000000000000000000000000000000000000000000000000000000000000000000000000000000000000000000000000000000000000000000000000000000000000000000000000000000000000000000000000000000000000000000000000000000000000000000000000000000000000000000000000000000000000000000000000000000000000000000000000000000000000000000000000000000000000000000000000000000000000000000000000000000000000000000000000000000000000000000000000000000000000000000000000000000000000000000000000000000000000000000000000000000000000000000000000000000000000000000000000000000000000000000000000000000000000000000000000000000000000000000000000000000000000000000000000000000000000000000000000000000000000000000000000000000000000000000000000000000000000000000000000000000000000000000000000000000000000000000000000000000000000000000000000000000000000000000000000000000000000000000000000000000000000000000000000000000000000000000000000000000000000000000000000000000000000000000000000000000000000000000000000000000000000000000000000000000000000000000000000000000000000000000000000000000000000000000000000000000000000000000000000000000000000000000000000000000000000000000000000000000000000000000000000000000000000000000000000000000000000000000000000000000000000000000000000000000000000000000000000000000000000000000000000000000000000000000000000000000000000000000000000000000000000000000000000000000000000000000000000000000000000000000000000000000000000000000000000000000000000000000000000000000000000000000000000000000000000000000000000000000000000000000000000000000000000000000000000000000000000000000000000000000000000000000000000000000000000000000000000000000000000000000000000000000000000000000000000000000000000000000000000000000000000000000000000000000000000000000000000000000000000000000
#012341:00220000
#0123a0:0000122200000000
#012390:000000000000000000000000000000000000000000000000000000000000000000000000000000000000000000000000000000540000000000000054005400000000000000540000000000000000000000000000000000000000000000000000000000000000000000000000000000000000000000000000000000000000000000000000000000000000000000000000000000000000000000000000000000000000000000000000000000000000000000000000000000000000000000000000
#0123b0:000000000000000000000000000000000000000000000000000000000000000000000000000000000000000000000000000000000000000000000000000000000000000000000000000000000000000000000000000000000000000000000000000000000000000000000000000000000000000000000000000000000000000000000000000000000000000000000000000000000000000000000000000000000000000000000000000000000000000000000000000000000000000000000000000000000000000000000000000000000000000000000000000000000000000000000000000000000000000000000000000000000000000000000000000000000000000000000000000000000000000000000000000000000000000000000000000000000000000000000000000000000000000000000000000000000000000000000000000000000000000000000000000000000000000000000000000000000000000000000000000000000000000000000000000000000000000000000000000000000000000000000000000000000000000000000000000000000000000000000000000000000000000000000000000000000000000000000000000000000000000000000000000000000000000000000000000000000000000000000000000000000000000000000000000000000000000000000000000000000000005200000000000000000000000000000000000000000000000000000000000000000000000000000000000000000000000000000000000000000000000000000000000000000000000000000000005200000000000000000000000000000000000000000052000000000000000000000000000000000000000000000000000000000000000000000000000000000000000000000000000000000000000000000000000000000000000000000000000000000052000000000000000000000000000000000000000000000000000000000000000000000000000000000000000000000000000000000000000000000000000000000000000000000000000000000000000000000000000000000000000000000000000000000000000000000000000000000000000000000000000000000000000000000000000000000000000000000000000000000000000000000000000000000000000000000000000000000000000000000000000000000000000000000000000000000000000000000000000000000000000000000000000000000000000000000000000000000000000000000000000000000000000000000000000000000000000000000000000000000000000000000000000000000000000000000000000000000000000000000000000000000000000000000000000000000000000000000000000000000000000000000000000000000000000000000000000000000000000000000000000000000000000000000000000000000000000000000000000000000000000000000000000000000000000000000000000000000000000000000000000000000000000000000000000000000000000000000000000000000000000000000000000000000000000000000000000000000000000000000000000000000000000000000000000000000000000000000000000000000000000000000000000000000000000000000000000000000000000000000000000000000000000000000000000000000000000000000000000000000000000000000000000000000000000000000000000000000000000000000000000000000000000000000000000000000000000000000000000000000000000000000000000000000000000000000000000000000000000000000000000000000000000000000000000000000000000000000000000000000000000000000000000000000000000000000000000000000000000000000000000000000000000000000000000000000000000000000000000000000000000000000000000000000000000000000000000000000000000000000000000000000000000000000000000000000000000000000000000000000000000000000000000000000000000000000000000000000000000000000000000000000000000000000000000000000000000000000000000000000000000000000000000000000000000000000000000000000000000000000000000000000000000000000000000000000000000000000000000000000000000000000000000000000000000000000000000000000000000000000000000000000000000000000000000000000000000000000000000000000000000000000000000000000000000000000000000000000000000000000000000000000000000000000000000000000000000000000000000000000000000000000000000000000000000000000000000000000000000000000000000000000000000000000000000000000000000000000000000000000000000000000000000000000000000000000000000000000000000000000000000000000000000000000000000000000000000000000000000000000000000000000000000000000000000000000000000000000000000000000000000000000000000000000000000000000000000000000000000000000000
#0133b0:13230000
#013380:0053000000000000
#013321:00130000
#013351:0000002300000000
#0133b1:000000000000000000000000130000000023000000000000
#013371:000000000000000000000000000000000000000000000000000000000053000000000000000000000000000000000000
#0143b1:0013
#014371:0000000000230000
#014371:000000000013
#0143b1:000000000000000000000000000000000000000000000023
#015381:00130000
#0153b1:0023
#019371:13
#0193b1:0023000000000000
#019321:00130000
#019361:0000002300000000
#019371:0013
#0193b1:0000000000230000
#0193b1:000000000000000000000000000000000013000000000000
#019381:000000000023
#019320:000000000000000000000000000000000013000000000000
#019350:000000000023
#0203b0:00001323000000000000000000000000
#0203b0:0013
#020380:0000000000230000
#020380:00000000000000000000001300000000
#0203b0:0000000000000023
#021320:000000130023000000000000000000000000000000000000
#021320:0013
#021350:0000000000230000
#021350:000000000000000000000000000000000013000000000000
#021320:0000000000000023
#0223b0:00001323000000000000000000000000
#0223b0:0013
#022380:0000000000230000
#022380:00000000000000000000001300000000
#0223b0:0000000000000023
#023320:0000132300000000
#0233b0:0000000000001323
#024320:0013
#024360:0000000000230000
#024370:00000000000000000000001300000000
#0243b0:0000000000000023
#025350:000000130023000000000000000000000000000000000000
#0253b0:00000000000000000000001300000000
#025370:0000000000000023
#026380:00001323000000000000000000000000
#0263b0:00000000000000000000001300000000
#026370:000000000023
#027380:0013
#0273b0:00000023
#027351:0013
#027321:00000023
#0283b1:13230000
#028371:0053000000000000
#028320:00000000130000230000000000000000
#028360:0000000000000000000000530000000000000000000000000000000000000000
#029370:00000000000000130000000023000000
#0293b0:0000000000000000000000000000000000000053000000000000000000000000
#029321:00000000000000130000000023000000
#029361:0000000000000000000000000000000000000053000000000000000000000000
#031361:1323
#031321:00530000
#032321:13230000
#032361:0053000000000000
#0323b0:00000000130000230000000000000000
#032370:0000000000000000000000530000000000000000000000000000000000000000
#033360:00000000000000130000000023000000
#033320:0000000000000000000000000000000000000053000000000000000000000000
#0333b1:00000000000000130000000023000000
#033371:0000000000000000000000000000000000000053000000000000000000000000
#034371:00000000000000000000000000000013
#0353b1:0000000000000053000000000000000000000000000000000000000000000000
#035371:0023
#037321:13230000
#037361:0053000000000000
#0373b0:00132300
#037370:000000000000000033530033000000000000000000000000
#039320:000000132300000000000000
#0403b0:13230000
#040380:0033000000000000
#040321:00132300
#040351:0000003300000000
#042361:0013
#042321:00000000000000000000002300000000
#042370:00000000000000000000001300000000
#0423b0:0000000000000023
#044370:00130000
#0443b0:0023
#044361:0013
#044321:000000000000000000000000000000000023000000000000
#044370:000000000000000000000000000000000013000000000000
#0443b0:0000000000000023
#0463c0:12
#046380:00220000
#0473c0:00000000000000120000000000000000
#047380:00000022
#047361:00000000000000120000000000000000
#047321:00000022
#048361:12
#048321:0000002200000000
#0483a1:0012
#0483c1:0000000000000022
#049321:1222
#049361:00520000
#050321:12
#050361:00220000
#051321:00000000000000120000000000000000
#051361:00000022
#051380:00000000000000120000000000000000
#0513c0:00000022
#052380:12
#0523c0:0000002200000000
#052360:0012
#052320:000000000022
#052320:000000000000000000000000000000000000000000000012
#053360:0022
#052381:000000000000000000000000000000000000000000000012
#0533c1:0022
#054361:00000012000000000000000000000000
#054321:0022
#055321:13230000
#055361:0053000000000000
#0553b0:00000000130000230000000000000000
#055370:0000000000000000000000530000000000000000000000000000000000000000
#056360:000000000000000000000013000000000000230000000000
#056320:000000000000000000000000000000000000000000000000000000000053000000000000000000000000000000000000
#0563b1:000000000000000000000013000000000000230000000000
#056371:000000000000000000000000000000000000000000000000000000000053000000000000000000000000000000000000
#057371:0013
#057391:0000000000330000
#0573b1:00000023
#057360:00000013
#057340:0000000000000033
#058320:23
#058371:1323
#0583b1:00530000
#0593b1:13230000
#059371:0053000000000000
#059320:00000000130000230000000000000000
#059360:0000000000000000000000530000000000000000000000000000000000000000
#060370:00000000000000130000000023000000
#0603b0:0000000000000000000000000000000000000053000000000000000000000000
#060321:00000000000000130000000023000000
#060361:0000000000000000000000000000000000000053000000000000000000000000
#061361:0013
#061341:0000000000330000
#061321:00000023
#061361:00000000000000000000000000000013
#062321:0000000000000053000000000000000000000000000000000000000000000000
#062361:0023
#064321:000000132300000000000000
#064321:0000000013000023
#064361:000000000000000000000000000000000033000000000000
#0653b1:1300002300000000
#065371:000000000033000000000000000000000000000000000000
#065321:0013
#065361:000000000000000000000000000000000023000000000000
#066371:0000000013000023
#0663b1:000000000000000000000000000000000033000000000000
#067361:13
#067321:000000000023000000000000000000000000000000000000
#067321:000000000000000000000000000000130023000000000000
#0683b1:000000132300000000000000
#0683b1:0000000013000023
#068371:000000000000000000000000000000000033000000000000
#069321:1300002300000000
#069361:000000000033000000000000000000000000000000000000
#0693b1:0013
#069371:000000000000000000000000000000000023000000000000
#070361:0000000013000023
#070321:000000000000000000000000000000000033000000000000
#071371:0013
#0713b1:00000023
