This file was generated by Ched 2.7.0.0.
#TITLE ""
#ARTIST ""
#DESIGNER ""
#DIFFICULTY 0
#PLAYLEVEL
#SONGID ""
#WAVE ""
#WAVEOFFSET 0
#JACKET ""
#REQUEST "ticks_per_beat 480"
#00002: 4
#BPM01: 126
#BPM02: 119
#BPM03: 116.19
#BPM04: 116.56
#BPM05: 116.94
#BPM06: 117.31
#BPM07: 117.69
#BPM08: 118.06
#BPM09: 118.44
#BPM0A: 118.81
#00008: 01
#04608: 01
#03708: 02
#04408: 03040506
#04508: 0708090A
#TIL00: ""
#VOLUME: ""
#HISPEED 00
#MEASUREHS 00
#02812:0000000000130000
#02815:00000013
#02818:0000130000000013
#0281b:23
#02810:41
#0291b:13
#02915:00001300000000130000000000000000
#02918:0000130000000013
#03012:1313
#0301b:0013000000000000
#03015:0000000000130013
#03018:00000033000000000000000013000000
#03118:00130000
#0311b:13
#03112:0000000000140000
#0311a:0000000000000014
#03116:00000024
#03518:00000000000000000000000000130000
#03515:000000000000000000000000000000000000000000000013
#0381b:1300001300230000
#03812:0013000023000000
#03818:000000000013000000000000000000000000000000000000
#03815:00130023
#0411b:1300000000000013
#04118:0013000000001300
#04115:0000130000130000
#04112:0000001313000000
#04218:0000230023000013
#0421b:000000230000000000230000000000000023000000000000
#04212:00232300
#04215:000000230000000000230000000000000023000000000000
#04518:0000230000121200
#04516:00000000000000000000001200000000
#04514:0000000000000012
#04512:23
#04515:0023
#04510:41
#0461a:1200000000000012
#04616:00120000
#04618:0000001200000000
#0461c:00000012
#04614:00000000000000120000000000000000
#0461f:11
#04718:12
#04716:0012000000000000
#04714:00120000
#0471a:0000000000000012
#04712:003200
#04816:0000001200000012
#0481a:0012
#04818:0000000000120000
#04814:00000012
#04916:0000000000121200
#04918:00000000000000000000001200000000
#0491a:0000000000000012
#05318:00000000000000000000000000120000
#05316:00000000000000000000000000000012
#00418:000000130000130000000000000000000013000000000000
#00415:000000000013000013000000000000000000000000000000
#0041b:2313
#00412:23
#00515:13
#00512:000000000013000000000000000000000000000000000000
#00518:0013
#0051b:000000000000000000000000000000000013000000000000
#00612:13
#0061b:000000130000000000000000000000000013000000000000
#00615:000000000013000013000000000000000000000000000000
#00618:00131300
#00715:130000000013
#00718:0000000000000013
#00712:000000000013000000000000000000000000000000000000
#01118:00231300
#01112:0000001300000000
#0111b:23
#01115:0023000000000000
#01212:0013
#01215:0000000000130000
#01218:00000013
#0121b:0000000000000013
#01210:41
#01312:1313
#0131b:00130000
#01318:0000000000000013
#01415:000000000000130000000000130000000000000000000013
#01418:000000130000000000000000000000000000000013000000
#01412:13
#0141b:0000001300000000
#01512:0000000000130000
#01518:00002313
#01515:0000000000000013
#0151b:000000133333330000000000000000000000000000000000
#0161b:1313
#01615:0013000000001300
#01612:0000130000000013
#01618:0000001300130000
#02015:0013000013000000
#02012:23000000000000000000001300000000
#02018:00130000
#0201b:0000001300000000
#02010:41
#02312:13000053
#02318:1300530013000013
#02315:0000001300130000
#0231b:0013000000000000
#0231a:005300000000
#02319:000000000053000000000000000000000000000000000000
#02314:000053
#02313:000000000000000000000000000000000053000000000000
#02612:2300001300130000
#02615:00131300
#0261b:23000000000000000013000000000000
#02618:00001300000000130000000000000000
#00016:1212000000000012
#00014:000000000000000000000000120000000012000000000000
#00018:000000000000000000000000000000120000000012000000
#01915:1313
#01918:000000000000130000000000000000000033000000000000
#0191b:0000000000130000
#02712:13
#0271b:0013000000000000
#02715:00132300
#02718:0000001300000000
#04312:1300000000000013
#04315:0013000000001300
#04318:0000130000130000
#0431b:0000001313000000
#05415:0000000000131300
#05418:00000000000000000000001300001300
#0541b:13
#0541a:000033330000000000000000000000000000000000000000
#05419:00000033000000000000000000000000
#0401b:1323
#04018:0013000000002300
#04015:0000130000000013
#04012:0000001300230000
#00118:120000120000000000000000000000000000000012000000
#0011a:0012
#00116:0000000000000012
#0021c:1212000000000000
#0021a:0012
#00214:0000000000120000
#00218:000000000000000000000000000000000012000000120000
#00216:000000000012
#00312:1212000000000000
#00314:0012
#0031a:0000000000120000
#00316:000000000000000000000000000000000012000000120000
#00318:000000000012
#00815:000000130000130000000000000000000013000000000000
#00818:000000000013000013000000000000000000000000000000
#00812:2313
#0081b:23
#0101b:13
#01012:000000130000000000000000000000000013000000000000
#01018:000000000013000013000000000000000000000000000000
#01015:00131300
#01812:13000013
#01815:0013000000130000
#01818:00131300
#0181b:0000001300000013
#0241b:1313
#02418:00001300000000000000001300000000
#02412:1300001300000000
#02415:00130000
#0371b:00131300
#03718:0000000000130000
#03715:00000013
#03712:0000000000000013
#03710:41
#03912:1300000000130000
#03915:0013000013001300
#03918:00130000
#0391b:0000001300000000
#0521a:00000012
#05218:000000000000000000120000000000000000000032000000
#05214:0012
#05216:0000000000120000
#06218:00000000000000000000000000130000
#06215:00000000000000000000000000000013
#06418:000000130000130000000000000000000013000000000000
#06415:000000000013000013000000000000000000000000000000
#0641b:0013
#06512:13
#06515:000000000013000000000000000000000000000000000000
#06518:0013
#0651b:000000000000000000000000000000000013000000000000
#06612:13
#06618:0013130013000000
#06615:000000000013000013000000000000000000000000000000
#0661b:000000000000000000000000000000000013000000000000
#06712:000000000013000000000000130000000013000000000000
#0671b:000000130013
#06718:0000000000130000
#06715:1300000000000013
#07115:000013130000
#07118:0000001300000000
#0711b:23230000
#07112:0023000000000000
#06815:000000130000130000000000000000000013000000000000
#06818:000000000013000013000000000000000000000000000000
#06812:2313
#0681b:23
#07015:0013130013000000
#07012:000000000000000000000000000000000013000000000000
#0701b:13
#07018:000000000013000013000000000000000000000000000000
#00918:13
#0091b:000000000013000000000000000000000000000000000000
#00915:0013
#00912:000000000000000000000000000000000013000000000000
#0171b:1323
#01718:00130023
#01715:0013000000230000
#01712:0000001300000000
#02118:0013000013000000
#0211b:230000000000000000000000000000000013000000000000
#02115:00130000
#02112:0000001300000000
#02215:0013000013000000
#02212:23000000000000000000001300000000
#02218:00130000
#0221b:0000001300000000
#02512:2313
#02515:00001300000000000033001300000000
#02518:00130000
#0251b:2300001300000000
#0321b:0000000000130000
#03218:00000013
#03215:0000130000000013
#03212:23
#03312:13
#03318:00001300000000130000000000000000
#03315:0000130000000013
#0341b:1313
#03412:00001300000000000000000000330013
#03418:0000000000130000
#03415:00000033000000000000000013000000
#0361b:13
#03615:00000000000000001333333300333300
#03612:00000013
#03618:000000003300330000330000330000003300000000000000000000000000000000000000000000000000000000000000
#05012:00000012
#05014:1200000000000012
#05018:00120000
#0501a:00000000000000120000000000000000
#05116:12
#05118:0012000000000000
#0511a:00120000
#05114:0000000000000012
#0511c:00000000003200000000000000000000
#0551b:0000000000130000
#05518:00000013
#05515:0000130000000013
#05512:23
#0551f:21
#05612:13
#05618:000000130000000000000013000000000000000000000000
#05615:0000130000000013
#05610:41
#0571b:1313
#05712:0013000000000000
#05718:0000000000130013
#05715:00000033000000000000000013000000
#05815:00130000
#05812:1300000000000014
#0581a:0000000000140000
#05816:00000024
#05912:0000000000130000
#05915:00000013
#05918:0000130000000013
#0591b:23
#0601b:13
#06015:00001300000000130000000000000000
#06018:0000130000000013
#06112:1313
#0611b:00001300000000000000000000330013
#06115:0000000000130000
#06118:00000033000000000000000013000000
#06312:00000000000000001333333300333300
#06315:00000013
#06318:13
#0631b:000000003300330000330000330000003300000000000000000000000000000000000000000000000000000000000000
#0691b:13
#06918:000000000013000000000000000000000000000000000000
#06915:0013
#06912:000000000000000000000000000000000013000000000000
#0441b:0023000000000023
#04412:00230000
#04418:0023
#04415:000000000000000000000000000000000023000000000000
#0315b:53
#03158:00230000
#03855:00000013
#03852:0013
#0385b:0000000000130000
#0405b:0013
#04052:0000000000130000
#04058:00000013
#04252:0013
#0425b:000000000000000000000000000000000013000000000000
#04258:0013
#04255:000000000000000000000000000000000013000000000000
#0445b:0013000000000013
#04452:00130000
#04458:0013
#04455:000000000000000000000000000000000013000000000000
#04558:00130000
#04552:13
#04555:0013
#0045b:0053
#00458:000000000000000000000000000000000053000000000000
#00555:53
#00552:000000000053000000000000000000000000000000000000
#00558:0053
#0055b:000000000000000000000000000000000053000000000000
#00658:0063
#0065b:000000000000000000000000000000000063000000000000
#01158:00136300
#0115b:13000013
#01155:0013000000000000
#01352:6363
#0135b:00530000
#01355:000000000000000000000000000000000013000000000000
#01455:000000000000000000000000530000000000000000000013
#01458:000000000013
#01452:000000000000000000000000000000000013000000000000
#0165b:13
#01652:00130000
#02055:0053
#02052:00000000000000000000006300000000
#01558:0013
#0155b:0053000000000000
#01955:63
#01958:00530000
#0195b:0000000000630000
#02752:00000013
#02755:0053
#00755:53
#00752:000000000053000000000000000000000000000000000000
#01055:0053
#01052:000000000000000000000000000000000053000000000000
#0245b:0053
#02458:00000000000000000000006300000000
#0305b:0053000000000000
#03955:00005353
#03952:0000000000530000
#05458:0013
#0545b:53
#0645b:0053
#06458:000000000000000000000000000000000053000000000000
#06552:63
#06555:000000000063000000000000000000000000000000000000
#06558:0063
#0655b:000000000000000000000000000000000063000000000000
#06658:0063
#0665b:000000000000000000000000000000000063000000000000
#07155:0053
#0715b:13130000
#07152:0013000000001300
#06755:53
#06752:000000000053000000000000000000000000000000000000
#07055:0053
#07052:000000000000000000000000000000000053000000000000
#00852:0063
#00855:000000000000000000000000000000000063000000000000
#00958:63
#0095b:000000000063000000000000000000000000000000000000
#00955:0063
#00952:000000000000000000000000000000000063000000000000
#0175b:1313
#01758:00130013
#01755:0000000000130000
#02158:0063
#0215b:000000000000000000000000000000000053000000000000
#02255:0053
#02252:00000000000000000000006300000000
#02552:0063
#02555:00000000000000000000005300000000
#02858:00530000
#0285b:53000000000000130000000000000000
#02955:00000000000000530000000000000000
#03452:00006300000000000000000000000053
#03455:00000053
#03255:00630000
#03252:53000000000000130000000000000000
#03358:00000000000000630000000000000000
#0365b:53
#03655:0053
#03652:00000023
#04654:00000000000000520000000000000000
#04754:00520000
#0515a:00620000
#0505a:00000000000000620000000000000000
#0525a:00000062
#05752:0063000000000000
#05855:00230000
#05852:63
#05555:00630000
#05552:53000000000000130000000000000000
#05658:000000000000000000000063000000000000000000000000
#0615b:00005300000000000000000000000063
#06158:00000063
#05958:00530000
#0595b:53000000000000130000000000000000
#06055:00000000000000530000000000000000
#06352:0053
#06355:00000023
#06358:53
#06852:0063
#06855:000000000000000000000000000000000063000000000000
#0695b:53
#06958:000000000053000000000000000000000000000000000000
#06955:0053
#06952:000000000000000000000000000000000053000000000000
#0003a0:0000122200000000
#001340:0000122200000000
#001360:000000000000000000000000000012000022000000000000
#002360:0000122200000000
#003380:0000122200000000
#0043b0:0000000013000023
#004380:000000000000000000000000000000000033000000000000
#005350:1300002300000000
#005320:000000000033000000000000000000000000000000000000
#005380:0000000013000023
#0053b0:000000000000000000000000000000000033000000000000
#006380:0000000013000023
#0063b0:000000000000000000000000000000000033000000000000
#007350:1300002300000000
#007320:000000000033000000000000000000000000000000000000
#0073b0:0013
#007380:000000000000000000000000000000330023000000000000
#008320:0000000013000023
#008350:000000000000000000000000000000000033000000000000
#009380:1300002300000000
#0093b0:000000000033000000000000000000000000000000000000
#009350:0000000013000023
#009320:000000000000000000000000000000000033000000000000
#010350:0000000013000023
#010320:000000000000000000000000000000000033000000000000
#011380:0013
#0113b0:00000023
#012380:15550000000000540000000000000000000000000000000000000000000000000000000000000000000000000000000000000000000000000000000000000000
#012390:000000000000000000000000000000000000000000000000000000000000005300000000000000000000000000000000000000000000000000000000000000000000000000000000000000000000000000000000000000000000000000000000000000000000000000000000000000000000000000000000000000000000000000000000000000000000000000000000000000000000000000000000000000000000000000000000000000000000000000000000530000000000000000000000000000000000000000000000000000000000000000000000000000000000000000000000000000000000000000000000230000000000000000000000000000000000000000000000000000000000000000000000000000000000000000000000000000000000000000000000000000000000000000000000000000000000000000000000000000000000000000000000000000000000000000000000000000000000000000000000000000000000000000000000000000000000000000000000000000000000000000000000000000000000000000000000000000000000000000000000000000000000000000000000000000000000000000000000000000000000000000000000000000000000000000000000000000000000000000000000000000000000000000000000000000000000000000000000000000000000000000000000000000000000000000000000000000000000000000000000000000000000000000000000000000000000000000000000000000000000000000000000000000000000000000000000000000000000000000000000000000000000000000000000000000000000000000000000000000000000000000000000000000000000000000000000000000000000000000000000000000000000000000000000000000000000000000000000000000000000000000000000000000000000000000000000000000000000000000000000000000000000000000000000000000000000000000000000000000000000000000000000000000000000000000000000000000000000000000000000000000000000000000000000000000000000000000000000000000000000000000000000000000000000000000000000000000000000000000000000000000000000000000000000000000000000000000000000000000000000000000000000000000000000000000000000000000000000000000000000000000000000000000000000000000000000000000000000000000000000000000000000000000000000000000000000000000000000000000000000000000000000000000000000000000000000000000000000000000000000000000000000000000000000000000000000000000000000000000000000000000000000000000000000000000000000000000000000000000000000000000000000000000000000000000000000000000000000000000000000000000000000000000000000000000000000000000000000000000000000000000000000000000000000000000000000000000000000000000000000000000000000000000000000000000000000000000000000000000000000000000000000000000000000000000000000000000000000000000000000000000000000000000000000000000000000000000000000000000000000000000000000000000000000000000000000000000000000000000000000000000000000000000000000000000000000000000000000000000000000000000000000000000000000000000000000000000000000000000000000000000000000000000000000000000000000000000000000000000000000000000000000000000000000000000000000000000000000000000000000000000000000000000000000000000000000000000000000000000000000000000000000000000000000000000000000000000000000000000000000000000000000000000000000000000000000000000000000000000000000000000000000000000000000000000000000000000000000000000000000000000000000000000000000000000000000000000000000000000000000000000000000000000000000000000000000000000000000000000000000000000000000000000000000000000000000000000000000000000000000000000000000000000000000000000000000000000000000000000000000000000000000000000000000000000000000000000000000000000000000000000000000000000000000000000000000000000000000000000000000000000000000000000000000000000000000000000000000000000000000000000000000000000000000000000000000000000000000000000000000000000000000000000000000000000000000000000000000000000000000000000000000000000000000000000000000000000000000000000000000000000000000000000000000000000000000000000000000000000000000000000000000000000000000000000000000000000000000000000000000000000000000000000000000000000000000000000000000000000000000000000000000000000000000000000000000000000000000000000000000
#012331:000000000000000000000000000000000000000000000000000000000000000000000000000000000000000000000000000000000000000000000000000000000000000000000000000000000000000000000000000000000000000000000000000000000000000000000000000000000000000000000000000000000000000000000000000000000000000000000000000000000000000000000000000000000000000000000000000000000000000000000000000000000000000000000000000000000000000000000000000000000000000000000000000000000000000000000000000000000000000000000000150000000000000000000000000000000000000000000000000000000055530000000000000000000000000000000000000000000000000000000000000000000000000000000000000000000000000000000000000000000000000000000000000000000000000000000000000000000000000000000000000000000000000000000000000000000000000000000000000000000000000000000000000000000000000000000000000000000000000000000000000000000000000000000000000000000000000000000000000000000000550000000000000000000000000000000000000000000000000000000000000000000000000000000000000000000000000000000000000000000000000000000000000000000000000000000000000000000000000000000000000000000000000000000000000000000000000000000000000000000000000000000000000000000000000000000000000000000000000000000000000000000000000000000000000000000000000000000000000000000000000000000000000000000000000000000000000000000000000000000000000000000000000000000000000000000000000000000000000000000000000000000000000000000000000000000000000000000000000000000000000000000000000000000000000000000000000000000000000000000000000000000000000000000000000000000000000000000000000000000000000000000000000000000000000000000000000000000000000000000000000000000000000000000000000000000000000000000000000000000000000000000000000000000000000000000000000000000000000000000000000000000000000000000000000000000000000000000000000000000000000000000000000000000000000000000000000000000000000000000000000000000000000000000000000000000000000000000000000000000000000000000000000000000000000000000000000000000000000000000000000000000000000000000000000000000000000000000000000000000000000000000000000000000000000000000000000000000000000000000000000000000000000000000000000000000000000000000000000000000000000000000000000000000000000000000000000000000000000000000000000000000000000000000000000000000000000000000000000000000000000000000000000000000000000000000000000000000000000000000000000000000000000000000000000000000000000000000000000000000000000000000000000000000000000000000000000000000000000000000000000000000000000000000000000000000000000000000000000000000000000000000000000000000000000000000000000000000000000000000000000000000000000000000000000000000000000000000000000000000000000000000000000000000000000000000000000000000000000000000000000000000000000000000000000000000000000000000000000000000000000000000000000000000000000000000000000000000000000000000000000000000000000000000000000000000000000000000000000000000000000000000000000000000000000000000000000000000000000000000000000000000000000000000000000000000000000000000000000000000000000000000000000000000000000000000000000000000000000000000000000000000000000000000000000000000000000000000000000000000000000000000000000000000000000000000000000000000000000000000000000000000000000000000000000000000000000000000000000000000000000000000000000000000000000000000000000000000000000000000000000000000000000000000000000000000000000000000000000000000000000000000000000000000000000000000000000000000000000000000000000000000000000000000000000000000000000000000000000000000000000000000000000000000000000000000000000000000000000000000000000000000000000000000000000000000000000000000000000000000000000000000000000000000000000000000000000000000000000000000000000000000000000000000000000000000000000000000000000000000000000000000000000000000000000000000000000000000000000000000000000000000000000000000000000000000000000000000000000000000000
#012351:000000000000000000000000000000000000000000000000000000000000000000000000000000000000000000000000000000000000000000000000000000000000000000000000000000000000000000000000000000000000000000000000000000000000000000000000000000000000000000000000000000000000000000000000000000000000000000000000000000000000000000000000000000000000000000000000000000000000000000000000000000000000000000000000000000000000000000000000000000000000000000000000000000000000000000000000000000000000000000000000000000000000000000000000000000000000000000000000000000000000000000000000000000000000000000000000000000000000000000000000000000000000000000000000000000000000000000000000000000000000000000000000000000000000000000000000000000000000000000000000000000000000000000000000000000000000000000000000000000000000000000000000000000000000000000000000000000000000000000000000000000000000000000000000000000000000000000000000000000000053000000000000000000000000000000000000000000000000000000000000000000000000000000000000000000000000000000000000000000000000000000000000000000000000000000000000000000000000000000000000000000000000000000000000000000000000000000000000000000000000000000000000000000000000000000000000000000000000000000000000000000000000000000000000000000000000000000000000000000000000000000000000000000000000000000000000000000000000000000000000000000000000000000000000000000000000000000000000000000000000000000000000000000000000000000000000000000000000000000000000000000000000000000000000000000000000000000000000000000000000000000000000000000000000000000000000000000000000000000000000000000000000000000000000000000000000000000000000000000000000000000000000000000000000000000000000000000000000000000000000000000000000000000000000000000000000000000000000000000000000000000000000000000000000000000000000000000000000000000000000000000000000000000000000000000000000000000000000000000000000000000000000000000000000000000000000000000000000000000000000000000000000000000000000000000000000000000000000000000000000000000000000000000000000000000000000000000000000000000000000000000000000000000000000000000000000000000000000000000000000000000000000000000000000000000000000000000000000000000000000000000000000000000000000000000000000000000000000000000000000000000000000000000000000000000000000000000000000000000000000000000000000000000000000000000000000000000000000000000000000000000000000000000000000000000000000000000000000000000000000000000000000000000000000000000000000000000000000000000000000000000000000000000000000000000000000000000000000000000000000000000000000000000000000000000000000000000000000000000000000000000000000000000000000000000000000000000000000000000000000000000000000000000000000000000000000000000000000000000000000000000000000000000000000000000000000000000000000000000000000000000000000000000000000000000000000000000000000000000000000000000000000000000000000000000000000000000000000000000000000000000000000000000000000000000000000000000000000000000000000000000000000000000000000000000000000000000000000000000000000000000000000000000000000000000000000000000000000000000000000000000000000000000000000000000000000000000000000000000000000000000000000000000000000000000000000000000000000000000000000000000000000000000000000000000000000000000000000000000000000000000000000000000000000000000000000000000000000000000000000000000000000000000000000000000000000000000000000000000000000000000000000000000000000000000000000000000000000000000000000000000000000000000000000000000000000000000000000000000000000000000000000000000000000000000000000000000000000000000000000000000000000000000000000000000000000000000000000000000000000000000000000000000000000000000000000000000000000000000000000000000000000000000000000000000000000000000000000000000000000000000000000000000000000000000000000000000000000000000000000000000000000000000000000000000000000000000000000000000000000
#012341:00230000
#012390:0000132300000000
#012380:000000000000000000000000000000000000000000000000000000000000000000000000000000000000000000000000000000550000000000000055005500000000000000550000000000000000000000000000000000000000000000000000000000000000000000000000000000000000000000000000000000000000000000000000000000000000000000000000000000000000000000000000000000000000000000000000000000000000000000000000000000000000000000000000
#0123a0:000000000000000000000000000000000000000000000000000000000000000000000000000000000000000000000000000000000000000000000000000000000000000000000000000000000000000000000000000000000000000000000000000000000000000000000000000000000000000000000000000000000000000000000000000000000000000000000000000000000000000000000000000000000000000000000000000000000000000000000000000000000000000000000000000000000000000000000000000000000000000000000000000000000000000000000000000000000000000000000000000000000000000000000000000000000000000000000000000000000000000000000000000000000000000000000000000000000000000000000000000000000000000000000000000000000000000000000000000000000000000000000000000000000000000000000000000000000000000000000000000000000000000000000000000000000000000000000000000000000000000000000000000000000000000000000000000000000000000000000000000000000000000000000000000000000000000000000000000000000000000000000000000000000000000000000000000000000000000000000000000000000000000000000000000000000000000000000000000000000000005300000000000000000000000000000000000000000000000000000000000000000000000000000000000000000000000000000000000000000000000000000000000000000000000000000000005300000000000000000000000000000000000000000053000000000000000000000000000000000000000000000000000000000000000000000000000000000000000000000000000000000000000000000000000000000000000000000000000000000053000000000000000000000000000000000000000000000000000000000000000000000000000000000000000000000000000000000000000000000000000000000000000000000000000000000000000000000000000000000000000000000000000000000000000000000000000000000000000000000000000000000000000000000000000000000000000000000000000000000000000000000000000000000000000000000000000000000000000000000000000000000000000000000000000000000000000000000000000000000000000000000000000000000000000000000000000000000000000000000000000000000000000000000000000000000000000000000000000000000000000000000000000000000000000000000000000000000000000000000000000000000000000000000000000000000000000000000000000000000000000000000000000000000000000000000000000000000000000000000000000000000000000000000000000000000000000000000000000000000000000000000000000000000000000000000000000000000000000000000000000000000000000000000000000000000000000000000000000000000000000000000000000000000000000000000000000000000000000000000000000000000000000000000000000000000000000000000000000000000000000000000000000000000000000000000000000000000000000000000000000000000000000000000000000000000000000000000000000000000000000000000000000000000000000000000000000000000000000000000000000000000000000000000000000000000000000000000000000000000000000000000000000000000000000000000000000000000000000000000000000000000000000000000000000000000000000000000000000000000000000000000000000000000000000000000000000000000000000000000000000000000000000000000000000000000000000000000000000000000000000000000000000000000000000000000000000000000000000000000000000000000000000000000000000000000000000000000000000000000000000000000000000000000000000000000000000000000000000000000000000000000000000000000000000000000000000000000000000000000000000000000000000000000000000000000000000000000000000000000000000000000000000000000000000000000000000000000000000000000000000000000000000000000000000000000000000000000000000000000000000000000000000000000000000000000000000000000000000000000000000000000000000000000000000000000000000000000000000000000000000000000000000000000000000000000000000000000000000000000000000000000000000000000000000000000000000000000000000000000000000000000000000000000000000000000000000000000000000000000000000000000000000000000000000000000000000000000000000000000000000000000000000000000000000000000000000000000000000000000000000000000000000000000000000000000000000000000000000000000000000000000000000000000000000000000000000000000000000000000000
#013320:13
#013350:0023000000000000
#0133b0:00130000
#013380:0000002300000000
#013320:0013
#013350:000000000000000000000000000000000023000000000000
#014350:0013
#014320:000000000000000000000000000000330023000000000000
#0153b0:000000133333330000000000000000000000000000000000
#015380:0023
#019350:13
#019320:0023000000000000
#019380:00130000
#0193b0:0000002300000000
#0193b0:0000000000130000
#019380:000000000000000000000000000000000033000023000000
#020350:0000000013000023
#020320:00000000000000000000333300000000
#021380:0000000013000023
#0213b0:000000000000000000000000000000330033000000000000
#022350:0000000013000023
#022320:00000000000000000000333300000000
#0243b0:0000000013000023
#024380:00000000000000000000333300000000
#025320:0000000013000023
#025350:00000000000000000033333300000000
#026380:000000000000000000000000000000000000000000000000000000000000000000130000000000002300000000000000
#027350:0013
#027320:00000023
#0283b0:13000000000000230000000000000000
#028380:00330000
#029350:00000000000000130000000000000000
#029320:00000023
#0303b0:0013000000000000
#030380:00000033000023000000000000000000
#0313b0:1323
#031380:00530000
#032320:13000000000000230000000000000000
#032350:00330000
#033380:00000000000000130000000000000000
#0333b0:00000023
#034320:0013000000000000
#034350:00000033000023000000000000000000
#034350:00000013
#034320:00000000000000000000000000330033
#035350:0023
#0363b0:13
#036380:000000003300330000330000330000003300230000000000000000000000000000000000000000000000000000000000
#036350:00000000000000001333333300333333
#036320:00000053
#037350:00230000
#039350:00001333
#039320:0000000000330023
#046340:00000000000000120000000000000000
#046360:0000000000220000
#047340:00120000
#047320:000000000000000000000000000000003200000000320000000000000000000000000000220000000000000000000000
#048340:12003222000000000000000000000000
#0493c0:1222
#0503a0:00000000000000120000000000000000
#050380:0000000000220000
#0513a0:00120000
#0513c0:00000000003200320000000022000000
#0523a0:12003222000000000000000000000000
#0523a0:00000012
#052380:000000000000000000000000000000000000000032000032
#053380:0022
#0543b0:13
#0543a0:000033330000000000000000000000000000000000000000
#054390:00000033000000000000000000000000
#054380:0023
#055320:13000000000000230000000000000000
#055350:00330000
#056380:000000000000000000000013000000000000000000000000
#0563b0:00000023
#057320:0013000000000000
#057350:00000033000023000000000000000000
#058320:1323
#058350:00530000
#0593b0:13000000000000230000000000000000
#059380:00330000
#060350:00000000000000130000000000000000
#060320:00000023
#0613b0:0013000000000000
#061380:00000033000023000000000000000000
#061380:00000013
#0613b0:00000000000000000000000000330033
#062380:0023
#063380:13
#0633b0:000000003300330000330000330000003300230000000000000000000000000000000000000000000000000000000000
#063320:00000000000000001333333300333323
#063350:00000053
#0643b0:0000000013000023
#064380:000000000000000000000000000000000033000000000000
#065320:1300002300000000
#065350:000000000033000000000000000000000000000000000000
#065380:0000000013000023
#0653b0:000000000000000000000000000000000033000000000000
#066380:0000000013000023
#0663b0:000000000000000000000000000000000033000000000000
#067350:1300002300000000
#067320:000000000033000000000000000000000000000000000000
#068320:0000000013000023
#068350:000000000000000000000000000000000033000000000000
#0693b0:1300002300000000
#069380:000000000033000000000000000000000000000000000000
#069350:0000000013000023
#069320:000000000000000000000000000000000033000000000000
#070350:0000000013000023
#070320:000000000000000000000000000000000033000000000000
#071350:0013
#071320:00000023
#0239b0:0013000000000000
#023980:00230000
#023950:0000000000130000
#023920:00000023
