This file was generated by Ched 2.7.0.0.
#TITLE ""
#ARTIST ""
#DESIGNER ""
#DIFFICULTY 0
#PLAYLEVEL
#SONGID ""
#WAVE ""
#WAVEOFFSET 0
#JACKET ""
#REQUEST "ticks_per_beat 480"
#00002: 4
#BPM01: 126
#BPM02: 119
#BPM03: 116.19
#BPM04: 116.56
#BPM05: 116.94
#BPM06: 117.31
#BPM07: 117.69
#BPM08: 118.06
#BPM09: 118.44
#BPM0A: 118.81
#00008: 01
#04608: 01
#03708: 02
#04408: 03040506
#04508: 0708090A
#TIL00: ""
#VOLUME: ""
#HISPEED 00
#MEASUREHS 00
#02812:0000000013000000000000130000000000000000130000000000000000000000
#02816:2300130000000013
#02817:0000000000000000000000130000000000000000130000000000000000000000
#02814:00000013
#02819:00000013
#0281b:2300230000000013
#02810:41
#02912:13001300001300130000000000000000
#0291b:1300130000000013
#02918:00130000000000000000000000000000
#02915:00000013000000000000000000000000
#02916:0000000000000000000014000000140000000013000000000000000014000000
#0291a:0000000000000000000000000000000000000014000000000000000000000000
#03012:1300001300120012
#03016:14001414000014000000000000000000
#0301b:00000013000000000000000000000000
#0301c:00001212
#03017:00001414
#03015:0000000000140014
#03112:00140023
#03116:14
#0311c:12
#03118:00000000002300000000130000000000
#03115:00000000000000000000001300000000
#03114:0000000000000013
#03119:0000000000000013
#0311b:0023000023002300
#03312:1300000000000000130000000000000000000014000000000000000013000000
#03316:00000000001400140000000000001400
#0331b:13001300001300130000000000000000
#03315:00130000000000000000000000000000
#03318:00000013000000000000000000000000
#03317:0000000000000000000000000000000000000013000000000000000000000000
#0341b:1300001300000000
#03416:14001414000014001400000012000014
#03412:00000013000000001200000000140013
#03414:0000000000120000
#03418:00000000000000000000140000120000
#0341a:00000014
#0351a:0000000000000014000000000000000000000000000000000000000000000000
#03512:00002300000000002318000000130000
#03518:000000000000000000000000000000000000000000000000000000000000000000130000000000000000000000001600
#03515:00000000002300000000000013000000
#0351b:00000000000000000000000000130000
#0371b:130000000000000013000013130000130000000000130000
#03717:000000130000000000000000000000000013130000000013
#03712:13130013
#03716:000000000000000000130000000013130000000013130000
#03710:41
#03817:130000000013130000000000000000000000000000000000
#03812:130000000033000000000000230000000000230000000000
#0381b:0013001300230000
#03816:0013001314141400
#03818:000000000013
#03815:0000000000000013
#03912:130000000000000000000000130000000013130000000013
#03917:000013000000000000000013000000000000130000000000
#03914:0013000000000000
#03919:000000000013000000000000000000000000000000000000
#0391b:130000000000000013000000000013130000000013130000
#03916:0000000000130013
#04012:1300001300230000
#04017:13
#04016:0013000000141400
#04018:0000000000000013
#04015:000000000000000000000000000000000000000000000013
#0401b:00132323
#0411b:131300000000000000131300
#04118:000000130000130013000000000013000000000000000000
#04115:000000000013000000000000130000130013000000000000
#04112:000000000000000000130013000000000000000000000000
#04212:000000000000230000000000000000000000230000000000000000000013000000000000000000000000000000000000
#04216:00131300
#04217:0013001300000000
#04215:000000000000000000000000000000000023000000130000
#04218:000000000000000000000000000000000023000000000013
#0421b:00232300
#04417:000000000000130000000000230000000000001300000000
#04416:000000000000130000000000000000000000000000000000000000000013000000000000000000000000000000000000
#0441b:000000230000000000130000000000000013000000230000
#04412:000000000000230000000000130000000023000000130000
#04415:13
#04518:13000000000013000000001200001200
#04516:0000000000121200
#04512:000000000000130000000013000000000000000000120000
#04515:230000000013000000000000
#0451b:00232300
#04510:41
#0461c:12000000000032120000000000000000
#04618:00120012
#04616:12000000000012120000000000001200
#04612:0000120000120000
#04614:00000012
#0461a:0000000000000012
#0461f:11
#0471c:12
#04719:00120000000000000000000000000000
#04714:0012000000000000
#04717:00000012000000000000000000000000
#0471a:00120000
#04712:000000000000000000000000000000001200000000120000000000000000000000000000000000000000120000000000
#04716:00000000000000120000000000000000
#04718:0000000000000012
#04816:12000012
#04818:00001212000000001200000000000000
#0481c:1200001200000000
#04812:0012
#04814:0000000000120012
#04912:12
#0491a:12120000
#04918:0012000012121200
#0491c:0000001200000012
#04916:00000000000000000000001200001200
#05012:12000000000000120000000000000000
#05016:00120012
#05018:12000000000000120000000000001200
#0501c:0000120000120000
#0501a:00000012
#05014:0000000000000012
#05216:000000000000120000120000000000000000000000000000120000000000000000000000000000000000000000001200
#0521c:000000000000000000000000120000000000000000000012
#0521a:0000000000120000
#05218:120000000000000000121200
#05212:1200001200000000
#05314:00001200000000000000120000000012
#0531a:0000120000120000
#05312:0000001200001200
#05316:000000000012000000000000120000000000000000000000
#05318:000000000000000012000000000000001200000000000000000000000000000000000000120000120000000000000000
#0531c:0012
#05418:12001200000000000000001300000000
#05412:0000001c000000000000130000001300
#0541c:0012
#0541b:0000000000130013
#05415:00000013
#05416:001200000000000000000000
#05516:2313000000000014
#05512:0000000000140000
#05518:0000000000120000
#05514:00000014
#0551a:00000012
#0551c:0000000000000012
#05517:00000000230000230000000000000000
#0551b:23
#0551f:21
#05612:130000000000000000130000000000000000000000001300000000000000000000000000000000000000140000000000
#0561b:130000131300000000000000
#05618:00130000000000000000000000000000
#05615:0013000000000000
#0561a:000000000000000000000000000000000000000000000000000000000014000000000000000000000000000000000000
#05616:000000000000000000000000000000001400000000001400000000000013000000000000000000000000000000000000
#05617:0000000000000012
#05610:41
#05818:0000000000130000
#05815:00000000000000000000001300000000
#05814:0000000000000013
#05819:0000000000000013
#05816:12140000
#05812:14000023
#0581b:00002300002300000000000023000000
#05817:0023
#06112:1300001312000000
#06114:0000000000120000
#06116:14001414000014001400000012120000
#06118:0000000000140000
#0611a:00000000000000000000000014140014
#0611b:00000013000000000000000000000000
#06117:00000000000000000000000000000012
#06216:0000000000000014000000000000000023001800000000000000000000000000
#06215:00000000000000000000001300000016
#06218:00000013
#0621b:00000000000000000000000000130000
#06212:00002300002300000000000000130000
#0631b:130013130000
#06318:00000000130000000013000000000013
#06315:00001613000016000000130000001300
#06312:000000001300000000000000000000000000000000000000000000000000000000130000000000130000000000000000
#03612:1300001313000000
#0361b:00001300000000000000001300130000
#03615:000000001600000000000000130000001600000000000000000000130000000000000000000000000000000000130000
#03618:00000013000000000000130000001300
#00612:000000000013000000000000130000000000000000000000
#00617:130000000000130000000000130000000000000013130000
#0061b:001300
#00616:000000130000000013000000000000000013000000000000
#01116:1414001400000000
#01112:2300230013000013
#01118:00000013
#0111b:0023000023000013
#01212:000000000000000000000013000000000000160000000000
#01215:000000000000161300000000
#01218:000000000000000000000000000000160013000000000000
#0121b:0000000000000013
#01216:000000000000000000000000000000000000000000130013
#01210:41
#01316:1300001300000000
#0131b:130000000000000000130013130000000000000000000000
#01317:000000000000130000000000000000000000000000000000000000000013000000000000000000000000000000000000
#01312:000000130000130000000000000000000017000013000000
#01318:0000000000000013
#01315:000000000000000000000000000000000000000000000013
#0141b:130000000013
#01418:001600130000000000000000
#01415:000000130013000016000000000000000000000000000000
#01412:000000000000000000130013130000000013000000000013
#01417:000000000000000000000000130000000013000000000013
#01416:000000000000000000000000000000130000000013000000
#01512:0013000023001300
#01515:000000001300000000000000000000000013000000000000
#01518:000000000013000000000000000000001300000000000000
#0151b:0000130000130013
#01516:0000000000000013
#01612:130000160000161300160000
#01618:160013000000000000130000000000160013000000160000
#01615:000000130000000013000000000000000000000013000000
#0161b:00130000
#01712:13132323
#01717:1300001300000000
#01716:0013130000000000
#0171b:0013001300230000
#01715:00001313
#01718:0000000000130000
#01812:13130000
#0181b:1300000000130000
#01817:0013001300000000
#01818:0000000000000013
#01815:0000000000000013
#01816:00001313
#01912:1300000000130000
#01915:0013000000000000
#01918:000000000000000000130000000000000000000000000013
#0191b:000000000000000000000000130000000013000000000000
#01917:000000000013
#01916:000000000000000000000000000000000013000000000000
#02015:000000130000000013000013000000000000000000000013
#02018:0000001300000000
#02012:13000013000000000000131300000000
#0201b:23000023000000001300000000000000
#02017:00000000000000000000001300000000
#02016:0000000000000013
#02010:41
#02312:1300000000120012
#02317:13
#02316:000000120000000000000012000000000000000000000000
#0231c:0012001200000000
#02318:0000000012120000
#0231b:000000005200000000000000000000000000520000000013
#02315:000052000000000000520000
#02314:000000000052000000000000000000000052000000000000
#02313:000000520000000052000000
#0231a:000000000052000000000000000000000052000000000000
#02319:000000520000000052000000
#02416:140000000000140000000000140000000000140000000000000000000000000000130000000000000000000000001300
#02412:001300001300130000000000
#0241b:000000000000000000001300000000000000000000001300000000000000130000130000000000000000000000000000
#02417:0000000000000013
#02516:130000000000000013130000000000000000000000000000
#0251b:23000000000013001300001300000000
#02512:000000000000000000002300000000000000000000000000130000000000000000130000000000000000130000000000
#02515:00000000000000000013000000000000
#02518:0000000000130000
#02517:000000000000000000000000000000000000000000000013
#0261b:000000000000000000230000000000000000130000000000000000000000000000000000000000001300000000000000
#02618:00000000000000130000130000000000
#02615:00000000000000001300001300000000
#02612:23000000000000000013000000000000
#02617:13
#0271c:1222
#0271a:0012000000000000
#02718:1200120000130000
#02712:0000001222000013
#02716:0012001200000000
#02714:00120000
#02715:00000000000000000000001300000000
#02717:0000000000000013
#0271b:00000023
#0001c:1200120000120000
#00018:000000120000000000000000000000000012000000120000
#00012:1212
#00016:0000120000120000
#00014:000000000012
#0011c:12120000
#00118:0012000000000000
#00116:00120000
#00112:12
#00114:000000000000000000000000000000000000000012120000
#00312:1200120000120000
#00316:000000120000000000000000120000000012000000000000
#00318:00120000
#0031c:12
#0031a:0000000000000012
#00212:1200120000120000
#00216:000000120000000000000000000000000012000000120000
#0021c:1212
#00218:0000120000120000
#0021a:000000000012
#00412:2313000013000000
#00418:0013130000000000
#0041b:230000000000000013000000000000000013000000000000
#00415:001300
#00416:000000000000000000000000000000000013000000000000
#00516:000000000013000000000000130000000000000000130000
#00517:13000013
#0051b:000000000013000000000000130000000000000013000000
#00512:130000000000000000000000000000000013000000000013
#0071b:130000000000000000000000000000000013000000000000
#00716:130000000014000000140000000000000013000000000000
#00712:0000000013000018
#00717:0013
#0101b:000000000013000000000000130000000000000000000000
#01016:130000000000130000000000130000000000000013130000
#01012:001300
#01017:000000130000000013000000000000000013000000000000
#0081b:2313000013000000
#00815:0013130000000000
#00812:230000000000000013000000000000000013000000000000
#00818:001300
#00817:000000000000000000000000000000000013000000000000
#00917:000000000013000000000000130000000000000000130000
#00916:13000013
#00912:000000000013000000000000130000000000000013000000
#0091b:130000000000000000000000000000000013000000000013
#02118:000000130000000013000013000000000000000000000013
#02115:0000001300000000
#0211b:130000000013000000000000000000130013000000000000
#02112:230000000023000000000000130000000000000000000000
#02116:000000000000000000000000000000000013000000000000
#02117:0000000000000013
#02215:000000130000000013000013000000000000000000000000
#02218:0000001300000000
#02212:13000013000000000000131300000000
#0221b:23000023000000001300000000000000
#02217:00000000000000000000001300000000
#02216:0000000000000013
#0321b:0000000013000000000000130000000000000000130000000000000000000000
#03217:2300130000000013
#03216:0000000000000000000000130000000000000000130000000000000000000000
#03219:00000013
#03214:00000013
#03212:2300230000000013
#04312:131300000000000000131300
#04315:000000130000130013000000000013000000000000130000
#04318:000000000013000000000000130000130013000000000013
#0431b:000000000000000000130013000000000000000000000000
#05112:12
#05115:00120000000000000000000000000000
#0511a:0012000000000000
#05117:00000012000000000000000000000000
#05114:00120000
#0511c:00000000001200120000000000001200
#05118:00000000000000120000000000000000
#05116:0000000000000012
#0571b:1300001300130013
#05717:12001212000012000000000000000000
#05712:00000013000000001300000013000000
#05716:00001212
#05718:0000000000120012
#05917:2313000000000000
#0591a:0000000000140000
#05916:00000000230000230000120000001400
#05918:00000014
#05914:00000012
#05912:2300000000000012
#0601b:13000013000000130000000000001300
#06012:1300000000000000130013000000000000000014000000000000000000000000
#06015:00130000000000000000000000000000
#06018:0013000000000000
#06016:00000000001400140000000000001400
#06017:0000000000000000000000000000000000000013000000000000000000000000
#06612:000000000013130000000000130000000000001300000000
#06617:13131300
#0661b:000000000000000013000000000000000000000013130000
#06616:000000130000000013000000000000000013000000000000
#06412:230000130000000013000000000000000000000000130000
#06417:000000130000000013000000000000000000000000000000
#0641b:230000000000130000000000000000000013000000000000
#06416:0013
#06517:0013
#06512:000000000013000000000000130000000000000000000000
#06516:1300000000001414
#0651b:1300001300000000
#06717:1313
#06712:1300001413000018
#0671a:000000000014000000000000000000000000000000000000
#06716:000000000000000000000000000000000013000000000000
#0671b:000000000000000000000000000000000013000000000000
#0701b:000000000013130000000000130000000000001300000000
#07016:13131300
#07012:000000000000000013000000000000000000000013130000
#07017:000000130000000013000000000000000013000000000000
#0681b:230000130000000013000000000000000000000000130000
#06816:000000130000000013000000000000000000000000000000
#06812:230000000000130000000000000000000013000000000000
#06817:0013
#06916:0000000013001414
#0691b:000000000013000000000000130000000000000000000000
#06912:1300001300000000
#06917:13
#07116:1414001400000000
#0711b:2300230013000013
#07115:00000013
#07112:0023000023000013
#02852:0000000023000000000000230000000000000000000000000000000000000000
#02856:53000000630000430000000000000000
#02857:0000000000000000000000230000000000000000000000000000000000000000
#0285b:43000000530000430000000000000000
#0295a:0000000000000000000000000000000000000024000000000000000000000000
#02956:0000000000000000000000000000540000000023000000000000000000000000
#02952:00000000000000530000000000000000
#03156:54
#03152:00240000
#0355a:0000000000000024000000000000000000000000000000000000000000000000
#03456:00000000000000000000000000000064
#0345b:1300001300000000
#03452:00000013000000000000000000000000
#03757:0023000000000000
#0375b:53
#03752:00630000
#03756:0000002300000000
#03852:00001313
#0385b:0000000000130000
#03856:0053000000000000
#0405b:0013530013001300
#04052:0000006300130000
#04057:6300001300000000
#04056:0053000000000000
#04252:000000000000130000000000000000000000130000000000000000000023000000000000000000000000000000000000
#0425b:00131300
#04255:000000000000000000000000000000000013000000000000
#04256:0053
#04258:000000000000000000000000000000000013000000000000
#04457:000000000000630000000000330000000000002300000000
#04456:000000000000630000000000000000000000000000000000000000000023000000000000000000000000000000000000
#0445b:000000130000000000230000000000000053000000430000
#04452:000000000000130000000000630000000033000000000000
#04558:53
#0455b:00131300
#04555:13
#0465c:52000000000000520000000000000000
#04658:00520000
#04752:00000000000000620000000000000000
#04756:00000000000000620000000000000000
#04856:52
#04858:0062
#04952:52
#05052:62000000000000620000000000000000
#05056:00620000
#05256:0052
#05258:62
#05452:0000005c000000001200000000000000
#0545c:0012
#05556:1323000000000000
#05557:00000000530000130000000000000000
#05552:00000000000000130000000000000000
#0555b:53
#0565a:000000000000000000000000000000000000000000000000000000000024000000000000000000000000000000000000
#05656:000000000000000000000000000000000000000000005400000000000023000000000000000000000000000000000000
#05652:000000000000000000000053000000000000000000000000
#00657:5363
#00656:000000000000000000000000000000000053000000000000
#01152:13135300
#0115b:0013000013000000
#01357:000000000000230000000000000000000000000000000000000000000023000000000000000000000000000000000000
#0135b:530000000000000000000000530000000043000000000000
#01352:000000000000630000000000000000000047000000000000
#01356:0000002300000000
#01457:0053
#01452:000000000000000000000000000000000013000000000013
#0145b:000000000013
#01557:0013
#0155b:00530000
#01552:0013
#01652:13
#0165b:00130000
#01752:13131313
#0175b:0013001300130000
#0205b:53000053000000005300000000000000
#02057:00000000000000000000006300000000
#02452:0063
#02456:00000000000000000000005300000000
#0255b:00000000000000000000005300000000
#0005c:00520000
#00156:00520000
#00358:00620000
#03052:1300001300000000
#0305b:00000013000000000000000000000000
#0275b:00000013
#00252:00620000
#0045b:000000000000000053000000000000000053000000000000
#00456:000000000000000000000000000000000053000000000000
#00452:0000000053000013
#00457:0000000000000013
#00556:000000000053000000000000130000000000000000000000
#00552:0000001300000000
#00557:5300001300000000
#0055b:000000000053000000000000130000000000000000000000
#00752:0053
#0075b:000000000000000000000000000000000053000000000000
#00756:000000000000000000000000000000000053000000000000
#00757:0053
#01056:6353
#01057:000000000000000000000000000000000063000000000000
#00852:000000000000000063000000000000000063000000000000
#0085b:0000000063000013
#00857:000000000000000000000000000000000063000000000000
#00856:0000000000000013
#00957:000000000063000000000000130000000000000000000000
#00956:6300001300000000
#00952:000000000063000000000000130000000000000000000000
#0095b:0000001300000000
#0195b:0053
#01956:000000000000000000000000000000000053000000000000
#0225b:53000053000000005300000000000000
#02257:00000000000000000000006300000000
#02655:00000000000000000000005300000000
#0325b:0000000023000000000000230000000000000000000000000000000000000000
#03257:53000000530000330000000000000000
#03256:0000000000000000000000230000000000000000000000000000000000000000
#03252:33000000530000330000000000000000
#04158:000000000000000000000000000000000000000000000013
#0515c:00000000000000520000000000000000
#05158:00000000000000520000000000000000
#0575b:1300001300000000
#05752:00000013000000000000000000000000
#05856:00240000
#05852:64
#05957:1323000000000000
#05952:53
#05956:00000000530000130000000000000000
#0595b:00000000000000130000000000000000
#06052:0000000000000000000000000000000000000024000000000000000000000000
#06056:00000000000000640000000000000000
#06057:0000000000000000000000000000000000000023000000000000000000000000
#0605b:00000000000000630000000000000000
#06152:1300001300000000
#0615b:00000013000000000000000000000000
#0615a:00000000000000000000000000000054
#06256:0000000000000024000000000000000000000000000000000000000000000000
#06657:5363
#06656:000000000000000000000000000000000053000000000000
#06652:000000000000000000000000000000000000002300000000
#06457:000000000000000053000000000000000000000000130000
#06456:0053
#0645b:000000000000000000000000000000000053000000000000
#06452:0000000000000013
#06557:0013
#06552:000000000063000000000000130000000000000000000000
#0655b:5300001300000000
#06556:0000001300000000
#06752:0053
#06756:000000000000000000000000000000000053000000000000
#06757:0053
#0675b:000000000000000000000000000000000053000000000000
#07056:6353
#07057:000000000000000000000000000000000063000000000000
#0705b:000000000000000000000000000000000000002300000000
#06856:000000000000000063000000000000000000000000130000
#06857:0063
#06852:000000000000000000000000000000000063000000000000
#0685b:0000000000000013
#06956:0013
#0695b:000000000053000000000000130000000000000000000000
#06952:6300001300000000
#06957:0000001300000000
#0715b:13136300
#07152:0013000013000000
#02152:630000000063000000000000630000000000000000000000
#02156:000000000000000000000000000000000053000000000000
#03352:0000000000000000000000000000000000000024000000000000000000000000
#03356:00000000000000640000000000000000
#03357:0000000000000000000000000000000000000023000000000000000000000000
#0335b:00000000000000630000000000000000
#0235c:0000001200000000
#02352:0000000000000012
#01255:0046
#01258:0000000000460000
#01252:00000036
#0003c0:00120000
#000380:0022
#001360:00120000
#001320:0022
#001381:000000000000122200000000
#001360:000000000000000000000000000012000022000000000000
#0013a1:000000000000000000000000000000000012000022000000
#002321:00120000
#002361:0022
#003381:00120000
#0033c1:0022
#003381:000000000000000000000000000000120022000000000000
#003361:000000000000000000000000000000000000000012220000
#004351:000000000013230000000000000000000000000000000000
#0043b1:001300
#004371:0023
#004320:0000000013000023
#004360:000000000000000000000000000000000033000000000000
#0043b1:000000000000000000000000000000000013000000000000
#004371:0000000000000023
#005371:1300002300000000
#0053b1:000000000033000000000000000000000000000000000000
#005360:000000000013000000000000000000000000000000000000
#005320:0000002300000000
#006370:13
#0063b0:0023000000000000
#006370:0013
#0063b0:000000000000000000000000000000000023000000000000
#006361:000000000000000000000000000000000013000000000000
#006321:0000000000000023
#007321:000000130023000000000000000000000000000000000000
#0073b1:000000000000000013230000000000000000000000000000
#007321:000000130023
#007361:000000000000000000000000000000330033000000000000
#007370:0013
#0073b0:0000000000230000
#0073b0:000000000000000000000000000000000013000000000000
#007370:000000000023
#008380:000000000013230000000000000000000000000000000000
#008320:001300
#008360:0023
#0083b1:0000000013000023
#008371:000000000000000000000000000000000033000000000000
#008320:000000000000000000000000000000000013000000000000
#008360:0000000000000023
#009360:1300002300000000
#009320:000000000033000000000000000000000000000000000000
#009371:000000000013000000000000000000000000000000000000
#0093b1:0000002300000000
#010361:13
#010321:0023000000000000
#010361:0013
#010321:000000000000000000000000000000000023000000000000
#010370:000000000000000000000000000000000013000000000000
#0103b0:0000000000000023
#011360:000000142400000000000000
#011320:0013
#011350:00000023
#012380:14540000000000530000000000000000000000000000000000000000000000000000000000000000000000000000000000000000000000000000000000000000
#012390:000000000000000000000000000000000000000000000000000000000000005200000000000000000000000000000000000000000000000000000000000000000000000000000000000000000000000000000000000000000000000000000000000000000000000000000000000000000000000000000000000000000000000000000000000000000000000000000000000000000000000000000000000000000000000000000000000000000000000000000000520000000000000000000000000000000000000000000000000000000000000000000000000000000000000000000000000000000000000000000000220000000000000000000000000000000000000000000000000000000000000000000000000000000000000000000000000000000000000000000000000000000000000000000000000000000000000000000000000000000000000000000000000000000000000000000000000000000000000000000000000000000000000000000000000000000000000000000000000000000000000000000000000000000000000000000000000000000000000000000000000000000000000000000000000000000000000000000000000000000000000000000000000000000000000000000000000000000000000000000000000000000000000000000000000000000000000000000000000000000000000000000000000000000000000000000000000000000000000000000000000000000000000000000000000000000000000000000000000000000000000000000000000000000000000000000000000000000000000000000000000000000000000000000000000000000000000000000000000000000000000000000000000000000000000000000000000000000000000000000000000000000000000000000000000000000000000000000000000000000000000000000000000000000000000000000000000000000000000000000000000000000000000000000000000000000000000000000000000000000000000000000000000000000000000000000000000000000000000000000000000000000000000000000000000000000000000000000000000000000000000000000000000000000000000000000000000000000000000000000000000000000000000000000000000000000000000000000000000000000000000000000000000000000000000000000000000000000000000000000000000000000000000000000000000000000000000000000000000000000000000000000000000000000000000000000000000000000000000000000000000000000000000000000000000000000000000000000000000000000000000000000000000000000000000000000000000000000000000000000000000000000000000000000000000000000000000000000000000000000000000000000000000000000000000000000000000000000000000000000000000000000000000000000000000000000000000000000000000000000000000000000000000000000000000000000000000000000000000000000000000000000000000000000000000000000000000000000000000000000000000000000000000000000000000000000000000000000000000000000000000000000000000000000000000000000000000000000000000000000000000000000000000000000000000000000000000000000000000000000000000000000000000000000000000000000000000000000000000000000000000000000000000000000000000000000000000000000000000000000000000000000000000000000000000000000000000000000000000000000000000000000000000000000000000000000000000000000000000000000000000000000000000000000000000000000000000000000000000000000000000000000000000000000000000000000000000000000000000000000000000000000000000000000000000000000000000000000000000000000000000000000000000000000000000000000000000000000000000000000000000000000000000000000000000000000000000000000000000000000000000000000000000000000000000000000000000000000000000000000000000000000000000000000000000000000000000000000000000000000000000000000000000000000000000000000000000000000000000000000000000000000000000000000000000000000000000000000000000000000000000000000000000000000000000000000000000000000000000000000000000000000000000000000000000000000000000000000000000000000000000000000000000000000000000000000000000000000000000000000000000000000000000000000000000000000000000000000000000000000000000000000000000000000000000000000000000000000000000000000000000000000000000000000000000000000000000000000000000000000000000000000000000000000000000000000000000000000000000000000000000000000000000000000000000000000000000000000000000000000000000000000000000000000000000000000000000000000000000000000000
#012341:000000000000000000000000000000000000000000000000000000000000000000000000000000000000000000000000000000000000000000000000000000000000000000000000000000000000000000000000000000000000000000000000000000000000000000000000000000000000000000000000000000000000000000000000000000000000000000000000000000000000000000000000000000000000000000000000000000000000000000000000000000000000000000000000000000000000000000000000000000000000000000000000000000000000000000000000000000000000000000000000140000000000000000000000000000000000000000000000000000000054520000000000000000000000000000000000000000000000000000000000000000000000000000000000000000000000000000000000000000000000000000000000000000000000000000000000000000000000000000000000000000000000000000000000000000000000000000000000000000000000000000000000000000000000000000000000000000000000000000000000000000000000000000000000000000000000000000000000000000000000540000000000000000000000000000000000000000000000000000000000000000000000000000000000000000000000000000000000000000000000000000000000000000000000000000000000000000000000000000000000000000000000000000000000000000000000000000000000000000000000000000000000000000000000000000000000000000000000000000000000000000000000000000000000000000000000000000000000000000000000000000000000000000000000000000000000000000000000000000000000000000000000000000000000000000000000000000000000000000000000000000000000000000000000000000000000000000000000000000000000000000000000000000000000000000000000000000000000000000000000000000000000000000000000000000000000000000000000000000000000000000000000000000000000000000000000000000000000000000000000000000000000000000000000000000000000000000000000000000000000000000000000000000000000000000000000000000000000000000000000000000000000000000000000000000000000000000000000000000000000000000000000000000000000000000000000000000000000000000000000000000000000000000000000000000000000000000000000000000000000000000000000000000000000000000000000000000000000000000000000000000000000000000000000000000000000000000000000000000000000000000000000000000000000000000000000000000000000000000000000000000000000000000000000000000000000000000000000000000000000000000000000000000000000000000000000000000000000000000000000000000000000000000000000000000000000000000000000000000000000000000000000000000000000000000000000000000000000000000000000000000000000000000000000000000000000000000000000000000000000000000000000000000000000000000000000000000000000000000000000000000000000000000000000000000000000000000000000000000000000000000000000000000000000000000000000000000000000000000000000000000000000000000000000000000000000000000000000000000000000000000000000000000000000000000000000000000000000000000000000000000000000000000000000000000000000000000000000000000000000000000000000000000000000000000000000000000000000000000000000000000000000000000000000000000000000000000000000000000000000000000000000000000000000000000000000000000000000000000000000000000000000000000000000000000000000000000000000000000000000000000000000000000000000000000000000000000000000000000000000000000000000000000000000000000000000000000000000000000000000000000000000000000000000000000000000000000000000000000000000000000000000000000000000000000000000000000000000000000000000000000000000000000000000000000000000000000000000000000000000000000000000000000000000000000000000000000000000000000000000000000000000000000000000000000000000000000000000000000000000000000000000000000000000000000000000000000000000000000000000000000000000000000000000000000000000000000000000000000000000000000000000000000000000000000000000000000000000000000000000000000000000000000000000000000000000000000000000000000000000000000000000000000000000000000000000000000000000000000000000000000000000000000000000000000000000000000000000000000000000000000000000000000000000000000000000000000000000000000000000
#012361:000000000000000000000000000000000000000000000000000000000000000000000000000000000000000000000000000000000000000000000000000000000000000000000000000000000000000000000000000000000000000000000000000000000000000000000000000000000000000000000000000000000000000000000000000000000000000000000000000000000000000000000000000000000000000000000000000000000000000000000000000000000000000000000000000000000000000000000000000000000000000000000000000000000000000000000000000000000000000000000000000000000000000000000000000000000000000000000000000000000000000000000000000000000000000000000000000000000000000000000000000000000000000000000000000000000000000000000000000000000000000000000000000000000000000000000000000000000000000000000000000000000000000000000000000000000000000000000000000000000000000000000000000000000000000000000000000000000000000000000000000000000000000000000000000000000000000000000000000000000052000000000000000000000000000000000000000000000000000000000000000000000000000000000000000000000000000000000000000000000000000000000000000000000000000000000000000000000000000000000000000000000000000000000000000000000000000000000000000000000000000000000000000000000000000000000000000000000000000000000000000000000000000000000000000000000000000000000000000000000000000000000000000000000000000000000000000000000000000000000000000000000000000000000000000000000000000000000000000000000000000000000000000000000000000000000000000000000000000000000000000000000000000000000000000000000000000000000000000000000000000000000000000000000000000000000000000000000000000000000000000000000000000000000000000000000000000000000000000000000000000000000000000000000000000000000000000000000000000000000000000000000000000000000000000000000000000000000000000000000000000000000000000000000000000000000000000000000000000000000000000000000000000000000000000000000000000000000000000000000000000000000000000000000000000000000000000000000000000000000000000000000000000000000000000000000000000000000000000000000000000000000000000000000000000000000000000000000000000000000000000000000000000000000000000000000000000000000000000000000000000000000000000000000000000000000000000000000000000000000000000000000000000000000000000000000000000000000000000000000000000000000000000000000000000000000000000000000000000000000000000000000000000000000000000000000000000000000000000000000000000000000000000000000000000000000000000000000000000000000000000000000000000000000000000000000000000000000000000000000000000000000000000000000000000000000000000000000000000000000000000000000000000000000000000000000000000000000000000000000000000000000000000000000000000000000000000000000000000000000000000000000000000000000000000000000000000000000000000000000000000000000000000000000000000000000000000000000000000000000000000000000000000000000000000000000000000000000000000000000000000000000000000000000000000000000000000000000000000000000000000000000000000000000000000000000000000000000000000000000000000000000000000000000000000000000000000000000000000000000000000000000000000000000000000000000000000000000000000000000000000000000000000000000000000000000000000000000000000000000000000000000000000000000000000000000000000000000000000000000000000000000000000000000000000000000000000000000000000000000000000000000000000000000000000000000000000000000000000000000000000000000000000000000000000000000000000000000000000000000000000000000000000000000000000000000000000000000000000000000000000000000000000000000000000000000000000000000000000000000000000000000000000000000000000000000000000000000000000000000000000000000000000000000000000000000000000000000000000000000000000000000000000000000000000000000000000000000000000000000000000000000000000000000000000000000000000000000000000000000000000000000000000000000000000000000000000000000000000000000000000000000000000000000000000000000000000000000000000000000000
#012351:00220000
#0123b0:0000122200000000
#0123a0:000000000000000000000000000000000000000000000000000000000000000000000000000000000000000000000000000000540000000000000054005400000000000000540000000000000000000000000000000000000000000000000000000000000000000000000000000000000000000000000000000000000000000000000000000000000000000000000000000000000000000000000000000000000000000000000000000000000000000000000000000000000000000000000000
#0123c0:000000000000000000000000000000000000000000000000000000000000000000000000000000000000000000000000000000000000000000000000000000000000000000000000000000000000000000000000000000000000000000000000000000000000000000000000000000000000000000000000000000000000000000000000000000000000000000000000000000000000000000000000000000000000000000000000000000000000000000000000000000000000000000000000000000000000000000000000000000000000000000000000000000000000000000000000000000000000000000000000000000000000000000000000000000000000000000000000000000000000000000000000000000000000000000000000000000000000000000000000000000000000000000000000000000000000000000000000000000000000000000000000000000000000000000000000000000000000000000000000000000000000000000000000000000000000000000000000000000000000000000000000000000000000000000000000000000000000000000000000000000000000000000000000000000000000000000000000000000000000000000000000000000000000000000000000000000000000000000000000000000000000000000000000000000000000000000000000000000000000005200000000000000000000000000000000000000000000000000000000000000000000000000000000000000000000000000000000000000000000000000000000000000000000000000000000005200000000000000000000000000000000000000000052000000000000000000000000000000000000000000000000000000000000000000000000000000000000000000000000000000000000000000000000000000000000000000000000000000000052000000000000000000000000000000000000000000000000000000000000000000000000000000000000000000000000000000000000000000000000000000000000000000000000000000000000000000000000000000000000000000000000000000000000000000000000000000000000000000000000000000000000000000000000000000000000000000000000000000000000000000000000000000000000000000000000000000000000000000000000000000000000000000000000000000000000000000000000000000000000000000000000000000000000000000000000000000000000000000000000000000000000000000000000000000000000000000000000000000000000000000000000000000000000000000000000000000000000000000000000000000000000000000000000000000000000000000000000000000000000000000000000000000000000000000000000000000000000000000000000000000000000000000000000000000000000000000000000000000000000000000000000000000000000000000000000000000000000000000000000000000000000000000000000000000000000000000000000000000000000000000000000000000000000000000000000000000000000000000000000000000000000000000000000000000000000000000000000000000000000000000000000000000000000000000000000000000000000000000000000000000000000000000000000000000000000000000000000000000000000000000000000000000000000000000000000000000000000000000000000000000000000000000000000000000000000000000000000000000000000000000000000000000000000000000000000000000000000000000000000000000000000000000000000000000000000000000000000000000000000000000000000000000000000000000000000000000000000000000000000000000000000000000000000000000000000000000000000000000000000000000000000000000000000000000000000000000000000000000000000000000000000000000000000000000000000000000000000000000000000000000000000000000000000000000000000000000000000000000000000000000000000000000000000000000000000000000000000000000000000000000000000000000000000000000000000000000000000000000000000000000000000000000000000000000000000000000000000000000000000000000000000000000000000000000000000000000000000000000000000000000000000000000000000000000000000000000000000000000000000000000000000000000000000000000000000000000000000000000000000000000000000000000000000000000000000000000000000000000000000000000000000000000000000000000000000000000000000000000000000000000000000000000000000000000000000000000000000000000000000000000000000000000000000000000000000000000000000000000000000000000000000000000000000000000000000000000000000000000000000000000000000000000000000000000000000000000000000000000000000000000000000000000000000000000000000000000000000000000000000
#0133b0:13230000
#013370:0053000000000000
#013321:00132300
#013361:0000005300000000
#0133b0:000000000000000000000000130000000023000000000000
#013370:000000000000000000000000000000000000000000000000000000000053000000000000000000000000000000000000
#014370:0013
#0143b0:0000000000230000
#0153b0:00130000
#015370:0023
#0183b0:000013230000000000000000000000000000000000000000
#018370:000000000013230000000000000000000000000000000000
#0183b0:000000000000000013230000000000000000000000000000
#018320:000000000000000000000013230000000000000000000000
#018360:000000000000000000000000000013230000000000000000
#018320:000000000000000000000000000000000013230000000000
#0193b0:13230000
#019380:0033000000000000
#019321:00132300
#019351:0000003300000000
#0193b0:0013
#019370:0000000000230000
#019360:000000000000000000000000000000000013000000000000
#019320:000000000023
#0203b0:13
#020380:0023000000000000
#0203b0:00000013000000000000000000000000
#020380:002300
#0203b0:0013
#020370:0000000000230000
#020370:00000000000000000000001300000000
#0203b0:0000000000000023
#021320:13
#021350:0023000000000000
#021320:000000000013000000000000000000000000000000000000
#021350:002300
#021320:0013
#021360:0000000000230000
#021360:000000000000000000000000000000000013000000000000
#021320:0000000000000023
#0223b0:13
#022380:0023000000000000
#0223b0:00000013000000000000000000000000
#022380:002300
#0223b0:0013
#022370:0000000000230000
#022370:00000000000000000000001300000000
#0223b0:0000000000000023
#024320:0013
#024360:0000000000230000
#024360:00000000000000000000001300000000
#024320:0000000000000023
#025370:000000130023000000000000000000000000000000000000
#0253b0:00000000000000000000001300000000
#025370:0000000000000023
#026360:00001323000000000000000000000000
#026350:00000000000000000000001300000000
#026320:000000000023
#028360:13000000330000230000000000000000
#028320:0000000053000000000000530000000000000000000000000000000000000000
#0283b1:00000000130000230000000000000000
#028371:0000000000000000000000530000000000000000000000000000000000000000
#029361:00000000000000140000000024000000
#0293a1:0000000000000000000000000000000000000054000000000000000000000000
#029320:00000000000000130000000023000000
#029360:0000000000000000000000000000000000000053000000000000000000000000
#031360:1424
#031320:00540000
#032370:13000000330000230000000000000000
#0323b0:0000000053000000000000530000000000000000000000000000000000000000
#032321:00000000130000230000000000000000
#032361:0000000000000000000000530000000000000000000000000000000000000000
#033361:00000000000000140000000024000000
#033321:0000000000000000000000000000000000000054000000000000000000000000
#0333b0:00000000000000130000000023000000
#033370:0000000000000000000000000000000000000053000000000000000000000000
#034360:00000000000000000000000000000014
#0353a0:0000000000000054000000000000000000000000000000000000000000000000
#035360:0024
#0373b0:13230000
#037370:0053000000000000
#037321:00132300
#037361:0000005300000000
#038361:0013000000000000
#038321:000000000033230000000000000000000000000000000000
#039361:000000132300000000000000
#040371:13
#0403b1:0023000000000000
#040360:0013000000000000
#040320:00230000
#0403b1:00130000
#040371:0000002300000000
#040320:0000001300000000
#040360:0023
#041380:000000000000000000000000000000000000000000130023
#042360:0013
#042320:000000000000000000000000000000000000000000000000000000000053000000000000000000000000000000000000
#042350:000000000000000000000000000000000023000000000000
#044360:0013000000000000
#044320:00230000
#044371:00132300
#0443b1:0000005300000000
#044320:000000000000000000000000130000000023000000000000
#044360:000000000000000000000000000000000000000000000000000000000053000000000000000000000000000000000000
#0443b1:000000000000000000000000000000000013000000230000
#044371:000000000000000000000000000000000000005300000000
#045381:13
#0453b1:00230000
#0463c1:12000000000032320000000000000000
#046381:00320000
#046361:0000000000220000
#047321:00000000000000120000000000000000
#047381:00000022
#047360:00000000000000120000000000000000
#0473c0:00000022
#048360:12
#048320:0000002200000000
#048380:0012
#0483c0:0000000000000022
#049320:12
#049360:0022
#050320:12000000000000320000000000000000
#050360:00320000
#050380:0000000000220000
#0513c0:00000000000000120000000000000000
#051360:00000022
#051381:00000000000000120000000000000000
#051321:00000022
#052381:12
#0523c1:0000002200000000
#052361:0012
#052321:000000000022
#054321:0000001c000000002200000000000000
#0553b1:13230000
#055361:0053000000000000
#055370:00130000
#055320:00000000000000230000000000000000
#056360:000000000000000000000014000000000000240000000000
#0563a0:000000000000000000000000000000000000000000000000000000000054000000000000000000000000000000000000
#056321:000000000000000000000013000000000000230000000000
#056361:000000000000000000000000000000000000000000000000000000000053000000000000000000000000000000000000
#058321:1424
#058361:00540000
#059321:13230000
#059371:0053000000000000
#059360:00130000
#0593b0:00000000000000230000000000000000
#060360:00000000000000140000000024000000
#060320:0000000000000000000000000000000000000054000000000000000000000000
#0603b1:00000000000000130000000023000000
#060371:0000000000000000000000000000000000000053000000000000000000000000
#0613a1:00000000000000000000000000000014
#062361:0000000000000054000000000000000000000000000000000000000000000000
#0623a1:0024
#064361:000000000013230000000000000000000000000000000000
#064371:001300
#0643b1:0023
#064360:0013
#064320:000000000000000000000000000000000023000000000000
#0643b1:000000000000000000000000000000000013000000000000
#064371:0000000000000023
#0653b1:13
#065371:000000000023000000000000000000000000000000000000
#065320:000000000013000000000000000000000000000000000000
#065360:0000002300000000
#065320:000000000000000000000000000000000013230000000000
#0653b0:000000000000000000000000000000000000000013230000
#065320:000000000000000000000000000000000000000000000013
#066320:23
#066371:13
#0663b1:0023000000000000
#066371:0013
#0663b1:000000000000000000000000000000000023000000000000
#066360:000000000000000000000000000000000013000000230000
#066320:000000000000000000000000000000000000005300000000
#067360:000000130023000000000000000000000000000000000000
#067370:000000000000000013230000000000000000000000000000
#067320:0013
#067360:0000000000230000
#067371:000000130023
#0673b1:000000000000000000000000000000330033000000000000
#067360:000000000000000000000000000000000013000000000000
#067320:000000000023
#068370:000000000013230000000000000000000000000000000000
#068360:001300
#068320:0023
#068371:0013
#0683b1:000000000000000000000000000000000023000000000000
#068320:000000000000000000000000000000000013000000000000
#068360:0000000000000023
#069320:13
#069360:000000000023000000000000000000000000000000000000
#0693b1:000000000013000000000000000000000000000000000000
#069371:0000002300000000
#0693b1:000000000000000000000000000000000013230000000000
#069321:000000000000000000000000000000000000000013230000
#0693b1:000000000000000000000000000000000000000000000013
#0703b1:23
#070360:13
#070320:0023000000000000
#070360:0013
#070320:000000000000000000000000000000000023000000000000
#070371:000000000000000000000000000000000013000000230000
#0703b1:000000000000000000000000000000000000005300000000
#071361:000000142400000000000000
#0713b1:0013
#071381:00000023
#0239c0:0012000000000000
#023990:00220000
#023961:0012000000000000
#023931:00220000
#023921:0000000000120000
#023951:00000022
#023980:0000000000120000
#0239b0:00000022
