This file was generated by Ched 2.7.0.0.
#TITLE ""
#ARTIST ""
#DESIGNER ""
#DIFFICULTY 0
#PLAYLEVEL
#SONGID ""
#WAVE ""
#WAVEOFFSET 0
#JACKET ""
#REQUEST "ticks_per_beat 480"
#00002: 4
#BPM01: 126
#BPM02: 119
#BPM03: 116.19
#BPM04: 116.56
#BPM05: 116.94
#BPM06: 117.31
#BPM07: 117.69
#BPM08: 118.06
#BPM09: 118.44
#BPM0A: 118.81
#00008: 01
#04608: 01
#03708: 02
#04408: 03040506
#04508: 0708090A
#TIL00: ""
#VOLUME: ""
#HISPEED 00
#MEASUREHS 00
#0001a:1414
#00014:00140000
#00112:1414
#00118:00140000
#0021a:1414
#00214:00140000
#00312:1414
#00318:00140000
#00414:00140000
#00418:0014
#00412:00000014
#0041a:24
#0061a:14
#00614:00140000
#00618:0014
#00612:00000014
#00818:00140000
#00814:0014
#0081a:00000014
#00812:24
#01012:14
#01018:00140000
#01014:0014
#0101a:00000014
#0121a:1414
#01214:00140000
#01210:41
#01412:14
#01418:00140000
#01414:00001414
#01612:1414
#01618:00140000
#0181a:14
#01814:00140000
#01818:00001414
#02312:14
#02318:00140000
#02314:0014
#0231a:00000014
#0281a:00140000
#02812:0014
#02818:00000014
#02814:24
#02810:41
#03012:14
#03018:00140000
#03014:0014
#0301a:00000014
#03212:00140000
#0321a:0014
#03214:00000014
#03218:24
#0341a:14
#03414:00140000
#03418:0014
#03412:00000014
#03614:14
#03618:0014
#03712:14
#0371a:00140000
#03714:0014
#03718:00000014
#03710:41
#03812:14
#0381a:00140000
#03814:0024
#0391a:14
#03912:00140000
#03918:0014
#03914:00000014
#0401a:14
#04012:00140000
#04018:0024
#04114:14
#0411a:00140000
#04112:0014
#04118:00000014
#04318:14
#04312:00140000
#0431a:0014
#04314:00000014
#04514:1414
#04518:00140014
#04510:41
#05512:00140000
#0551a:0014
#05514:00000014
#05518:24
#0551f:21
#0571a:14
#05714:00140000
#05718:0014
#05712:00000014
#0591a:00140000
#05912:0014
#05918:00000014
#05914:24
#06112:14
#06118:00140000
#06114:0014
#0611a:00000014
#06318:14
#06314:0014
#06414:00140000
#06418:0014
#06412:00000014
#0641a:24
#0661a:14
#06614:00140000
#06618:0014
#06612:00000014
#06818:00140000
#06814:0014
#0681a:00000014
#06812:24
#07012:14
#07018:00140000
#07014:0014
#0701a:00000014
#07118:00000014
#07114:0000000000000014
#07112:0034343400000000
#0461f:11
#01112:0034343400000000
#02010:41
#05610:41
#00758:0014
#01154:0014
#0155a:0014
#01952:0014
#02758:00000014
#04252:0014
#0445a:0014
#05454:0014
#06758:0014
#07154:0014
#03854:00000014
#04058:00000014
#0053a0:14
#005380:00240000
#005320:0014
#005340:00000024
#0073a0:14
#007390:00340000
#007380:0024
#009320:14
#009340:00240000
#0093a0:0014
#009380:00000024
#011320:1434343400000000
#011340:0024
#013340:14240000
#013380:00001424
#015380:14
#0153a0:0024
#017380:14240000
#017340:00001424
#019340:14
#019320:0024
#0203a0:14
#020380:00003424
#021320:14
#021340:00003424
#022380:14
#0223a0:00003424
#024320:14
#024340:00003424
#0253a0:14
#025380:00003424
#026340:14
#026320:00003424
#027380:1434343434002400
#029320:14
#029340:00240000
#029380:0014
#0293a0:00000024
#031320:14
#031340:0024
#0333a0:14
#033380:00240000
#033340:0014
#033320:00000024
#0353a0:14
#035380:0024
#038340:0000000014342400
#040380:0000000014342400
#042340:14
#042320:0024
#044380:14
#0443a0:0024
#046320:14
#046340:0024
#0473a0:14
#047380:0024
#048340:14
#048320:0024
#049380:14
#0493a0:0024
#050320:14
#050340:0034
#051320:34
#051340:0024
#0523a0:14
#052380:0034
#0533a0:34
#053380:0024
#054340:1424
#0563a0:14
#056380:00240000
#056340:0014
#056320:00000024
#0583a0:14
#058380:0024
#060320:14
#060340:00240000
#060380:0014
#0603a0:00000024
#062320:14
#062340:0024
#0653a0:14
#065380:00240000
#065320:0014
#065340:00000024
#0673a0:14
#067390:00340000
#067380:0024
#069320:14
#069340:00240000
#0693a0:0014
#069380:00000024
#071320:1434343400000000
#071340:0024
