This file was generated by Ched 2.7.0.0.
#TITLE ""
#ARTIST ""
#DESIGNER ""
#DIFFICULTY 0
#PLAYLEVEL
#SONGID ""
#WAVE ""
#WAVEOFFSET 0
#JACKET ""
#REQUEST "ticks_per_beat 480"
#00002: 4
#BPM01: 124
#00008: 01
#TIL00: ""
#VOLUME: ""
#HISPEED 00
#MEASUREHS 00
#00119:14
#00219:14
#00313:14
#00413:14
#00614:14
#00718:14
#00812:14
#0171a:14
#01710:41
#0181a:14
#01914:14
#02014:14
#02118:14
#02218:14
#02312:14
#02412:14
#03312:0016
#03318:26
#03512:16
#03518:0016
#03718:16
#03712:0016
#0451a:14
#04514:0014
#0461a:14
#04614:0014
#04718:14
#04712:0014
#04912:14
#04918:0014
#05012:14
#05018:0014
#05114:14
#0511a:0014
#05110:41
#05912:14
#06218:0016
#06212:26
#0621f:00210000
#06418:16
#06412:0016
#06612:16
#06618:0016
#07012:16
#03818:16
#03812:0016
#06712:16
#06718:0016
#0531f:11
#0051a:24
#07612:26
#00910:41
#06310:00410000
#02510:41
#04110:41
#009380:14
#010380:24
#011340:14
#012340:24
#0133a0:14
#0143a0:24
#015320:14
#016320:24
#0253a0:14
#0263a0:24
#027340:14
#028340:24
#029380:14
#030380:24
#031320:14
#032320:24
#034380:1626
#036320:1626
#039380:1626
#040320:1626
#0413a0:14
#042380:24
#043320:14
#044340:24
#048380:1424
#052340:1424
#0533a0:14
#0543a0:00000024
#055340:14
#056340:00000024
#057380:14
#058380:00000024
#060380:14
#061380:24
#063320:1626
#065380:1626
#068320:1626
#069380:1626
#071380:1626
#072320:1626
#0733a0:14
#074380:34
#0753a0:24
#076320:16360036003600260000000000000000
