This file was generated by Ched 2.7.0.0.
#TITLE ""
#ARTIST ""
#DESIGNER ""
#DIFFICULTY 0
#PLAYLEVEL
#SONGID ""
#WAVE ""
#WAVEOFFSET 0
#JACKET ""
#REQUEST "ticks_per_beat 480"
#00002: 4
#BPM01: 124
#00008: 01
#TIL00: ""
#VOLUME: ""
#HISPEED 00
#MEASUREHS 00
#04718:00130000000013130000001300000000
#04715:000000000000000000130000130000000000000000000000000000000000130000000000000000000000000053000000
#0471b:00000000130000000013000000000000
#04712:000000000000000000000000000000000000000000130000000000000000000000000000000013000000000000000000
#04713:000000000053
#04714:0000000000000053
#04716:000000000000000000000000000000000000000000000053
#01112:1313130000001300
#01118:0000001300130013
#01115:00000000000000130000000000000013
#0111b:00130000
#0051b:00001300000000130000130000000000
#00512:23130000
#00517:23000000001300000000000000000000
#00518:00000013
#00515:0000000000000013
#00516:00001300000000130000000000000000
#0451b:1300130000130013
#04512:0013001300001300
#04517:00000000000000130000000013000000
#04516:00000000000000000013000000000013
#0451a:005300000000000000000000000000000000000000000000
#04519:005300000000000000000000
#04518:0053000000000000
#04513:005300000000
#04514:000000000053000000000000000000000000000000000000
#04515:00530000
#05917:00000013000000000000130000000013
#0591b:13000000001313000000000013000000
#05912:00001313000000000000000000001300
#05916:0000001300001300
#06112:13000000001300000000002400130000
#0611b:00001313000000000000000000000000
#06115:00000013000000000023000000000013
#06118:00000000001300002300000000001300
#0611a:00000000000000000000002400000000
#00112:1313000000000000
#00115:00130013
#0011b:13001300000000130000000000000000
#00118:00000000001300000000000000001300
#00116:00000000000000130000000000000000
#0021b:13000013000000000000000000000000
#00216:0013000000000000
#00212:13000000001300130000000000000000
#00217:00000000000000130000000000000000
#00218:0000000000000013
#00615:0013000000001300
#00618:00000013001300000000000000001300
#00612:13000000001300000000130000000000
#0061b:13000000000000130000000000000000
#00616:00000000000000130000000000000000
#00717:0013000000000000
#00718:0000130000000013
#00715:00000000001300000000000013000013
#00716:13000000000000130000000000000000
#0071b:13000000000000130000000000000000
#00712:0013000000130000
#0081b:0013001300000000
#00819:00130000
#00812:00000000000013000000002400000000
#00814:00130000
#00818:00000000000000000023000000001300
#00815:00000000000000002300000000000013
#0081a:00000000000000000000002400000000
#0091b:1313130000001300
#00912:00130000
#00918:00000000000013000000130000000013
#00915:00000000000000130000000000001300
#00916:00000013
#00910:41
#01015:0000000000000013
#01018:00000000000000000000000000000013
#01012:0000000013130000
#0101b:0000000000130000
#01212:0013000000000000
#0121b:0013000000001300
#01215:0000000000000013
#01218:00000000000000000000000000000013
#01515:00000000001300000000130000000013
#0151b:1300001300001300
#01512:0013000000001300
#01518:00000013000000000000000000001300
#0271b:0000000000130000
#02718:00000000001300000000000013000013
#02715:0013000000000013
#02712:2400002400000000
#0271a:00000024000000000000000000000000
#0311b:1300001300001300
#03112:0013000000130000
#03118:00000013000000000000000000001300
#03115:00000000001300000000000013000013
#0321b:00001300000000000000000000130000
#03215:0000000000000013
#03218:00000033330000230000000000000013
#03212:00000000000000230000000000000000
#0331b:0013001300001300
#03316:00000000000000130000000013000000
#03312:2323230000000013
#03317:00000000130000000000130000000013
#03412:00000000130000000000000000130000
#0341b:0000001300000000
#03416:00001300000000130000000000000000
#03418:0000000000000013
#03415:00000000000000000000000000000013
#03417:0000130000130000
#03515:0013001300130000
#03518:00002300000000130000000013000000
#03512:00230013
#0351b:2300130000000013
#03516:00000000000000000000000000000013
#04112:13130000
#0411b:13000013
#04117:00130000
#04116:00000013
#04110:41
#04212:0000130000130013
#0421b:00000013
#04216:00000013
#04217:0000130000130013
#0461b:00130000000013000013000000000000
#04615:00001300000000000000001300000013
#04618:00000013000000000000130000001300
#04612:00130013
#04616:00000000000000130000000000000000
#04815:0000000000000013
#04818:000000000000000000000000000000003300000000000000000000330000000000000000330000000000000000000000000000000000000000000000000000000000000000000000000000000000000000000000000000000000130000000000
#04812:000000000000000000000000000000003300000000000000000000330000000000000000330000000000000000000000000000000000000000000000230000000000000000000000000000000000000000000000000000000000000000000000
#0481b:0000000000230000
#0511b:13131313
#05115:00130000000013000000001300001300
#05118:00001300001300000000130000130013
#05112:00000013000000130013000000000000
#05110:41
#0521b:1300130000130000
#05215:00130000000013000000001300000000
#05218:00001300001300001300000000000000
#05212:00000013000000130013000000000000
#0531b:13000000130000130000130000130000
#0531f:11
#05316:00002400000000000000002400002400
#05314:00000000002400000000000000000000
#05312:0024
#0161b:0013
#01615:0000000000000013
#01618:00000000000000000000002300230013
#01912:13001300130000000000000000000013
#01918:0013001300130013
#01915:00000000000000130000000013000000
#0191b:00130000
#0171b:0013000000001300
#01718:00000000130000130000000000001300
#01715:0000001300130000
#01712:23000000130000000000000013000013
#01710:41
#0181b:0013000000001300
#01815:00000000130000130000000000001300
#01818:00000000001300130000000000000013
#01812:0000000000131300
#02018:00001300000013000013000000001300
#02015:00000000001300000000000013000013
#02012:00000000000000130000130000000000
#0201b:00000000130000000000001300000000
#0231b:13000000001300000000000013000000
#02315:0000001300000013
#02318:00001300000000000000130000000013
#02312:00000013000000000000000013000000
#02415:0013001300130013
#0241b:00000000000000000013000000001300
#02418:00000000000000000000001300000000
#02412:00001313
#02512:24000000001300000000130013000000
#02515:0013000000000000
#02516:0000000000000014
#0251a:2400002400000000
#02518:00000024000000000000000000000000
#02510:41
#02615:0000000000000013
#02618:00001300000000000000000000000013
#0261b:00000000001300000000130013000000
#0261a:24
#02612:2400002400000000
#02614:00000024000000000000000000000000
#02812:0000130000130000
#02815:13000013
#02818:0000000013000013
#03018:00000024000000000000000000001300
#03015:00001300000000000000000000000013
#03012:24000000001300000000130013000000
#0301a:2400002400000000
#03617:0013000000000000
#03612:00000000000013000000000000230000
#03615:00000000000000130000000000000013
#03618:0000000023000013
#0361b:00000000000000000023000000000000
#03616:00000000000000000000002400000000
#04018:00000000000013000000001300001300
#04015:00000000000000130000130000130000
#04012:00000000001300000000000000000000
#0401b:0013
#04316:00130000
#0431b:00130000
#04317:00000013
#04312:00000013
#04416:00000000130000000000130000000012
#0441b:0000130000130000
#04418:0000000000000012
#04412:00000023
#04417:00000023
#05512:00000000130000130000130000130000
#05516:00002400000000000000002400002400
#05518:00000000002400000000000000000000
#0551a:0024
#05818:0000000000000013
#05815:00000000000000000000000000000013
#05817:00130000
#05812:00000000001400000000000000000000
#05819:0013
#0581b:00000013
#06018:000000000000000000000000000000000000000000130013
#06015:000000000000000000000013
#06012:00000013
#0621b:23000000000013000000000000001313
#06216:00000000000000130000000000000013
#06217:0000000000131300
#06212:00250013
#0621f:00210000
#06219:0033333333333333000000000000000000000000000000000000000000000000
#06315:00000000000000130000000000001300
#06318:00000000000013000000000000000013
#0631b:0013000000130000
#06312:00000000130000000000000000130000
#06310:00410000
#06415:0000001300000000
#06418:00000000000000130000000000000000
#06417:00000000000000000000000000000013
#06416:0014000000000000
#06412:0000140000130013
#0641b:2323230000001300
#06516:0013000000000000
#0651b:0000131300000000
#06518:00000000000000130000002300001300
#06515:00000000000000002300000000000013
#06512:00000000000000000023000000230000
#06915:00000000001300130000000000000000
#06918:00000000000013002600002600002600
#0691a:0014140000000000
#06912:00000000000000000000160000160000
#06616:0014140000131300
#06612:00002300000013000000000000001313
#06617:00000000000000130000000000000013
#0661b:23230013
#06712:00001300000000000000130000000013
#06718:00000000000000130000000000130000
#06715:0000001300000013
#0671b:00130013
#0681b:13
#06812:0024005424005424
#06816:00002400002400002400002400002400
#0681a:00000054002400000054002400000000
#06818:0000000000540000000000000000000000540000000000000000000000000000
#06814:0000000000000000000000540000000000000000000000540000000000000000
#07212:00000000140000002600002600002600
#0721a:0000001400000000
#07218:00000000000000000000160000160000
#07412:14
#07513:14
#07519:14
#0751b:00000000000000001300001300000000
#07518:00000000000000000013000000131300
#07515:0000000000130000
#07512:00000000140000000000001300000000
#0751a:00140000
#0031b:1313000000000000
#00318:0000130000000013
#00317:00000000000000130000000013000000
#00312:13001300000000130000000013000000
#00315:00000000001300000000000000000013
#0041b:00130000
#00418:0023
#00415:00000000000000000023000000000000
#0041a:00000000000000000000002400000000
#00412:00000000000000000000002400000000
#01312:1313130000001300
#0131b:00130000
#01315:00000000000013000000130000000013
#01318:00000000000000130000000000001300
#01317:00000013
#0141b:0000000013130000
#01412:0000000000130000
#01418:0000000000000013
#01415:00000000000000000000000000000013
#02112:0013000000001300
#02115:00000000130000130000000000001300
#02118:0000001300130000
#0211b:23000000130000000000000013000013
#02212:0013000000001300
#0221b:0000000000131300
#02218:00000000130000130000000000001300
#02215:00000000001300130000000000000013
#0291b:00000000001300000000130013000000
#02918:0013000000000000
#02916:0000000000000014
#0291a:24
#02912:2400002400000000
#02914:00000024000000000000000000000000
#03712:0013001300001300
#03717:00000000000000130000000013000000
#0371b:2323230000000013
#03716:00000000130000000000130000000013
#0381b:00130000
#03812:0000001300000000
#03817:00001300000000130000000000000000
#03815:0000000000000013
#03818:00000000000000000000000000130013
#03816:0000130000130000
#04917:0013000000130000
#04916:00000000000013130000000000000000
#0491b:00000000000000130000000000000000
#04912:0000000000130000
#05012:13000000130000000000130000000013
#05017:1300000000130000
#0501b:00001300000000130000000013000000
#05016:0013000000000000
#05015:00000000001300000000000000130000
#05018:0000001300000013
#05418:00000000131300000013000000000000
#0541b:00001300000000130000001300000000
#05412:0000000000000000001400000000000000000000000000000000000000000000
#05417:000000000000000000000000000000000000000000000000000000000000000000000000000000000000333333335300
#0561a:0000000000000000001400000000000000000000000000000000000000000000
#05612:00000000000000001313001300000000
#0561b:00000000000000000000000000130000
#05616:00000000000000000000000000130000
#0571b:00000000130000130000130000130000
#05716:00002400000000000000002400002400
#05714:00000000002400000000000000000000
#05712:0024
#07015:00000000001600000000000000000000
#07012:00000024
#07016:000000000024
#0701a:000000000000000000000024
#0391a:0024005424005424
#03914:0000000000540000000000000000000000540000000000000000000024000000
#03916:00002400002400002400002400000000
#03912:00000054002400000054002400000000
#03918:0000000000000000000000540000000000000000000000540000000000000000
#07615:23000023000000000000000000000000
#07618:00230000002300000000000000000000
#07612:00000000002300240000000000000000
#0761b:00000023000000000000000000000000
#0761a:00000000000000240000000000000000
#0711a:0024005424005424
#07116:00002400002400002400002400002400
#07112:00000054002400000054002400000000
#07114:0000000000540000000000000000000000540000000000000000000000000000
#07118:0000000000000000000000540000000000000000000000540000000000000000
#05957:00000000000000000000000000000053
#05956:0000005300000000
#00955:00000000000000530000000000000000
#00958:00000000000000000000000000000063
#01155:00000000000000530000000000000000
#01252:0053000000000000
#0155b:0000006300000000
#01555:00000000000000000000000000000053
#0315b:0000005300000000
#03155:00000000000000000000000000000053
#03356:00000000000000530000000000000000
#03357:00000000000000000000000000000063
#03456:00000000000000530000000000000000
#03457:0000000000130000
#03452:0000000000130000
#03558:00000000000000630000000000000000
#03556:00000000000000000000000000000053
#04157:00000000630000000000000000000013
#04152:00000000630000000000000000000013
#04156:00000000000000130000000053000000
#0415b:00000000000000130000000053000000
#04557:00000000000000430000000000000000
#0455b:0000000000430000
#04556:00000000000000000000000000000033
#04656:00000000000000330000000000000000
#0015b:00000000000000630000000000000000
#00156:00000000000000630000000000000000
#00257:00000000000000530000000000000000
#00556:00000000000000530000000000000000
#0065b:00000000000000630000000000000000
#0075b:00000000000000630000000000000000
#00755:00000000000000000000000000000053
#01758:00000000000000630000000000000000
#01752:00000000000000000000000000000053
#01955:00000000000000530000000000000000
#01952:00000000000000000000000000000053
#02355:0000005300000000
#02358:00000000000000000000000000000063
#02552:00000013
#0255a:1400005400000000
#02556:00000014
#02558:00000014000000000000000000000000
#0325b:0063000000000000
#03252:00000000000000130000000000000000
#03258:00000000000000130000000000000000
#03657:0053000000000000
#04257:0000630000000023
#04252:0000630000000023
#0425b:00000000000000130000000053000000
#04256:00000000000000130000000053000000
#04356:00000000530000000000000000000013
#0435b:00000000530000000000000000000013
#04357:00000000000000130000000063000000
#04352:00000000000000130000000063000000
#04456:00530000
#0445b:00530000
#04452:00000000000000130000000000000000
#04457:00000000000000130000000000000000
#06256:00000000000000530000000000000053
#0625b:53
#06252:00150053
#06257:00130000
#06355:00000000000000530000000000000000
#0635b:0063000000130000
#06352:0000530000130000
#06458:00000000000000630000000000000000
#06457:00000000000000000000000000000063
#0645b:00000053
#06452:0000000000630000
#06556:0063000000000000
#03954:0000000000000064
#0395a:0044000044000064
#03952:00000000003400000000003400000000
#05356:00003400000000000000003400006400
#05354:00000000003400000000000000000000
#05352:0034
#0615a:00000000000000000000004400000000
#06152:00000000000000000000003400000000
#07652:00000000000000340000000000000000
#0765a:00000000000000440000000000000000
#04852:0000000000330000
#0485b:0000000000430000
#05556:00004400000000000000004400005400
#05558:00000000004400000000000000000000
#0555a:0044
#06852:0034000034000054
#0685a:00000000004400000000004400000000
#06958:0000000000000056
#0715a:0044000044000064
#07152:00000000003400000000003400000000
#07252:0000000000000066
#02752:14
#0275a:00000014000000000000000000000000
#00352:00000000000000530000000000000000
#00357:00000000000000530000000000000000
#00355:00000000000000000000000000000053
#00452:00130000
#0045b:00130000
#01358:00000000000000630000000000000000
#01355:00000000000000000000000000000053
#01858:00000000000000530000000000000000
#02155:00000000000000530000000000000000
#0215b:00000000000000000000000000000063
#02255:00000000000000630000000000000000
#0265b:00000013
#02652:1400006400000000
#02654:00000014000000000000000000000000
#02656:00000014
#02855:53
#02852:00230000
#0295b:00000013
#02952:1400006400000000
#02954:00000014000000000000000000000000
#02956:00000014
#03052:00000013
#0305a:1400005400000000
#03058:00000014000000000000000000000000
#03056:00000014
#03757:00000000000000630000000000000000
#03756:00000000000000000000000000000053
#03857:00000000000000630000000000000000
#03856:0000000000130000
#0385b:0000000000130000
#04952:0000000000530000
#04957:0000000000530000
#05255:00000000000000000000005300000000
#05452:0000000000000000002400000000000000000000000000000000000000000000
#0545b:00000000000000000000005300000000
#0565a:0000000000000000002400000000000000000000000000000000000000000000
#05852:00000000002400000000000000000000
#05756:00003400000000000000003400006400
#05754:00000000003400000000000000000000
#05752:0034
#06657:00000000000000630000000000000063
#0665b:00000063
#06758:00000000000000630000000000000000
#06752:0053000000130000
#0675b:0000630000130000
#07055:00000000002600000000000000000000
#07452:24
#07552:00140000
#0755a:00140000
#0013b0:00000000000000130000000000000000
#001370:0000000000230000
#001361:00000000000000130000000000000000
#001321:0000000000230000
#002371:00000000000000130000000000000000
#0023b1:0000000000230000
#002320:0000000000130023
#002360:00000033
#003320:00000000000000130000000000000000
#003360:0000000000230000
#003371:00000000000000130000000000000000
#0033b1:0000000000230000
#003351:00000000000000000000000000000013
#004321:00230000
#005361:00000000000000130000000000000000
#005321:0000000000230000
#0063b1:00000000000000130000000000000000
#006371:0000000000230000
#0073b1:00000000000000130000000000000000
#007371:0000000000230000
#007351:00000000000000000000000000000013
#008321:0023000000000000
#009351:00000000000000130000000000000000
#009321:0000000000230000
#009381:00000000000000000000000000000013
#0103b1:0023
#011351:00000000000000130000000000000000
#011321:0000000000230000
#012321:0013000000000000
#012361:00000023
#013381:00000000000000130000000000000000
#0133b1:0000000000230000
#013351:00000000000000000000000000000013
#014321:0023
#0153b1:0000001300000000
#015381:0000000000230000
#015351:00000000000000000000000000000013
#016321:0023
#017381:00000000000000130000000000000000
#0173b1:0000000000230000
#017321:00000000000000000000000000000013
#018351:0023000000000000
#018381:00000000000000130000000000000000
#0183b1:0000000000230000
#019351:00000000000000130000000000000000
#019321:0000000000230000
#019321:00000000000000000000000000000013
#020351:0023000000000000
#021351:00000000000000130000000000000000
#021321:0000000000230000
#0213b1:00000000000000000000000000000013
#022381:0023000000000000
#022351:00000000000000130000000000000000
#022321:0000000000230000
#023351:0000001300000000
#023321:0000000000230000
#023381:00000000000000000000000000000013
#0243b1:0023
#0253a1:0000001400000000
#025361:00000024
#026321:0000001400000000
#026361:00000024
#027321:0000001400000000
#027361:0000000000240000
#028351:1323
#028321:00530000
#029321:0000001400000000
#029361:00000024
#0303a1:0000001400000000
#030361:00000024
#0313b1:0000001300000000
#031371:0000000000230000
#031351:00000000000000000000000000000013
#032321:00000000003300230000000000000000
#0323b0:0013000000000000
#032380:00000033333300230000000000000000
#033360:00000000000000130000000000000000
#033320:0000000000230000
#033370:00000000000000000000000000000013
#0343b0:0023000000000000
#034360:00000000000000130000000000000000
#034320:0000000000230000
#035380:00000000000000130000000000000000
#0353b0:0000000000230000
#035360:00000000000000000000000000000013
#036320:0023000000000000
#036371:0013000000000000
#0363b1:0000002300000000
#037371:00000000000000130000000000000000
#0373b1:0000000000230000
#037361:00000000000000000000000000000013
#038321:0023000000000000
#038371:00000000000000130000000000000000
#0383b1:0000000000230000
#039341:0000000000000014
#040321:0024000000000000
#0393a0:0000000000000014
#040380:0024000000000000
#041370:00130000
#0413b0:00000000000000230000000000000000
#041321:00130000
#041361:00000000000000230000000000000000
#041361:00000013
#041321:00000000000000000000000000000023
#0413b0:00000013
#041370:00000000000000000000000000000023
#042370:00130000
#0423b0:00000000000000230000000000000000
#042321:00130000
#042361:00000000000000230000000000000000
#042361:00000013
#042321:0000000000000053
#043361:23
#0423b0:00000013
#042370:0000000000000053
#0433b0:23
#043360:00130000
#043320:00000000000000230000000000000000
#0433b1:00130000
#043371:00000000000000230000000000000000
#043371:00000013
#0433b1:00000000000000000000000000000023
#043320:00000013
#043360:00000000000000000000000000000023
#044360:00130000
#044320:00000000000000230000000000000000
#0443b1:00130000
#044371:00000000000000230000000000000000
#0483b1:00130000000000000000000000000000
#048381:000000000000000000000000000000003300000000000000000000330000000000000000330000000000000000230000000000000000000000000000000000000000000000000000000000000000000000000000000000000000000000000000
#048350:00130000000000000000000000000000
#048320:000000000000000000000000000000003300000000000000000000330000000000000000330000000000000000230000000000000000000000000000000000000000000000000000000000000000000000000000000000000000000000000000
#049320:1323000000000000
#0493b0:0000132300000000
#049320:0000000000130000
#049360:0000000000000023
#049371:0000000000130000
#0493b1:0000000000000023
#052351:00000000000000000000001300000000
#053321:23
#053361:0000000000000014
#054321:0000000000000000005400000000000000000000000000000000000000000000
#054361:00000000000000000000002400000000
#0543b0:00000000000000000000001300000000
#054370:000000000000000000000000000000000000000000000000000000000000000000000000000000000000333333332300
#055360:0000000000000014
#0563a0:0000000000000000005400000000000000000000000000000000000000000000
#056360:00000000000000000000002400000000
#057360:0000000000000014
#058320:00000000005400000000000000000000
#058360:00000024
#059360:0000001300000000
#059320:0000000000230000
#059370:00000000000000000000000000000013
#0603b0:00000023
#0623b0:13
#062390:0033333333333333000000000000000000000000000000000000000000000000
#062370:00230000
#062360:00000000000000130000000000000000
#062320:0000000000230000
#062320:00000013
#062360:00000000000000000000000000003333
#063320:0023000000000000
#0633b1:0013000000000000
#063381:00230000
#063320:00130000
#063350:0000002300000000
#063350:00000000000000130000000000000000
#063320:0000000000230000
#064380:00000000000000130000000000000000
#0643b0:0000000000230000
#064321:0000000000130000
#064361:00000023
#0643b0:00000013
#064370:0000000000000023
#064370:00000000000000000000000000000013
#0653b0:0023000000000000
#065361:0013000000000000
#065321:0000002300000000
#066371:00000000000000130000000000000000
#0663b1:0000000000230000
#0663b1:00000013
#066371:00000000000000000000000000003333
#0673b1:0023000000000000
#067320:0013000000000000
#067350:00230000
#0673b1:00130000
#067381:0000002300000000
#067381:00000000000000130000000000000000
#0673b1:0000000000230000
#068321:0000000000000014
#069361:00240000
#069381:0000000000000016
#070351:00000000005600000000000000000000
#070381:00000026
#0713a1:0000000000000014
#072361:00240000
#072321:0000000000000016
#074321:3400002c
#039960:0014000000000000
#039920:00000024000000000000000000000000
#039960:00000000001400000000000000000000
#0399a0:0000002400000000
#039960:0014
#039920:00000000000000000024000000000000
#039960:00000000000000000000001400000000
#0399a0:00000024
#0459b0:13
#045980:0023000000000000
#045921:0013000000000000
#045951:00230000
#047921:000000000000000000000000000000000000001300000000
#047961:000000000000000000000000000000000000000000000023
#068961:0014000000000000
#0689a1:00000024000000000000000000000000
#068961:00000000001400000000000000000000
#068921:0000002400000000
#068961:0014
#0689a1:00000000000000000024000000000000
#068961:00000000000000000000001400000000
#068921:00000024
#071961:0014000000000000
#071921:00000024000000000000000000000000
#071961:00000000001400000000000000000000
#0719a1:0000002400000000
#071961:0014
#071921:00000000000000000024000000000000
#071961:00000000000000000000001400000000
#0719a1:00000024
