This file was generated by Ched 2.7.0.0.
#TITLE ""
#ARTIST ""
#DESIGNER ""
#DIFFICULTY 0
#PLAYLEVEL
#SONGID ""
#WAVE ""
#WAVEOFFSET 0
#JACKET ""
#REQUEST "ticks_per_beat 480"
#00002: 4
#BPM01: 124
#00008: 01
#TIL00: ""
#VOLUME: ""
#HISPEED 00
#MEASUREHS 00
#00315:13130000
#00318:00001313
#00412:13
#00415:00000000130000000023000000000000
#00418:13000000000000002300002300000000
#0041b:00130000
#04712:00000000000013000013000000000000
#04718:000000000000000000000000000000000000000000130000000000000000130000000000000000003300330000000000
#0471b:000000130000000000000000130000000000000000000000000000000000000000000000000013000000000000000000
#04715:00000013000000000000001300000000
#00512:23000000000000130000000000000000
#00518:00001300001300000000000013000000
#00515:0000130000000013
#0051b:0000000000130000
#01112:13
#0111b:0013000000001300
#01115:00000000130000130000000000001300
#01118:00000000000013000000000000000013
#0271b:00000000000000000000000000000013
#02715:0000000000130013
#02718:00000013
#02712:14000024000024000000000000000000
#0271a:24000014000024000000000000000000
#04312:14130000
#0431a:14
#0431b:00000013
#0451b:1300000000130013
#04512:0000001300001300
#04518:000033003300330033003300000000000000000000130000000000000000000000000000000000000000000000000000
#04515:00000000000000000013000000000013
#04615:00001300000000130000130000000013
#0461b:00130000000013000013000000000000
#04618:00000013000000000000001300001300
#04612:00130013
#05915:00001300000000000000000013000013
#0591b:13000013000000000000000000000000
#05912:00000000001300000000000000000000
#05918:0000001300000013
#06112:13000000001300000000000000000000
#0611b:13
#06115:00001300000000000023000000000000
#06118:00000013000000002300000000000000
#0611a:00000000000000000000002400000000
#00112:13130000
#00115:00001313
#00218:13130000
#0021b:00001313
#0061b:13000000000000130000000000000000
#00615:00001300001300000000000013000000
#00612:0000000000130000
#00618:00000013000000000000000000001300
#00712:13000000000000130000000000000000
#00718:00001300001300000000000013000013
#00715:0000130000000013
#0071b:0000000000130000
#00815:00001300000000000023000000001300
#00818:00000000130000002300002300000013
#00812:0000001300000000
#00912:13
#00915:00001300000000130000000000001300
#00918:00000000130000000000000013000013
#0091b:0000001300000000
#00910:41
#01015:0000000000000013
#01018:00000000000000000000000000000013
#0151b:13
#01515:00000000001300000000000000000013
#01518:00000013000013000000000000001300
#01512:0013000000001300
#01418:0000000000000013
#01415:00000000000000000000000000000013
#01912:1300001300001300
#01918:00001300000000130000000000001300
#01915:00000000130000000000000000000013
#01715:0013000000000013
#01718:00130013
#0171b:00000000000013000000000000000013
#01712:23000000000000130000000000000000
#01710:41
#01815:0000000000000013
#01818:00000000000000000000000000000013
#0201b:0013000000000000
#02015:00001300000000000000000000000013
#02018:0000000000000013
#0311b:1300001300000000
#03115:00001300001300000000000000000013
#03118:00000013000000000000000000001300
#03112:00000013
#03218:00000000000000000000000000130013
#03215:0000000000000013
#03212:00003333330000230000000000000000
#03318:0024001300001300
#03315:00000000000000130000000000001300
#0331b:00000000000000000000000000000013
#03312:24240000
#03415:00000000130000130000000000130013
#03418:0000001300000013
#03515:00000000000013000000000013000013
#03518:00000000000000130000000000001300
#0351a:24240000
#03514:0024000000000000
#03612:0013000000000000
#03615:00000000000000000000000000130013
#03618:0000000000000013
#04112:14
#0411a:14
#04118:00130000
#04115:00000013
#04110:41
#04218:00130013
#04212:0000000000131300
#04412:00130000
#0441b:0000000000132300
#04415:00000023
#04815:000000000000000000000000000000003300000000000000000000330000000000000000330000000000000000000000000000000000000000000000230000000000000000000000000000000000000000000000130000000000000000000000
#04818:00000000000000000000000000000013
#04812:00130000000000000000000000000000
#04915:13
#05112:13000000000000000000000000130000
#05119:00130000000000000000000013000000
#05113:00001300000000000000001300000000
#0511a:00000013000000000000130000000000
#05114:00000000130000000013000000000000
#0511b:00000000001300001300000000000000
#05115:0000001300000000
#05118:0000000000000013
#05110:41
#05212:13000000130000000033330000000000
#05218:00130000001300000000000000000000
#05215:0013001313000000
#0521b:00000013000000130000000000000000
#0621b:00000000000013000000000000000013
#06215:00000000000000130000000000000000
#06218:00000013
#06212:0034343434343434000000000000000000000000000000000000000013000000
#06214:24
#0621f:00210000
#06315:00000000130000130000000000001300
#0631b:00000000000013000000000000130000
#06318:00000000000000000000000000000013
#06310:00410000
#06415:0000001300001300
#06418:00000000000000130000000000001300
#06412:24000000000000000000000000000013
#06416:0024000000000000
#0641a:00240000
#06515:00001300000000000000000000000013
#06512:00000000000000000000000000130000
#06518:0000000000000013
#06618:0000001300001300
#06612:0000240000000013
#0661b:00000000000000000000000000000013
#06615:00000000000000130000000000000000
#0661a:24
#06616:0024000000000000
#06715:00000000130000130000000000000000
#0671b:0000001300000000
#06918:00000000001300130000000000130000
#06915:00000000000013000000002300000000
#0691b:0000000000130000
#06912:0000000023000023
#07118:00001400000000000000002400000000
#07113:00000000001400000000000000000000
#0711a:0000000014000014
#07114:00002400000000000000001400000000
#07119:00000000002400000000000000000000
#07112:0000000024000024
#07212:00000000000013000000000000130000
#07215:0000000000130000
#0721b:0000000023000023
#07218:00000000000000000000002300000000
#07418:13
#07516:00141400
#07512:1400000000130000
#07518:00000000000000000000001300000000
#07515:00000000000000000000000000130000
#0751b:0000000000000013
#0751a:14
#02512:14000024000024000000000000000000
#0251a:24000014000024000000000000000000
#02510:41
#02618:14000024000024000000000000000000
#02614:24000014000024000000000000000000
#0301a:14000024000024000000000000000000
#03012:24000014000024000000000000000000
#02914:14000024000024000000000000000000
#02918:24000014000024000000000000000000
#01212:0013000000000000
#01218:0013000000000013
#01215:00000000000000000000000000000013
#0131b:13
#01318:00001300000000130000000000001300
#01315:00000000130000000000000013000013
#01312:0000001300000000
#01615:0000000000000013
#01618:00000000000000000000000000000013
#02118:0013000000000013
#02115:00130013
#02112:00000000000013000000000000000013
#0211b:23000000000000130000000000000000
#02318:13000013000000000000000000001300
#02315:00000000001300000000000013000000
#0231b:0000001300000000
#02312:00001300000000000000000000000013
#0221b:0000000000000013
#02215:00000000000000000000000000000013
#03715:0000001300001300
#03718:00000000000000130000000000001300
#03712:00000000000000000000000000000013
#0371a:24240000
#03714:0024000000000000
#03818:00000000130000130000000000000000
#03815:0000001300000000
#05012:13000000000000130000000000000000
#05018:00000000000000130000000000000000
#0501b:0000000000130000
#05015:0000000000130000
#05818:0000000000000013
#05815:00000000000000000000000000000013
#04015:00000000001300130000000000000000
#04018:0000001313000000
#04019:00000013
#04014:00000013
#0531f:11
#05312:0000000024000024
#0531a:00002400000000000000002400000000
#05316:00000000002400000000000000000000
#03912:0024000024000024
#03918:0024000024000024
#03914:00000000002400000000002400000000
#0391a:00000000002400000000002400000000
#07615:23
#07618:00230000000000000000000000000000
#07612:00000024000000240000000000000000
#0761a:00000000002400000000000000000000
#0551a:0000000024000024
#05512:00002400000000000000002400000000
#05516:00000000002400000000000000000000
#0681a:0024000024000024
#06814:0024000024000024
#06818:00000000002400000000002400000000
#06812:00000000002400000000002400000000
#05712:0000000024000024
#0571a:00002400000000000000002400000000
#05716:00000000002400000000000000000000
#0275b:00000000000000000000000000000053
#05955:00000000000000000000000000000063
#05958:0000006300000000
#00955:00000000000000530000000000000000
#00958:00000000000000000000000000000063
#01155:00000000000000530000000000000000
#01558:0000006300000000
#01555:00000000000000000000000000000053
#01752:00000000000000530000000000000000
#0175b:00000000000000000000000000000063
#01958:00000000000000530000000000000000
#0205b:0053000000000000
#02055:0053000000000000
#0315b:0000005300000000
#03155:00000000000000000000000000000053
#03355:00000000000000530000000000000000
#0335b:00000000000000000000000000000063
#03455:00000000000000530000000000000000
#03452:0000000000130000
#03558:00000000000000630000000000000000
#03555:00000000000000000000000000000053
#03652:0053000000000000
#04158:00630000
#04155:00000053
#04258:00630000
#04352:00630000
#0435b:00000053
#04452:00630000
#04955:63
#05255:0063
#06255:00000000000000530000000000000000
#0625b:00000000000000000000000000000063
#06254:54
#06252:00140000
#06355:00000000000000530000000000000000
#06458:00000000000000630000000000000000
#06452:00000000000000000000000000000063
#06555:0063000000000000
#0665b:00000000000000000000000000000063
#06655:00000000000000530000000000000000
#06755:00000000000000530000000000000000
#06752:0000000000130000
#0715a:0000000000000064
#07152:0000000000000054
#02552:0000005400000000
#0255a:0000005400000000
#02554:00000014
#02558:00000014
#02658:0000005400000000
#02654:0000005400000000
#0265a:00000014
#02652:00000014
#03052:0000005400000000
#0305a:0000005400000000
#03054:00000014
#03058:00000014
#02958:0000005400000000
#02954:0000005400000000
#0295a:00000014
#02952:00000014
#03252:00000000000000130000000000000000
#05352:0000000000000054
#0615a:00000000000000000000001400000000
#07652:00000000000000140000000000000000
#04855:0000000000130000
#04852:00530000000000000000000000000000
#05456:00000014
#01252:0063000000000000
#01258:0063000000000000
#01358:00000000000000630000000000000000
#01355:00000000000000000000000000000053
#0215b:00000000000000630000000000000000
#02152:00000000000000000000000000000053
#0235b:0000006300000000
#02352:00000000000000000000000000000053
#03758:00000000000000630000000000000000
#03752:00000000000000000000000000000053
#03858:00000000000000630000000000000000
#0385b:0000000000130000
#0455b:53
#0475b:000000000000000000000000000000000000005300000000
#05052:53
#0555a:0000000000000064
#05656:00000014
#03958:0000000000000014
#03952:0000000000000014
#06854:0000000000000014
#0685a:0000000000000014
#07458:53
#06952:0000000000000053
#0725b:0000000000000053
#07556:00140000
#05752:0000000000000054
#05856:00000014
#009350:00000000000000130000000000000000
#009320:0000000000230000
#009380:00000000000000000000000000000013
#0103b0:0023
#011350:00000000000000130000000000000000
#011320:0000000000230000
#012320:0013000000000000
#012350:0023
#012381:0013000000000000
#0123b1:0023
#013381:00000000000000130000000000000000
#0133b1:0000000000230000
#013351:00000000000000000000000000000013
#014321:0023
#015381:0000001300000000
#0153b1:0000000000230000
#015351:00000000000000000000000000000013
#016321:0023
#017321:00000000000000130000000000000000
#017351:0000000000230000
#0173b1:00000000000000000000000000000013
#018381:0023
#019381:00000000000000130000000000000000
#0193b1:0000000000230000
#0203b1:0013000000000000
#020381:0023
#020350:0013000000000000
#020320:0023
#0213b0:00000000000000130000000000000000
#021380:0000000000230000
#021320:00000000000000000000000000000013
#022350:0023
#0233b0:0000001300000000
#023380:0000000000230000
#023320:00000000000000000000000000000013
#024350:0023
#025320:0000001400000000
#025340:00000024
#0253a1:0000001400000000
#025381:00000024
#026381:0000001400000000
#0263a1:00000024
#026340:0000001400000000
#026320:00000024
#0273b0:00000000000000000000000000000013
#028380:00000023
#029380:0000001400000000
#0293a0:00000024
#029341:0000001400000000
#029321:00000024
#030321:0000001400000000
#030341:00000024
#0303a0:0000001400000000
#030380:00000024
#0313b0:0000001300000000
#031380:0000000000230000
#031350:00000000000000000000000000000013
#032320:00003333333300230000000000000000
#033350:00000000000000130000000000000000
#033320:0000000000230000
#0333b0:00000000000000000000000000000013
#034380:0023000000000000
#034350:00000000000000130000000000000000
#034320:0000000000230000
#035380:00000000000000130000000000000000
#0353b0:0000000000230000
#035350:00000000000000000000000000000013
#036320:0033000000000000
#036350:0023
#037380:00000000000000130000000000000000
#0373b0:0000000000230000
#037320:00000000000000000000000000000013
#038350:0023000000000000
#038380:00000000000000130000000000000000
#0383b0:0000000000230000
#041380:00130000
#0413b0:00000000000000230000000000000000
#041350:00000013
#041320:00000000000000000000000000000023
#042380:00130000
#0423b0:00000000000000230000000000000000
#043320:00130000
#043350:00000000000000230000000000000000
#0433b0:00000013
#043380:00000000000000000000000000000023
#044320:00130000
#044350:00000000000000230000000000000000
#0453b0:13
#045380:003333333333230000000000000000000000000000000000
#0473b0:000000000000000000000000000000000000001300000000
#047380:000000000000000000000000000000000000000000000000000000000000000000000000000000003300330000230000
#048320:00130000000000000000000000000000
#048350:000000000000000000000000000000003300000000000000000000330000000000000000330000000000000000330000000000000000000000000000230000000000000000000000000000000000000000000000000000000000000000000000
#049350:13
#049320:00230000
#049380:00000000000000130000000000002300
#0493b0:0000000000330000
#050320:13
#050350:00230000
#052350:0013
#052320:00000000000000000033333300000000
#053320:23
#053320:0000000000000014
#054360:00000024
#0553a0:0000000000000014
#056360:00000024
#057320:0000000000000014
#058360:00000024
#059380:0000001300000000
#0593b0:0000000000230000
#059350:00000000000000000000000000000013
#060320:00000023
#062340:14
#062320:0034343434343434240000000000000000000000000000000000000000000000
#062350:00000000000000130000000000000000
#062320:0000000000230000
#0623b0:00000000000000000000000000000013
#063380:0023000000000000
#063350:00000000000000130000000000000000
#063320:0000000000230000
#064380:00000000000000130000000000000000
#0643b0:0000000000230000
#064320:00000000000000000000000000000013
#065350:0033000000000000
#065320:0023
#066350:00000000000000130000000000000000
#066320:0000000000230000
#0663b0:00000000000000000000000000000013
#067380:0023000000000000
#067350:00000000000000130000000000000000
#067320:0000000000230000
#069320:0000000000000013
#070350:00000023
#071320:0000000000000014
#072340:00240000
#0713a1:0000000000000014
#072381:00240000
#0723b1:0000000000000013
#074381:33
#0743b1:00000023
