This file was generated by Ched 2.7.0.0.
#TITLE ""
#ARTIST ""
#DESIGNER ""
#DIFFICULTY 0
#PLAYLEVEL
#SONGID ""
#WAVE ""
#WAVEOFFSET 0
#JACKET ""
#REQUEST "ticks_per_beat 480"
#00002: 4
#BPM01: 124
#00008: 01
#TIL00: ""
#VOLUME: ""
#HISPEED 00
#MEASUREHS 00
#04717:00000000000013130000000000000000
#04715:00000013000000000000130000000000
#0471b:00130000000000000013000000000000
#04712:00000000130000140000000012000000
#04718:000000000000130000000000000000000000000000000000000000000000000000130000000012000000000000000000
#04714:000000000012
#0471a:0000140000000012
#04716:000000000000000000000012
#0471c:000000000000000000000000000000000000000000000012
#0111a:1414140000000000
#01115:0000001300130013
#01118:00000000000000130000000013000013
#01116:00130000
#01112:13001313
#01114:0013000000000000
#0051b:00001300000000130000130000000000
#00512:23000000131300000000000000001300
#00517:23000000001300000000000000001300
#00519:00000013
#00516:00001300000000130000000000000000
#00514:00000013
#0351b:00001300000000130000000013000000
#03516:24002400240013130000000013000000
#03512:13000000130000000000000000000013
#03517:00000000000000000000130000001313
#04516:000012000000000000000000120000000000140000140000000000140000140000000000000000000000140000140000
#0451c:12
#0451b:00000000000000130000000000000013
#04512:000000000012000000000000000000130000140000000000
#0451a:001200000000000000140000
#04514:0012000000000000
#04518:001200000000
#04618:00000013000000000013130000000000
#04615:0000000013000000000000000000000000000013000000000000000013001300
#04612:00130000130000000000001300000000
#0461a:00000000000014140000000000000000
#04616:00000000000000130000000000000000
#0461b:00130013
#0591a:00000000000000000000000000000014
#0591b:13000000001313000000000013000000
#05912:13001313000000000000000000000013
#05916:0000001300001300
#05915:0000000000000013
#05917:00000013000000000000130000000000
#0611b:13001313000000000000000000000000
#06112:00000000001300002424002400130000
#06117:00000000001300000000000000000000
#06115:0000000000000013
#06118:00000000000000000000000000000013
#06116:00001300000000140000000000000000
#0611a:00000000000000002424002400000000
#00116:13
#0011b:1300130000130000
#00112:00001300001300000000000013000000
#00115:00000000000000130000000000000000
#00119:0000000000000013
#00117:0013000000001300
#00118:00000000000000130000000000000000
#00114:0000000000000013
#0021b:13000013000000130000000013000000
#00216:00001313000000130000000013000000
#00212:13000000001300000000130000001300
#00217:00000000001300000000000000001300
#00618:00001313001300000000000000000000
#00615:00130000
#00612:13001300000000130000140000000000
#00616:00000014
#0061b:13000000000000130000000000000000
#0061a:0000000000000014
#00717:00001300000000130000000013000000
#0071b:13000000131300000000130000000013
#00712:00001300000000130000000013000000
#00716:13000000001300000000000000001313
#00812:00001300000000130000002400000000
#00816:00000000000000002424000000001200
#00818:00000000000000000000000000000012
#00815:000000121200000000000000
#00819:000000000000001200000000000000000000000000000000
#0081b:0000001300000000
#0081a:00000000000000000000002400000000
#00912:1414140000001300
#00918:00000000000013000000130000000013
#00915:00000000000000130000000000001300
#0091b:13131313
#00917:0013000000000000
#00910:41
#01012:13131313
#01018:0000000000000012
#01016:00000000000000000000130000000012
#01015:00000000000000130000000000000000
#0101b:0000000000000013000000000000000000000000000000000000000000000000
#0121b:13000000001300000000000013000000
#01218:0013000000130012
#01216:00000000000000000000000000120012
#01212:13131300
#01215:00000000000000130000000000000000
#0151a:14
#01512:14000000001313000000000013000000
#01517:0000001300000000
#01518:0000000000000013
#0151b:00001313000000000000000013000000
#01516:00000013000000000000130000000000
#01514:0013
#01515:00000000000000000000000000000013
#01416:0000000000000012
#01418:00000000000000130000000000000012
#0141b:13131313
#01417:0000000000130000
#01412:0000000000000013000000000000000000000000000000000000000000000000
#0271b:13001323000000000000130000000000
#02717:0000001300001300
#02715:0000000000000013
#02712:23000000001323000000000013000000
#02716:00000013000000000000000000000000
#02718:00000000000000000000000000000013
#0311b:13000000000000001300000013000013
#03118:00001313001300000000130000001300
#03112:1300001300001300
#03115:00000000130000000000000000000013
#03214:00000000001200000000000000120000
#03216:0000120000000012
#03218:00000012000000000000000000000012
#0321a:00001200000000240000000000000000
#03212:00000000000000240000000000000000
#03312:00001400000013130000000013000000
#03317:00000000000000130000000013000000
#0331b:00000000000000000000130000001313
#0331a:14140000
#03316:00000000000000000000000000000013
#03315:23230000
#03318:0023000000000000
#03416:00130000
#03415:00000000000013000000000000000013
#03412:00001300000000130000000000000000
#03418:00000000001300000000000000001300
#0341b:00000000130000000000130000130000
#03417:00000000000000130000000000000000
#04114:1212000000000000
#0411a:14
#04117:0000130000120000
#04116:00000000000012120000000013000000
#0411c:00000012
#04118:00000000000000000000000000001212
#04112:0000120000120000
#04110:41
#04212:0000120000130000
#0421b:00000013
#04216:00000000000012120000000013001200
#04217:0012130000130000
#04218:00000000000000000000000000000012
#0421c:0012000000000000
#04912:13000000000000130000000000001300
#0491b:5313130000130000
#04917:00000000000013130000000000001300
#04916:0000000000130000
#05112:13000000130000001300001300000000
#05115:00130000001300130000130013000000
#05118:000000000000130000000000130000000000130000000000000000130000000000000000000000130000000012000000
#0511b:13000013000000001300000013000000
#05114:0000000000000012
#05116:000000000000000000000000000000000000000000000012
#05110:41
#0521b:13000000130000000000001300000000
#05218:00130013000000130000000000130013
#05215:0013000013001313
#05212:00130000
#05214:00000000001300000000000000000000
#05216:0000001300000000
#05219:0000000000130000
#05217:00000000000000000013000000000000
#0531b:00001300131300131300131300131300
#0531f:11
#05312:0000000024000024
#05316:00002400000000000000002400000000
#05314:00000000002400000000000000000000
#00412:00001300130000002414002c00000000
#00418:000000000000000000120012000000000000000000000000
#00416:000000000012000000000000
#00415:0000000000000013
#0041b:00000000000000000000000000000013
#0041a:00000000000000000024000000000000
#0161b:2313
#01618:00000000000000000013000000001300
#01615:00000000000000000000130000000013
#01612:13000000000000000000002400240000
#01616:00130000
#0161a:00000000000000000000002400240000
#02516:0000000000130000
#02512:24000023000013000000000013001c00
#02515:0013000000000000
#0251b:00000000001300000000000000000000
#02518:00000013000023000000000000000000
#0251a:24
#02510:41
#02615:00000013000000000000000000001300
#02618:00001323000000000000130000000013
#0261b:0000001300001300
#02612:24000000001323000000000000000000
#0261a:24
#02816:120012
#02814:00000012000000000000000000000000
#02812:0000001213001300
#0281b:13000000000000000000000000000013
#02818:000000000000000000000000000000120012000000130000
#02815:00000000000000000000000000130000
#02817:00130000
#03616:00001300000000000000000000000012
#0361b:0000001300000000
#03618:00000000130000130000000000001200
#03615:00000000000000002300001300000000
#0361a:00000000000000000000002400120000
#03612:00000000000000000023000000240000
#04418:00000000000012120000120000001300
#04415:00000000000000000000000000000013
#04416:0000130000120000
#04417:0012000000000000
#0441c:00120000
#04412:0012000000002300
#0441b:00000023
#0481c:0000000000000000000000000000001200000000000000000000000000000000
#04812:00120000000000000000230000000000
#04815:001200000000
#04818:0000000000000000001200000000000000000000000000000000005300530000
#0481a:0000000000000000000000001200000000000000000000000053000000000053
#0481b:0000000000231300
#04819:00000000000000000000000000530053
#04817:0000000000000053
#0541a:0014120000000000
#05412:00000000000000120000001200000000
#0541c:00000000000000000012000000000000
#05416:00000000120000000012000000000000
#05414:00000000001200000000000000000000
#05418:00000000000000120000001200000000
#05417:000000000000000000000000000000000000000000000000000000000000000000000000000000000000323232325200
#05614:0000001200000000
#05616:00000000000000120000001300000000
#0561a:0012
#0561c:00000000001200000000000000000000
#05618:00000000000000000012000000000013
#05617:00000000000000000000000000130000
#05612:00001400000000000000000000130000
#0561b:00000000000000000000001300000000
#05615:0000000000000013
#0571b:13001300131300131300131300131300
#05712:0000000024000024
#05716:00002400000000000000002400000000
#05714:00000000002400000000000000000000
#0581a:0012140000000014
#05812:0000140000000014
#05818:00000000000012001200120000120000
#05816:00000000000000120012000012000000
#06012:0000000000000013
#06015:000000000000000000000013
#06018:000000000000000000000000000000000000000000000013
#07416:14
#07412:0014001400130000
#07419:000000000000121200000000
#07415:000000000000000000000000000000000000000000000000000012000000000000000000130000130000000000000000
#0741b:00000000000000000000001300000000
#07418:00000000000000000000000000001313
#07512:13000000140000000000001300000000
#0751b:13000000000000001300000000130000
#07518:000000000000000000000000000000000000000000000000000000130000000000000000000000000000000012000000
#07515:0000000000130000
#07516:000000000000000000000000000000000000000000120012
#0751a:00140000
#01716:1414140000000000
#01715:00000000000013000000130000000013
#01718:00000000000000130000000000001300
#0171b:0013000000001300
#01712:23131313
#01710:41
#0181b:13130013
#01816:0000000000000012
#01818:00001300000013130000130000000012
#01815:00000000001300000013000000000000
#01812:00000000130000130000000000000000
#01918:0000001300130013
#01915:00000000000000130000000013000013
#0191b:0013000013001300
#0191a:14
#01916:0014140000000000
#01912:14130000
#02012:13000000000000000013000014000000
#02015:00001300000013130000000000000000
#02018:00000000001300000000000000120012
#02016:0000000000000012
#0201b:13001300130000130000001300000000
#02017:00000000000000000013000000000000
#02312:14001313000000000000000013000000
#0231b:00000000001313000000000013000000
#02316:0000001300000000
#02315:0000000000000013
#02318:00000000000000000000000000000013
#02317:00000013000000000000130000000000
#0231a:14
#02319:0013
#02218:00000000001300000013000000001200
#02216:00000000000000000000000000000012
#02212:13130013
#02215:00001300000013130000130000000000
#0221b:00000000130000130000000000000000
#02412:13130000
#02415:00001300001300000000000000001200
#02418:0000001300120000
#0241b:00000000000000130000000000000000
#0241a:00000000000000000012000000000000
#02416:00000000000000000000001200000000
#02414:00000012
#02419:0000000000000012
#03015:00001323000000000000130000001300
#03018:00000013000000000000000000000013
#03012:2400001300001300
#0301b:00000000001323000000000000000000
#0301a:24
#03818:0000001300000013
#03815:00000000001300000000000000000013
#0381b:00001300000000130000000000130000
#03817:00130000
#03812:0000130000130000
#03816:00000000000000130000000000000000
#04012:00132600
#0401b:00000000000000130000000013000000
#04019:000000120012000000000000000000000000000000000000
#04015:000000000000000012000000000000130000000000000000000000000000000000000000000000000000000000000000
#04018:0000001300000000
#0431a:1212000000000000
#04312:14000012
#04316:00000000130000000000000000001212
#04317:0000000000121300
#04318:00000000000012120000000000000000
#0431c:0000120000120000
#0621b:2333333333333333000000001300130000000000000000001300000000000000
#06212:2333333333333333000000000000000000000000130000000000000013001300
#06216:00000000000000130000000000000000
#06217:00000000000000000000000000000013
#0621f:00210000
#0631b:00001300000013130000000000130000
#06315:0000000000000013
#06318:00000000000000000000000000000013
#06312:00000000130000000000130000130000
#06316:00000000000000130000000000000000
#06310:00410000
#06416:24002400240013130000000013000000
#06412:00001400000000000000000000000013
#06417:00000000000000000000130000001313
#0641b:13000000000000130000000000000000
#0641a:00140000
#06516:00001300000000000000002400240012
#0651b:00000000000013000013000000000000
#06518:00000000130000130000000000001200
#06512:00000000000000000023001400000000
#0651a:00000000000000000000000000140000
#06515:0023
#0661a:0014000000000000
#06612:14000000140013130000000013000000
#0661b:00000000000000000000130000001313
#06617:00000000000000130000000000000000
#06616:24002400240000000000000000000013
#06715:0000000000001613
#06718:00000000000000000000000000000013
#06712:00001300000013130000000000130000
#0671b:0000130000130000
#06717:00000000000000130000000000000000
#06816:00001400141400141400141400141400
#06812:1324000024000024
#0681b:13
#0681a:00000000002400000000002400000000
#0691b:00000000130000000000000000000013
#06912:00000000130000130000000013000000
#06915:00000000000013000013000000130000
#06918:000000000000000000000000000000130000000000000000130000000000120000001200000000000000130000000000
#06916:000012
#07015:13000000001300000000001300000000
#07012:00001300000000130000000024000000
#07018:00001300000000130000130000000000
#0701b:00000000131300000013000000000000
#07016:000000000024
#0701a:000000000000000000000024
#07112:13002800002400002800002400000000
#0711b:13
#07114:0000000000000000000000540000000000000000000000540000000028000000
#0711a:0024000024000000
#07116:00000054002854000054002854000000
#07118:0000000000540000000000000000000000540000000000000000000000000000
#07216:000000000000000000140000000000120012000000000000
#0721a:0014
#07212:00000000000000001400000000000013
#07218:000000000000000000000000000000000000000000000000000000000000000012000000000000130000000000000000
#0721b:00000013
#07215:0000000000000013
#07312:0014001400140014
#07318:26
#00317:13000000000000000000000000001313
#00312:1300130000130013
#0031b:00001300001300000000000013000000
#00318:00000000000000130000000000000000
#00316:0013000000001300
#00315:00000000000000130000000000000000
#02116:1414140000000000
#02118:00000000000013000000130000000013
#02115:00000000000000130000000000001300
#02112:0013000000001300
#0211b:23131313
#02917:0000000000130000
#0291b:00000023000013000000000013000000
#02918:0013000000000000
#02912:24000000001300000000000000001c00
#02915:00000013000023000000000000000000
#0291a:24
#0371a:0014000000000000
#0371b:00000000000013130000000013000000
#03716:00000000000000130000000013000000
#03712:14000000140000000000130000001313
#03717:00000000000000000000000000000013
#03718:23230000
#03715:0023000000000000
#0501b:13000000000000130000000000000000
#05012:0013130000130000
#05016:13000000000013130000000000000000
#05017:0000000000130000
#05018:0000000000001313
#05015:00000000000000000000000000130013
#05512:00001300131300131300131300131300
#0551a:0000000024000024
#05516:00002400000000000000002400000000
#05518:00000000002400000000000000000000
#0131a:1414140000000000
#01315:00000000000013000000130000000013
#01318:00000000000000130000000000001300
#0131b:00000013
#01312:13131313
#01316:0013000000000000
#0391a:00002400002400002400002400002400
#03912:00002400002400002400002400002400
#03918:0000000000540000000000000000000000540000000000000000000000000000
#03916:00000054000054000054000054000000
#03914:0000000000000000000000540000000000000000000000540000000000000000
#0761b:23230000000000000000000000000000
#07616:00240024002400000000000000000000
#07612:00000023000000240000000000000000
#0761a:00000000000000240000000000000000
#0595a:00000000000000000000000000000054
#05956:0000005300000000
#00955:00000000000000530000000000000000
#00958:00000000000000000000000000000063
#01158:00000000000000630000000000000000
#01258:0063000000000000
#0125b:00000000002300000000000000000000
#01557:0000006300000000
#03152:0000006300000000
#03155:00000000000000000000000000000053
#03352:00000000000000530000000000000000
#0335b:00000000000000000000000000000053
#03452:00000000000000530000000000000000
#03456:0000000000130000
#0345b:0000000000130000
#03556:00000000000000530000000000000000
#03557:00000000000000000000000000000063
#04157:00630000
#04156:00000053
#0415b:00000000000000130000000000000000
#04152:00000000000000000000000000000013
#0455b:00000000000000430000000000000043
#04552:0000000000330000
#04656:00000000000000330000000000000000
#04752:00000000000000140000000000000000
#0475a:00140000
#04952:63000000000000330000000000003300
#0495b:0000000000430000
#00155:00000000000000630000000000000000
#0025b:00000000000000530000000000000000
#00556:00000000000000530000000000000000
#0065b:00000000000000630000000000000000
#00652:0000000000140000
#00656:00000014
#0065a:0000000000000014
#00752:00000000000000630000000000000000
#0075b:00000000000000000000000000000053
#02556:0000000000130000
#02552:00000053000000000000000013000000
#02558:0000005300000000
#0255b:00000013
#0255a:14
#03656:0063000000000000
#0365a:00000000000000000000004400000000
#03652:00000000000000000000000000340000
#04257:00630000
#0425b:00000000000000130000000013000000
#04256:00000013
#05657:00000000000000000000000000130000
#05656:00000000000000000000001300000000
#0105b:0000000000000023000000000000000000000000000000000000000000000000
#01758:00000000000000630000000000000000
#01755:00000000000000000000000000000053
#01955:00000000000000530000000000000000
#02055:0053000000000000
#02356:0000005300000000
#02358:00000000000000000000000000000063
#02658:00000063000000000000130000000000
#0265b:00000013
#02652:1400006300000000
#02655:00000013
#04356:00530000
#04357:00000063
#04352:00000000000000130000000000000000
#0435b:00000000000000000000000000000013
#04456:0000530000520000
#04458:0000000000520000
#04452:00000000000000130000000013000000
#0445b:00000013
#0625b:53000000000000630000000000000000
#06252:63000000160000000000630000000063
#06258:00160000
#0635b:00005300000000630000000000000000
#06352:0000000000130000
#06456:00000000000000530000000000000000
#06457:00000000000000000000630000000063
#06556:00006300000000000000004400340000
#0085a:00000000000000000000004400000000
#00852:00000000000000000000003400000000
#0165a:00000000000000000000004400000000
#01652:53000000000000000000000000340000
#01656:00230000
#05352:0000000034000064
#05356:00003400000000000000003400000000
#05354:00000000003400000000000000000000
#0615a:00000000000000000000004400000000
#06152:00000000000000000000003400000000
#07652:00000000000000340000000000000000
#0765a:00000000000000440000000000000000
#00452:00000000000000000000001c00000000
#02752:1300005300000000
#0275b:00000053000000000000000000000000
#04852:0000000000330000
#0485b:0000000000430000
#05752:0000000034000064
#05756:00003400000000000000003400000000
#05754:00000000003400000000000000000000
#07358:66
#03252:00000000000000340000000000000000
#0325a:00000000000000440000000000000000
#06852:0034000034000034
#0685a:00000000004400000000004400000000
#07152:0038000038000000
#07156:00000000004800000000004800000000
#00358:00000000000000530000000000000000
#00357:00000000000000000000000000000053
#02155:00000000000000530000000000000000
#02158:00000000000000000000000000000063
#0285b:53
#02857:00230000
#02957:0000000000130000
#0295b:00000063000000000000000013000000
#02955:0000006300000000
#02952:14000013
#03055:00000053000000000000130000000000
#03052:00000013
#0305b:0000005300000000
#03058:00000013
#0305a:14
#0375b:00000000000000630000000000000000
#03752:00000000000000000000000000000063
#0385b:00000000000000630000000000000000
#03852:0000000000130000
#03857:0000000000130000
#04052:0016
#0405b:00000043
#0505b:53000000000000430000000000000000
#05052:0000000000330000
#05452:00000000000000000000005200000000
#0555a:0000000044000054
#05556:00004400000000000000004400000000
#05558:00000000004400000000000000000000
#06652:00000000000000530000000000000000
#0665b:00000000000000000000530000000053
#06752:00006300000000530000000000000000
#0675b:0000000000130000
#07456:24
#01358:00000000000000630000000000000000
#01355:00000000000000000000000000000053
#01452:0000000000000023000000000000000000000000000000000000000000000000
#07552:00140000
#0755a:00140000
#03952:0034000034000034
#0395a:00000000004400000000004400000000
#001350:00000000000000130000000000000000
#001320:0000000000230000
#0023b0:00000000000000130000000000000000
#002370:0000000000230000
#003380:00000000000000130000000000000000
#0033b0:0000000000230000
#003370:00000000000000000000000000000013
#0043b0:00230000
#005360:00000000000000130000000000000000
#005320:0000000000230000
#0063b0:00000000000000130000000000000000
#006370:0000000000230000
#007320:00000000000000130000000000000000
#007360:0000000000230000
#0073b0:00000000000000000000000000000013
#008370:0023000000000000
#009350:00000000000000130000000000000000
#009320:0000000000230000
#009380:00000000000000000000000000000013
#0103b0:0000000000000053000000000000000000000000000000000000000000000000
#010380:0023
#0103b0:0000000000132300
#011380:00000000000000130000000000000000
#0113b0:0000000000230000
#012380:0013000023000000
#0123b0:00000000005300000000000000000000
#012320:0000000000132300
#013380:00000000000000130000000000000000
#0133b0:0000000000230000
#013350:00000000000000000000000000000013
#014320:0000000000000053000000000000000000000000000000000000000000000000
#014350:0023
#014320:0000000000132300
#015370:0000001300000000
#0153b0:0000000000230000
#016320:1323
#016360:00530000
#017380:00000000000000130000000000000000
#0173b0:0000000000230000
#017350:00000000000000000000000000000013
#018320:0023000000000000
#018320:0000000000132300
#019350:00000000000000130000000000000000
#019320:0000000000230000
#020350:0013000000000000
#020320:00230000
#021350:00000000000000130000000000000000
#021320:0000000000230000
#021380:00000000000000000000000000000013
#0223b0:0023000000000000
#0223b0:0000000000132300
#023360:0000001300000000
#023320:0000000000230000
#023380:00000000000000000000000000000013
#0243b0:00230000
#025320:00000013000000000000000000000000
#025350:00000000002300000000000000000000
#025380:0000001300000000
#0253b0:00000023
#026380:00000013000000000000000000000000
#0263b0:00000000002300000000000000000000
#026320:0000001300000000
#026350:00000023
#0273b0:00000013000000000000000000000000
#027370:00000000002300000000000000000000
#027320:0000001300000000
#027360:0000000000230000
#0283b0:1323
#028370:00530000
#0293b0:00000013000000000000000000000000
#029380:00000000002300000000000000000000
#029350:0000001300000000
#029320:00000023
#030350:00000013000000000000000000000000
#030320:00000000002300000000000000000000
#0303b0:0000001300000000
#030380:00000023
#031320:0000001300000000
#031350:0000000000230000
#031350:00000000000000000000000000000013
#032320:0023000000000000
#033320:00000000000000130000000000000000
#033360:0000000000230000
#0333b0:00000000000000000000000000000013
#034370:0023000000000000
#034320:00000000000000130000000000000000
#034360:0000000000230000
#035360:00000000000000130000000000000000
#035320:0000000000230000
#035370:00000000000000000000000000000013
#0363b0:0023000000000000
#036361:0013000000000000
#036321:0000002300000000
#0373b1:00000000000000130000000000000000
#037371:0000000000230000
#037321:00000000000000000000000000000013
#038361:0023000000000000
#0383b1:00000000000000130000000000000000
#038371:0000000000230000
#041371:00130000
#0413b1:00000000000000230000000000000000
#041361:00000013
#041321:00000000000000000000000000000023
#042371:00130000
#0423b1:00000000000000230000000000000000
#043361:00130000
#043321:00000000000000230000000000000000
#043371:00000013
#0433b1:00000000000000000000000000000023
#044361:00130000
#044321:00000000000000230000000000000000
#044361:0000000000120000
#044321:00000023
#044380:0000000000120000
#0443b0:00000023
#049320:13
#049360:00230000
#0503b0:13
#050370:00230000
#053320:0000000000000014
#054360:0024000000000000
#054320:00000000000000000000001200000000
#054370:000000000000000000000000000000000000000000000000000000000000000000000000000000000000323232322200
#0553a0:0000000000000014
#056360:0024000000000000
#057320:0000000000000014
#058360:0024000000000000
#059360:0000001300000000
#059320:0000000000230000
#0593a0:00000000000000000000000000000014
#060320:00000024
#062320:1333000000000000000000000000000000000000000000000000000000000000
#0623b0:0000333333333333000000000000000000000000000000000000000000000000
#062380:00260000
#0623b1:1333000000000000000000000000000000000000000000000000000000000000
#062321:0000333333333333260000000000000000000000000000000000000000000000
#0623b1:00000000000000130000000000000000
#062371:0000000000230000
#062320:0000000000130000
#062360:00000023
#062320:00000000000000000000000000000013
#063360:0023000000000000
#0633b1:0013000000000000
#063371:00230000
#0633b1:00000000000000130000000000000000
#063361:0000000000230000
#064361:00000000000000130000000000000000
#064321:0000000000230000
#064370:0000000000130000
#0643b0:00000023
#064370:00000000000000000000000000000013
#0653b0:0023000000000000
#065361:0013000000000000
#065321:0000002300000000
#066321:00000000000000130000000000000000
#066361:0000000000230000
#0663b0:0000000000130000
#066370:00000023
#0663b0:00000000000000000000000000000013
#067370:0023000000000000
#067321:0013000000000000
#067361:00230000
#067321:00000000000000130000000000000000
#067371:0000000000230000
#071341:0000000000000018
#072321:002c0000
#073381:16
#074361:3400002800000000
#0399a0:0014000000000000
#039960:00000024000000000000000000000000
#039920:00000000001400000000000000000000
#039960:0000002400000000
#0399a0:0014
#039960:00000000000000000024000000000000
#039920:00000000000000000000001400000000
#039960:00000024
#0489b0:00000013
#048970:0000000000000053
#0499b0:23
#0719a0:0014000000000000
#071960:00000024000000000000000000000000
#071920:00000000001400000000000000000000
#071960:0000002400000000
#0719a0:0014
#071960:00000000000000000024000000000000
#071920:00000000000000000000001400000000
#071960:00000024
