This file was generated by Ched 2.7.0.0.
#TITLE ""
#ARTIST ""
#DESIGNER ""
#DIFFICULTY 0
#PLAYLEVEL
#SONGID ""
#WAVE ""
#WAVEOFFSET 0
#JACKET ""
#REQUEST "ticks_per_beat 480"
#00002: 4
#BPM01: 124
#00008: 01
#TIL00: ""
#VOLUME: ""
#HISPEED 00
#MEASUREHS 00
#0011a:1414
#00114:00140014
#00418:1424
#00414:00140000
#00612:14
#00618:00140000
#01714:00140000
#01718:0014
#0171a:14
#01712:00000014
#01710:41
#03312:2414
#03318:00140014
#04512:14
#04518:00140000
#04514:0014
#0451a:00000014
#0471a:00001414
#04712:14140000
#0091a:1414
#00914:00140014
#00910:41
#01818:14
#00514:00140000
#0051a:24
#02812:14
#03118:1414
#03114:00140014
#0351a:1414
#03514:00140014
#03618:14
#03712:1414
#03718:00140014
#03918:00001400003400000000003400001400
#0391a:0014
#0431a:1414
#04314:0014
#04412:1414
#04418:0014
#04612:14
#04618:00140000
#04614:0014
#0461a:00000014
#05114:14
#05118:00140000
#05112:0014
#0511a:00000014
#05110:41
#05214:14
#05318:00001400003400000000003400001400
#0531a:0014
#0531f:11
#05512:00001400003400000000003400001400
#05514:0014
#05914:1414
#05918:00140014
#06012:14
#04114:14
#04110:41
#04212:0014
#04218:0014
#06118:14
#06112:0024
#03414:1414
#0341a:00140000
#03814:1414
#0381a:00140000
#0621a:2414
#06214:00140014
#0621f:00210000
#06412:1414
#06418:00140014
#06514:14
#0661a:1414
#06614:00140014
#06814:00001400003400000000003400001400
#06812:0014
#07018:14
#06318:1414
#06312:00140000
#06310:00410000
#06718:1414
#06712:00140000
#07112:00001400003400000000003400001400
#07114:0014
#07318:14
#0741a:14
#07614:14
#07612:00340034000000000000000000000000
#00218:1414
#00212:00140014
#0031a:1414
#00314:00140014
#00718:14
#00714:00140000
#00814:1424
#00818:00140000
#01018:14
#01112:1414
#01118:00140014
#01214:14
#01318:1414
#01312:00140014
#0141a:14
#01514:1414
#0151a:00140014
#01612:14
#01918:00140000
#01914:0014
#01912:14
#0191a:00000014
#02014:14
#02112:00140000
#0211a:0014
#02118:14
#02114:00000014
#0221a:14
#0231a:00140000
#02312:0014
#02314:14
#02318:00000014
#02412:14
#0571a:00001400003400000000003400001400
#05718:0014
#04812:0000000000240000
#02510:41
#01858:54
#02852:54
#03658:54
#0365a:0014
#03958:0064000000000064
#0395a:0024
#05254:54
#05252:0014
#05358:0064000000000064
#0535a:0024
#05552:0064000000000064
#05554:0024
#06052:64
#04154:64
#06554:64
#06552:0014
#06854:0054000000000054
#06852:0024
#07058:54
#07152:0064000000000064
#07154:0024
#07358:64
#0745a:64
#07654:64
#07652:00000000000000140000000000000000
#06152:0014
#07254:0014
#07558:14
#00458:0014
#01058:54
#01254:64
#0145a:64
#01652:54
#02054:64
#0225a:54
#02452:64
#03454:0014
#03854:0014
#04852:0000000000140000
#0575a:0054000000000054
#05758:0024
#06358:0014
#06758:0014
#0053a0:00001424
#006320:00001424
#007380:00001424
#010380:14
#0103a0:0024
#012340:14
#012320:0024
#0143a0:14
#014380:0024
#016320:14
#016340:0024
#018380:14
#0183a0:0024
#020340:14
#020320:0024
#0223a0:14
#022380:0024
#024320:14
#024340:0024
#025380:14
#025390:00000034000000000000000000000000
#0253a0:0000003400002400
#026340:14
#026330:00000034000000000000000000000000
#026320:0000003400002400
#0273a0:14
#027390:00000034000000000000000000000000
#027380:0000003400002400
#028320:14
#028340:00000024
#029380:14
#029390:00000034000000000000000000000000
#0293a0:0000003400002400
#030340:14
#030330:00000034000000000000000000000000
#030320:0000003400002400
#0323a0:14000000000000240000000000000000
#036380:14
#0363a0:0024
#039380:00001400003400000000003400003400
#0393a0:0034
#0403a0:0024
#041340:14
#042320:24
#048340:14
#048320:0000000000240000
#049380:14240000
#049320:00001424
#0503a0:1434
#050380:00340024
#052340:14
#052320:0024
#053380:00001400003400000000003400003400
#0533a0:0034
#0543a0:0024
#055320:00001400003400000000003400003400
#055340:0034
#056340:0024
#0573a0:00001400003400000000003400003400
#057380:0034
#058380:0024
#060320:14
#060340:00000024
#065340:14
#065320:0024
#068340:00001400003400000000003400003400
#068320:0034
#069320:0024
#070380:14
#0703a0:00000024
#071320:00001400003400000000003400003400
#071340:0034
#072340:0024
#073380:14
#0743a0:34
#075380:24
#076340:14
#076320:00340034003400240000000000000000
