This file was generated by Ched 2.7.0.0.
#TITLE ""
#ARTIST ""
#DESIGNER ""
#DIFFICULTY 0
#PLAYLEVEL
#SONGID ""
#WAVE ""
#WAVEOFFSET 0
#JACKET ""
#REQUEST "ticks_per_beat 480"
#00002: 4
#BPM01: 150
#BPM02: 170
#00008: 01
#06408: 01
#05608: 02
#06608: 02
#TIL00: ""
#VOLUME: ""
#HISPEED 00
#MEASUREHS 00
#00314:14
#0041a:14
#00514:14
#00712:14
#00818:14
#00912:14
#02412:14
#02518:14
#02614:14
#0271a:14
#02812:14
#02918:14
#03014:14
#0311a:14
#04118:14
#04212:14
#04318:14
#0451a:14
#04614:14
#0471a:14
#05718:16
#05812:16
#05918:16
#06818:2616
#0681f:21
#06810:0041
#06912:1616
#07018:16
#07012:0016
#07212:2616
#07318:1616
#07412:16
#07418:0016
#07618:1616
#07712:1616
#08014:14
#08114:14
#0821a:14
#08210:41
#0831a:14
#01214:14
#01314:14
#01418:14
#01518:14
#01612:14
#01712:14
#0101a:14
#0111a:14
#03212:14
#0331a:14
#03414:14
#03518:14
#06012:16
#0601f:11
#06112:16
#06218:16
#06318:16
#08814:14
#08914:14
#0901a:14
#0911a:14
#09718:14
#09812:14
#09918:14
#1011a:14
#10214:14
#1031a:14
#10618:16
#05612:26
#05610:41
#09612:24
#10014:24
#04012:24
#04414:24
#0021a:24
#00618:24
#03713:34
#03612:0034
#03610:41
#03919:34
#0381a:0034
#09313:34
#09212:0034
#09210:41
#09519:34
#0941a:0034
#01810:41
#10658:56
#000320:1434
#001320:3424
#0183a0:14
#019380:24
#020320:14
#021340:24
#022380:1434
#023380:3424
#036320:1434
#037330:34
#037340:0024
#0383a0:1434
#039390:34
#039380:0024
#048320:14
#049320:24
#050380:14
#051380:24
#052340:14
#053340:24
#0543a0:14
#0553a0:24
#064320:1636
#065320:36003626
#071380:1626
#075320:1626
#078380:16363636
#079380:3626
#084320:1434
#085320:24
#086380:1434
#087380:24
#092320:1434
#093330:34
#093340:0024
#0943a0:1434
#095390:34
#095380:0024
#104320:1434
#105320:3424
#106380:16
#1083a0:0000002400000000
