This file was generated by Ched 2.7.0.0.
#TITLE ""
#ARTIST ""
#DESIGNER ""
#DIFFICULTY 0
#PLAYLEVEL
#SONGID ""
#WAVE ""
#WAVEOFFSET 0
#JACKET ""
#REQUEST "ticks_per_beat 480"
#00002: 4
#BPM01: 150
#BPM02: 170
#00008: 01
#06408: 01
#05608: 02
#06608: 02
#TIL00: ""
#VOLUME: ""
#HISPEED 00
#MEASUREHS 00
#0161b:1300001313000000
#01612:00000013000000001300000000001300
#01615:0000000000131300
#01618:00000000000000000000001300001300
#06818:2600001300130013
#0681b:00130013
#06812:00131613
#0681f:21
#06810:0041
#01512:00001300000000230000000000130000
#01518:0000000000001300000000000000230000160000000000000000000013000000
#01515:00000000130000000000000000000013
#0151b:00000000001300000000000013000000
#01816:1200001212000012
#0181a:00000012
#01818:0000120000120000
#0181b:23
#01810:41
#00917:00000012
#00915:13001300130000230000000000000000
#0091b:00130013000000000000000000000000
#00912:0000000000000000000000130000000000000000000000000000000000000000
#00918:00000000000000230000000000000000
#01018:13000000001300000000000013000000
#01012:1313
#0101b:0013000013000013
#01015:0000131300130000
#0241b:1300000000000013
#02417:0000001300130000
#02419:00000013
#02412:23131313
#02517:0000001300000000
#02514:0000000000000013
#02512:23131300
#0251b:1300000000232300
#02516:00000013
#02519:0033000000000000
#02617:1313
#02612:1313
#0261b:0013230000132300
#02614:0000001300000013
#02616:00130013
#02712:2313
#02714:0000000000000013
#02716:00000013
#0271b:0000002300131300
#02718:0023000000000000
#02715:00230000
#03212:0013000000001300
#0321b:13
#03215:00130000
#03218:0000001300000000
#03216:0023
#03217:0000000000000023
#03314:0000000000000014
#0331b:0013000000000000
#03318:0000130000140000
#03315:0000001300000000
#03316:00000014
#03312:0013
#0331a:0014
#03412:1400001300001400
#03416:0000000000140014
#0341a:0014
#03415:00130000
#0341b:0013000000000000
#03418:13
#02812:1300000000000013
#02816:0000001300130000
#02814:00000013
#0281b:23131313
#05016:0000001200120000
#05018:00120012
#0501c:0012
#05012:0012000000000012
#0511a:00120000
#0511c:0012
#05118:12
#05114:0012000000000000
#05116:0000001200000000
#06016:0014001400140014
#06012:14241424
#0601a:24142414
#0601f:11
#06918:0000000000130013
#0691a:00000013
#06912:16131613
#0691b:2300002300000000
#06919:0023000000000000
#06917:00230000
#0701b:2313000023130000
#07018:0000131300001313
#07012:16131613
#07515:00000000000000000000130000000013
#07518:26000000260000001600001300001300
#07512:0026002600001300
#0871b:0000130013000013
#08715:00000000000000000013000000130000
#08718:0000000000131300
#08712:13000000000000000033333333333333130000000000000000333333333333330000000000000000000000001300000000000000000000000000000024000000
#08716:0014001400000000
#08815:00000000000000130000000014000000
#0881a:0014
#08817:000000000000000000000000000000140000000014000000
#08812:000000000000000000000014
#08816:0000000000140000000000000000000000000000000000000000000000000000
#08818:0000001300000000
#0891a:14
#08915:001400000000000000000000
#08917:000014000000000000130000
#0891b:0013
#08916:00000000000000000013000000000000
#08919:0000000000130000
#08914:00000000000033000000001300000000
#08912:00130000
#0911c:0012000000000000
#0911b:00120000
#0911a:0000001200000000
#09119:0012
#09118:0000000000120000
#09117:00000012
#09112:28
#10612:14
#10616:0000001400000000
#10614:00000000000000000000001400000000
#10618:26
#06112:0000000013130000
#06117:00000000000000000013000000000000
#0611b:0000000000001313
#06116:00001400000014000000000000130000
#0611a:14
#0631b:00000000000000000000001300000000
#06312:0000000000130000
#06314:00000013
#06319:00000000000000000000000000130000
#06316:0000000000000013
#0631a:0014
#07616:0013000000000000
#07614:00130000
#07612:0000001300000000
#0761b:2313
#07618:00260026
#07912:2c1c0000
#07917:0012
#07913:0000000000000000003a0000000000000000000000003a3a0000000000000000
#07914:0000000000000000000038380000000000000000383800000000000000000000
#07915:0000000000000000000000003636000000003636000000000000000000000000
#07916:0000000000000000000000000000343400340000000000000000000000000000
#01115:13000000000000000000000000130013
#01118:0000130000000013
#01114:0013
#01112:00000000000000000017000000000000
#01116:00000000001700000000000000000000
#01113:00170000000000000000000000000000
#0111b:00000013
#0361a:12001200001200120012000012001200
#03616:00000000120000000000001200000000
#03610:41
#0171b:13130000
#01715:13000013000000000000000000000000
#01718:0013000000000000
#01712:00000000001300240000000000000000
#0171a:00000000000000240000000000000000
#03712:12
#03714:0012000000000000
#03718:12
#0371a:0032000000000000
#03814:12001200001200120012000012001200
#03818:00000000120000000000001200000000
#05919:00000000000000000000000000000000000000000000000000000000000000000015000000000000000000150000000000000000000000000000000000000000
#05917:0000000000000000000000000000250000000015000000000000000000000000
#05914:00000014001400000000000000000000
#05918:0014140000000000
#05912:00000000000000250000000000000000
#00115:00000000000000000013001300000000
#00118:0000000013132300
#00418:0000000013000013
#00412:00000000000000001300000000000013
#00415:0000000000000000000000000000000000000013000000000000000000000000
#0041b:0000000000000000000000000000000000000013000000000000000000000000
#00518:1313130013001300
#00512:00130013000000000000000000002400
#00515:00000000000000130000000000000000
#0051b:0000000000000000000000130000000000000000000000000000000000000000
#00514:0000000000240000
#00815:0000000013000013
#0081b:00000000000000001300000000000013
#00818:0000000000000000000000000000000000000013000000000000000000000000
#00812:0000000000000000000000000000000000000013000000000000000000000000
#02018:1200001212000012
#02014:00000012
#02016:0012120000120000
#02012:23
#02916:0000001300000000
#02919:0000000000000013
#0291b:23131300
#02912:1300000000232300
#02917:00000013
#02914:0033000000000000
#03016:1313
#0301b:1313
#03012:0013230000132300
#03019:0000001300000013
#03017:00130013
#03118:00000000230000001300000000130000
#03112:0000002300130013
#0311b:2300000000130000
#03115:0023000000001300
#0351a:1414140000000000
#03515:0000001300130000
#03518:00000000000000130013000000000000
#03512:0013
#0401b:0000000000000000000000000000000000000013000000000000000013000000
#04018:0013
#04314:14000014
#04312:00141400
#04316:0000000000000000000000140000000000000000000000000000000000000000
#0431a:00000000000000140000000000002400
#04313:0014000000000000
#04318:00130000000000000000240000000000
#04317:00000013000000000000000000000000
#0411b:00000013
#04112:0000000000000000000000130000000000000000000000001300000000000000
#04115:1313130000130000
#04118:00130013000000000000000000000000
#01215:00001300000000130000130000000013
#01218:00000013000013000000001300001300
#01212:00000013
#03916:12
#0391c:12
#0391a:0012000000000000
#03914:0032000000000000
#03914:0032000000000000
#05716:14001400001400140000000000140014
#0571a:0000141400001414
#05712:0000140000001400000000000000000000000014000000000000000000000000
#0581a:00000000000014000014001400000000
#05812:00001414
#05816:0000000000140000
#06412:0000002300000014
#0641a:00000014
#0641b:23
#06415:00230023000000002300230000000000
#06418:00002300230000230023000000000000
#06715:0016
#07118:0026002600130013
#07115:00000013
#07112:26261600
#0771b:0000130000130000
#07719:0000001300001300
#07717:0000000013000013
#07712:13261326
#08612:1313000013001300
#08618:00130013000000000013000000130000
#08615:0000131300130013
#0861b:00000000001300130000001300000013
#05412:0012
#05414:00120012
#0541c:0012000000000000
#0541a:0000001200000012
#05418:0000000000120000
#05516:12
#0551c:0012000000000000
#05512:0012
#05514:00120000
#0551a:0000001200000000
#0521c:0012000000000000
#05218:0000000000120000
#05216:12
#0521a:0000001200000000
#05214:00120012
#05212:0012
#05318:12
#05316:00120000
#05314:0012
#0531a:0000001200000000
#08016:13000000130000000000001300000000
#08019:0000000000131300
#08012:0013001300000000
#08112:0000000000130000
#08117:00000000130000000000001300000000
#0811b:00000000000000130000000000000000
#08415:1313000013130013
#0841b:00130013000000000013000000000000
#08412:0000131300000000
#08418:00000000001300130000000000000000
#08418:00000000000000130000000000000000
#08212:00000013
#08216:0000000000000013
#08217:0013
#0821b:0000000000130000
#08214:00000000000000000000000000330033
#08219:00000000000000000033003300000000
#08210:41
#08315:00000000130000000000003300000000
#08317:13
#0831b:00000000000000000000000000000033
#0831a:0000000000000033
#08319:00000000000000000000000000330000
#08314:0000000000330000
#08313:00000000000000000033000000000000
#0191c:12
#01916:0000001200000000
#01918:00320012
#01914:12
#02112:12
#02118:0000001200000000
#02116:00320012
#0211a:12
#02115:0032000000000000
#04215:00000000000000000000001300001400
#04219:00000000000000000000000000000013
#0421b:0000000000000000000000000000000000000013000000000000000000000000
#04218:0013
#08512:13230000
#08518:00000013001300000000000000000000
#08515:0013001300000000
#0851b:00230000000000230000000000001300
#09214:12001200001200120012000012001200
#09218:00000000120000000000001200000000
#09210:41
#0931c:12
#0931a:0012000000000000
#09316:12
#09314:0032000000000000
#0941a:12001200001200120012000012001200
#09416:00000000120000000000001200000000
#09612:0000000000000000000000000000000000000013000000000000000013000000
#09615:0013
#09918:24000014
#0991a:00141400
#09917:0000000000000000000000140000000000000000000000000000000000000000
#09912:00000000000000140000000000002400
#09914:0000000000240000
#09919:0024000000000000
#09915:00230000000000000000000000000000
#09916:00000023000000000000000000000000
#09712:00000013
#0971b:0000000000000000000000130000000000000000000000001300000000000000
#09718:2323130000130000
#09715:00230023000000000000000000000000
#09518:12
#09512:12
#09514:0012000000000000
#0951a:0032000000000000
#0951a:0032000000000000
#06512:0000002314000000
#0651a:0000000000140000
#06515:00230023000000000000000026000000
#0651b:23
#06518:00002300230000230000000000000000
#06216:0014001400140014
#06212:2424
#0621a:00240024
#0001a:00000014
#00012:0000002300000014
#0001b:23
#00016:00230000000000000000000000000000
#00017:00000000000000230000000000000000
#02212:0000002300001400
#0221a:0000000000000014
#0221b:23
#02216:00230000000000000000000000000000
#02217:00000000000000230000000000000000
#02312:2300000000140000
#0231a:0014
#02315:00000026
#0231b:0000002300000000
#02317:00230000000000000000000000000000
#02316:00000000000000230000000000000000
#10312:00000000140000001433000000000000
#10315:0000000000000000000000140000000000000000000000000000000000003300
#10314:24000000000000000000000000330000
#10313:00002400000000000000003300000000
#10318:00230000000000000000000000000000
#10317:00000023000000000000000000000000
#1031a:00000000000000240000000000000000
#0491c:12
#0491a:00120000
#04918:0012
#04814:0012
#04816:00000012
#04818:12
#04812:22
#0481a:0022
#1041a:24000000000000240024000014000000
#10412:00240024000024000000000000001400
#10416:0024240024240000
#10512:00240024000024001400000000000000
#1051a:24000000000000240000140000000000
#10518:00000000000000000000000000130000
#10515:00000013
#10516:0024240000000000
#00315:00130000
#00312:0000000000000000000000130000000000000000000000001300000000000000
#00318:0000000000000000000000130000000000000000000000001300000000000000
#0031b:00130000
#00215:0000000000000000000000000000000000000013000000000000000000000000
#0021b:0000000000000000000000000000000000000013000000000000000000000000
#00218:0013
#00212:0013
#00718:00130000
#0071b:0000000000000000000000130000000000000000000000001300000000000000
#00715:0000000000000000000000130000000000000000000000001300000000000000
#00712:00130000
#00618:0000000000000000000000000000000000000013000000000000000000000000
#00612:0000000000000000000000000000000000000013000000000000000000000000
#00615:0013
#0061b:0013
#04412:0000000000000000000000000000000000000013000000000000000013000000
#04415:0013
#04512:00000013
#0451b:0000000000000000000000130000000000000000000000001300000000000000
#04518:1313130000130000
#04515:00130013000000000000000000000000
#04618:00000000000000000000001300000000
#04617:0000000000000014
#04614:00000000000000000000000000000013
#04612:0000000000000000000000000000000000000013000000000000000000000000
#04615:0013
#04716:0000000000001300000000140000000000000000000000000000000000000000
#0471a:00140000
#04712:00000000000000140000000000000000
#04712:00000000000000240000000000000000
#04718:14
#04719:0014000000000000
#04715:00130000000000000000000000000000
#09812:0000000000000000000000000000000000000013000000000000000000000000
#09815:0013
#09818:00000000000000000000001300000000
#09817:0000000000000024
#09814:00000000000000000000000000000023
#1001b:0000000000000000000000000000000000000013000000000000000013000000
#10018:0013
#1011b:00000013
#10112:0000000000000000000000130000000000000000000000001300000000000000
#10115:2323130000130000
#10118:00230023000000000000000000000000
#1021b:0000000000000000000000000000000000000013000000000000000000000000
#10218:0013
#10215:00000000000000000000001300002400
#10219:00000000000000000000000000000023
#07215:0000001300130013
#07212:26130013
#0721b:00130013
#07218:0016
#07315:0000000000130013
#07313:00000013
#0731b:00130013
#07318:1616
#07312:2300002300000000
#07314:0023000000000000
#07316:00230000
#07412:2313000023130000
#07415:0000131300001313
#0741b:00130013
#07418:1616
#07815:23
#07818:00240026
#07813:0025
#09015:23
#09018:00240026
#09013:0025
#05614:0024002400000000
#05618:24240000
#05612:0000000000240024
#0561a:00002424
#05610:41
#01315:0023000000230000
#01312:0000002300000023
#0165b:53
#01652:00000063000000000000000000000000
#0185b:13
#01856:6252
#01858:00620000
#02355:00000016
#0235a:0014
#02352:0000000000140000
#03458:63
#03455:00630000
#0345a:0064
#03452:0000002300006400
#03456:0000000000240024
#0345b:0023000000000000
#0245b:63
#02457:0000001300000000
#02852:53
#02856:0000001300000000
#0765b:13
#07855:13
#07858:00140016
#07853:0015
#07952:006c001c
#07957:0022
#08752:63000000630000000000000000000054
#08756:0024002400000000
#0885a:0064
#08856:0000000000240000000000000000000000000000000000000000000000000000
#08857:0000000000240000
#09055:13
#09058:00140016
#09053:0015
#10658:16
#10652:54
#10656:0000002400000000
#10654:00000000000000000000006400000000
#06858:16
#06852:00130013
#08957:00000063
#08952:00530000
#01155:63
#01153:00270000000000000000000000000000
#01152:00000000000000000027000000000000
#01156:00000000002700000000000000000000
#01154:0053
#01158:00530000
#03758:52
#03756:00000000000000120000000000000000
#0375c:00000000000000120000000000000000
#03952:00000000000000120000000000000000
#03958:00000000000000120000000000000000
#03956:62
#05959:00000000000000000000000000000000000000000000000000000000000000000025000000000000000000250000000000000000000000000000000000000000
#05957:0000000000000000000000000000550000000055000000000000000000000000
#00455:0000000000000000000000000000000000000023000000000000000000000000
#0045b:0000000000000000000000000000000000000023000000000000000000000000
#00458:0053
#00452:0053
#02058:5262
#02056:00520000
#02052:13
#0255b:63
#02557:0000001300000000
#02952:53
#02956:0000001300000000
#0325b:13
#0405b:0000000000000000000000000000000000000023000000000000000013000000
#04058:0053
#05756:00000000000000540000000000000000
#05752:0000000000000000000000000000000000000024000000000000000000000000
#06452:0000000000000014
#0645a:00000014
#06555:00000016
#06552:0014
#0655a:0000000000140000
#06755:0056
#08052:0000005300000000
#08157:00530000
#0815b:00000000000000230000000000000000
#08252:00000053
#08256:0000000000000023
#08257:0053
#0825b:0000000000230000
#08357:63
#06952:00130013
#07052:00130013
#02752:13
#02758:0013000000000000
#02755:00130000
#0275b:0000001300000000
#03158:00130000
#03152:0000001300000000
#0315b:13
#03155:0013000000000000
#0195c:52
#01956:0000005200000000
#02152:62
#02158:0000006200000000
#02156:00000012
#00952:0000000000000000000000230000000000000000000000000000000000000000
#00955:00000000630000130000000000000000
#00958:00000000000000130000000000000000
#0055b:0000000000000000000000230000000000000000000000000000000000000000
#00558:00530000
#00554:0000000000140000
#00552:0000000000000014
#04356:0000000000000000000000240000000000000000000000000000000000000000
#04352:00640000
#04358:0000000000140000
#0435a:0000000000000014
#0155b:13
#01555:13
#01558:0000000000000000000000000000530000260000000000000000000000000000
#09356:62
#09352:00000000000000120000000000000000
#09358:00000000000000120000000000000000
#09558:52
#0955c:00000000000000120000000000000000
#09556:00000000000000120000000000000000
#09652:0000000000000000000000000000000000000023000000000000000013000000
#09655:0063
#09957:0000000000000000000000240000000000000000000000000000000000000000
#0995a:00540000
#09954:0000000000140000
#09952:0000000000000014
#0605a:1414
#06052:00140014
#06252:1414
#0625a:00140014
#01355:0013000000130000
#01352:0000001300000013
#02252:00000014
#0225a:0000000000000014
#0005a:00000014
#00052:0000000000000014
#10352:00646400
#10355:0000000000000000000000240000000000000000000000000000000000000000
#04752:00000000000000340000000000000000
#04756:0000000000000000000000240000000000000000000000000000000000000000
#0475a:00000000540000440000000000000000
#1045a:00000014
#10452:0000000000000014
#10552:0014
#1055a:0000000000140000
#10558:00000000000000000000000000130000
#10555:00000013
#00355:00630000
#0035b:00630000
#00352:0000000000000000000000230000000000000000000000000000000000000000
#00358:0000000000000000000000230000000000000000000000000000000000000000
#00255:0000000000000000000000000000000000000023000000000000000000000000
#0025b:0000000000000000000000000000000000000023000000000000000000000000
#00258:0053
#00252:0053
#00858:0000000000000000000000000000000000000023000000000000000000000000
#00852:0000000000000000000000000000000000000023000000000000000000000000
#00855:0063
#0085b:0063
#00758:00530000
#00752:00530000
#0075b:0000000000000000000000230000000000000000000000000000000000000000
#00755:0000000000000000000000230000000000000000000000000000000000000000
#00658:0000000000000000000000000000000000000023000000000000000000000000
#00652:0000000000000000000000000000000000000023000000000000000000000000
#00655:0063
#0065b:0063
#04152:0000000000000000000000230000000000000000000000000000000000000000
#04155:00530000
#0425b:0000000000000000000000000000000000000023000000000000000000000000
#04258:0053
#04452:0000000000000000000000000000000000000023000000000000000013000000
#04455:0063
#0455b:0000000000000000000000230000000000000000000000000000000000000000
#04558:00630000
#04652:0000000000000000000000000000000000000023000000000000000000000000
#04655:0063
#0975b:0000000000000000000000230000000000000000000000000000000000000000
#09758:00630000
#09852:0000000000000000000000000000000000000023000000000000000000000000
#09855:0063
#1005b:0000000000000000000000000000000000000023000000000000000013000000
#10058:0053
#10152:0000000000000000000000230000000000000000000000000000000000000000
#10155:00530000
#1025b:0000000000000000000000000000000000000023000000000000000000000000
#10258:0053
#00158:00000013
#07152:16160000
#07158:0016001600000000
#0725b:00130013
#07252:16
#0735b:00130013
#0745b:00130013
#07558:16160000
#07552:0016001600000000
#000360:00133333230000000000000000000000
#000370:00000000000000133333230000000000
#0013b0:13333333230000000000000000000000
#001321:00000000133333332300000000000000
#002381:1323000000000000
#002320:1323000000000000
#0023b0:0000132300000000
#002351:0000132300000000
#002381:00000000000000001300003300002300
#0023b1:0000000000000000000000000000000000000053000000000000000000000000
#002320:00000000000000001300003300002300
#002350:0000000000000000000000000000000000000053000000000000000000000000
#003350:13003300330000330000230000000000
#003340:00330033000000000000000000000000
#003320:0000000000000000000000530000000000000000000000000000000000000000
#0033b1:13003300330000330000230000000000
#0033a1:00330033000000000000000000000000
#003381:0000000000000000000000530000000000000000000000000000000000000000
#004381:1323000000000000
#004320:1323000000000000
#0043b0:0000132300000000
#004351:0000132300000000
#004381:00000000000000001300002300000000
#0043b1:0000000000000000000000000000000000000053000000000000000000000000
#004320:00000000000000001300002300000000
#004350:0000000000000000000000000000000000000053000000000000000000000000
#005380:00000000130000230000000000000000
#0053b0:0000000000000000000000530000000000000000000000000000000000000000
#0063b0:1323000000000000
#006351:1323000000000000
#006321:0000132300000000
#006380:0000132300000000
#006350:00000000000000001300003300002300
#006320:0000000000000000000000000000000000000053000000000000000000000000
#0063b1:00000000000000001300003300002300
#006381:0000000000000000000000000000000000000053000000000000000000000000
#007381:13003300330000330000230000000000
#007391:00330033000000000000000000000000
#0073b1:0000000000000000000000530000000000000000000000000000000000000000
#007320:13003300330000330000230000000000
#007330:00330033000000000000000000000000
#007350:0000000000000000000000530000000000000000000000000000000000000000
#0083b0:1323000000000000
#008351:1323000000000000
#008321:0000132300000000
#008380:0000132300000000
#008350:00000000000000001300002300000000
#008320:0000000000000000000000000000000000000053000000000000000000000000
#0083b1:00000000000000001300002300000000
#008381:0000000000000000000000000000000000000053000000000000000000000000
#009351:00000000130000230000000000000000
#009321:0000000000000000000000530000000000000000000000000000000000000000
#011351:1323000000000000
#011331:00570000000000000000000000000000
#011381:0000132300000000
#011361:00000000005700000000000000000000
#011341:0000000013230000
#011321:00000000000000000057000000000000
#0123b1:1323000000000000
#012321:0000142400000000
#012391:0000000015250000
#013381:13
#0133b1:0023000000000000
#0133b1:00130000
#013381:0000002300000000
#013381:0013
#0133b1:0000000000230000
#0133b1:00000013
#013381:0000000000000023
#014381:13000000330000000053000033000000
#0143b1:00000000005300003300000000530000
#0153b1:23
#014320:00001300000033000000005300003300
#014350:00000000000000530000330000000053
#015350:23
#015320:000000000000000000000000000000000000000000000000000000000000000000000000000000000000000000000000000000000000000000000000000000000000000000000000000000000000000000000000000000000000000000000000000000000000000000000000000000000000000000000000000000000000000000000000000000000000000000000000000000000000000000000000000000000000000000000000000000000000000000000000000000000000000000000000000000000000000000000000000000000000000000000000000000000000000000000000000000000000000000000000000000000000000000000000000000000000000000000000000000000000000000000000000000000000000000000000000000000000000000000000000000000000000000000000000000000000000000000000000000000000000000000000000000000000000000000000000000000000000000000000000000000000000000000000000000000000000000000000000000000000000000000000000000000000000000000000000000000000000000000000000000000000000000000000000000000000000000000000000000000000000000000000000000000000000000000000000000000000000000000000000000000000000000000000000000000000000000000000000000000000000000000000000000000000000000000000000000000000000000000000000000000000000000000000000000000000000000000000000000000000000000000000000000000000000000000000000000000000000000000000000000000000000000000000000000000000000000000000000000000000000000000000000000000000000000000000000000000000000000000000000000000000000000000000000000000000000000000000000000000000000000000000000000000000000000000000000000000000000000000000000000000000000000000000000000000000000000000000000000000000000000000000000000000000000000000000000000000000000000000000000000000000000000000000000000000000000000000000000000000000000000000000000000000000000000000000000000000000000000000000130000000000000000000000000000000000000000000000000000000000000000000000000000000000000000000000000000000000000000000000000000000000000000000000000000000000000000000000000000000000000000000000000000000000000000000000000000000000000000000000000000000000000000000000000000000000000000000000000000000053550000000000000000000000000000000000000000000000000000000000000000000000000000000000000000000000000000000000000000000000000000000000000000000000000000000000000000000000000000000000565300000000000000000000000000000000000000000000000000000053550000000000000000000000000000000000000000000000000000000000000000000000000000000000000000000000000000000000000000000000000000000000000000000000000000000000000000000000000000000000260000000000000000000000000000000000000000000000000000000000000000000000000000000000000000000000000000000000000000000000000000000000000000000000000000000000000000000000000000000000000000000000000000000000000000000000000000000000000000000000000000000000000000000000000000000000000000000000000000000000000000000000000000000000000000000000000000000000000000000000000000000000000000000000000000000000000000000000000000000000000000000000000000000000000000000000000000000000000000000000000000000000000000000000000000000000000000000000000000000000000000000000000000000000000000000000000000000000000000000000000000000000000000000000000000000000000000000000000000000000000000000000000000000000000000000000000000000000000000000000000000000000000000000000000000000000000000000000000000000000000000000000000000000000000000000000000000000000000000000000000000000000000000000000000000000000000000000000000000000000000000000000000000000000000000000000000000000000000000000000000000000000000000000000000000000000000000000000000000000000000000000000000000000000000000000000000000000000000000000000000000000000000000000000000000000000000000000000000000000000000000000000000000000000000000000000000000000000000000000000000000000000000000000000000000000000000000000000000000000000000000000000000000000000000000000000000000000000000000000000000000000000000000000000000000000000000000000000000000000000000000000000000000000000000000000000000000000000000000000000
#015381:0000000000000000000000000000130000560000230000000000000000000000
#0163b1:13
#016371:00000023000000000000000000000000
#016320:00000013000000000000000000000000
#016360:0000002300000000
#017320:000000000000000000000000000000000000000000000000000000000000000000000000000000000000000000000000000000000000000000000000000000000000000000000000000000000000000000000000000000000000000000000000000000000000000000000000000000000000000000000000000000000000000000000000000000000000000000000000000000000000000000000000000000000000000000000000000000000000000000000000000000000000000000000000000000000000000000000000000000000000000000000000000000000000000000000000000000000000000000000000000000000000000000000000000000000000000000000000000000000000000000000000000000000000000000000000000000000000000000000000000000000000000000000000000000000000000000000000000000000000000000000000000000000000000000000000000000000000000000000000000000000000000000000000000000000000000000000000000000000000000000000000000000000000000000000000000000000000000000000000000000000000000000000000000000000000000000000000000000000000000000000000000000000000000000000000000000000000000000000000000000000000000000000000000000000000000000000000000000000000000000000000000000000000000000000000000000000000000000000000000000000000000000000000000000000000000000000000000000000000000000000000000000000000000000000000000000000000000000000000000000000000000000000000000000000000000000000000000000000000000000000000000000000000000000000000000000000000000000000000000000000000000000000000000000000000000000000000000000000000000000000000000000000000000000000000000000000000000000000000000000000000000000000000000000000000000000000000000000000000000000000000000000000000000000000000000000000000000000000000000000000000000000000000000000000000000000000000000000000000000000000000000000000000000000000000000000000000000000000000145300000000000000000000000000000000000000000000000000000000000000000000000000000000000000000000000000000000000000000000000000000000000000000000000000000000000000000000000000000000000000000000000000000000000000000000000000000000000000000000000000000000000000000000000000000000000000000000000000000000000000000000000000000000000000000000000000000000000000000000000000000000000000000000000000000000000000000000000000000000000000000000000000000000000000000000000000000000000000000000000000000000000000000000000000000000000000000000000000000000000000000000000000000000000000000000000000000000000000000000000000000000000000000000000000000000000000000000000000000000000000000000000000000000000000000000000000000000000000000000000000000000000000000000000000000000000000000000000000000000000000000000000000000000000000000000000000000000000000000000000000000000000000000000000000000000000000000000000000000000000000000000000000000000000000000000000000000000000000000000000000000000000000000000000000000000000000000000000000000000000000000000000000000000000000000000000000000000000000000000000000000000000000000000000000000000000000000000000000000000000000000000000000000000000000000000000000000000000000000000000000000000000000000000000000000000000000000000000000000000000000000000000000000000000000000000000000000000000000000000000000000000000000000000000000000000000000000000000000000000000000000000000000000000000000000000000000000000000000000000000000000000000000000000000000000000000000000000000000000000000000000000000000000000000000000000000000000000000000000000000000000000000000000000000000000000000000000000000000000000000000000000000000000000000000000000000000000000000000000000000000000000000000000000000000000000000000000000000000000000000000000000000000000000000000000000000000000000000000000000000000000000000000000000000000000000000000000000000000000000000000000000000000000000000000000000000000000000000000000000000000000000000000000000000000000000000000000000000000000000000000000000000000000000000000000000000000000000000000000000000000000000000000000000000000000000000000000000000000000000000000000000000000000000000000000000000000000000000000000000
#017340:000000000000000000000000000000000000000000000000000000000000000000000000000000000000000000000000000000000000000000000000000000000000000000000000000000000000000000000000000000000000000000000000000000000000000000000000000000000000000000000000000000000000000000000000000000000000000000000000000000000000000000000000000000000000000000000000000000000000000000000000000000000000000000000000000000000000000000000000000000000000000000000000000000000000000000000000000000000000000000000000000000000000000000000000000000000000000000000000000000000000000000000000000000000000000000000000000000000000000000000000000000000000000000000000000000000000000000000000000000000000000000000000000000000000000000000000000000000000000000000000000000000000000000000000000000000000000000000000000000000000000000000000000000000000000000000000000000000000000000000000000000000000000000000000000000000000000000000000000000000000000000000000000000000000000000000000000000000000000000000000000000000000000000000000000000000000000000000000000000000000000000000000000000000000000000000000000000000000000000000000000000000000000000000000000000000000000000000000000000000000000000000000000000000000000000000000000000000000000000000000000000000000000000000000000000000000000000000000000000000000000000000000000000000000000000000000000000000000000000000000000000000000000000000000000000000000000000000000000000000000000000000000000000000000000000000000000000000000000000000000000000000000000000000000000000000000000000000000000000000000000000000000000000000000000000000000000000000000000000000000000000000000000000000000000000000000000000000000000000000000000000000000000000000000000000000000000000000000000000000000000000000000000000000000000000000000000000000000000000000000000000000000000000000000000000000000000000000000000000000000000000000000000000000000000000000000000000000000000000000000000000000000000000000000000000000000000000000000000000000000000000000000000000000000000000000000000000000000000000000000000000000000000000000000000000000000000000000000000000000000000000000000000000000000000000000000000000000000000000000000000000000000000000000000000000000000000000000000000000000000000000000000000000000000000000000000000000000000000000000000000000000000000000000000000000000000000000000000000000000000535400000000000000000000000000000000000000000000000000000000000000000000000000000000000000000000000000000000000000000000000000000000000000000000000000000000000000000000000000000000000000000000000000000000000000000000000000000000000000000000000000000000000000000000000000000000000000000000000000000000000000000000000000000000000000000000000000000000000000000000000000000000000000000000000000000000000000000000000000000000000000000000000000000000000000000000000000000000000000000000000000000000000000000000000000000000000000000000000000000000000000000000000000000000000000000000000000000000000000000000000000000000000000000000000000000000000000000000000000000000000000000000000000000000000000000000000000000000000000000000000000000000000000000000000000000000000000000000000000000000000000000000000000000000000000000000000000000000000000000000000000000000000000000000000000000000000000000000000000000000000000000000000000000000000000000000000000000000000000000000000000000000000000000000000000000000000000000000000000000000000000000000000000000000000000000000000000000000000000000000000000000000000000000000000000000000000000000000000000000000000000000000000000000000000000000000000000000000000000000000000000000000000000000000000000000000000000000000000000000000000000000000000000000000000000000000000000000000000000000000000000000000000000000000000000000000000000000000000000000000000000000000000000000000000000000000000000000000000000000000000000000000000000000000000000000000000000000000000000000000000000000000000000000000000000000000000000000000000000000000
#017360:00000022
#0173a1:00000000000000140000000000000000
#0173b1:000000000000000000000000000000000000000000000000000000000000000000000000000000000000000000000000000000000000000000000000000000000000000000000000000000000000000000000000000000000000000000000000000000000000000000000000000000000000000000000000000000000000000000000000000000000000000000000000000000000000000000000000000000000000000000000000000000000000000000000000000000000000000000000000000000000000000000000000000000000000000000000000000000000000000000000000000000000000000000000000000000000000000000000000000000000000000000000000000000000000000000000000000000000000000000000000000000000000000000000000000000000000000000000000000000000000000000000000000000000000000000000000000000000000000000000000000000000000000000000000000000000000000000000000000000000000000000000000000000000000000000000000000000000000000000000000000000000000000000000000000000000000000000000000000000000000000000000000000000000000000000000000000000000000000000000000000000000000000000000000000000000000000000000000000000000000000000000000000000000000000000000000000000000000000000000000000000000000000000000000000000000000000000000000000000000000000000000000000000000000000000000000000000000000000000000000000000000000000000000000000000000000000000000000000000000000000000000000000000000000000000000000000000000000000000000000000000000000000000000000000000000000000000000000000000000000000000000000000000000000000000000000000000000000000000000000000000000000000000000000000000000000000000000000000000000000000000000000000000000000000000000000000000000000000000000000000000000000000000000000000000000000000000000000000000000000000000000000000000000000000000000000000000000000000000000000000000000000000000000000005300000000000000000000000000000000000000000000000000000000000000000000000000000000000000000000000000000000000000000000000000000000000000000000000000000000000000000000000000000000000000000000000000000000000000000000000000000000000000000000000000000000000000000000000000000000000000000000000000000000000000000000000000000000000000000000000000000000000000000000000000000000000000000000000000000000000000000000000000000000000000000000000000000000000000000000000000000000000000000000000000000000000000000000000000000000000000000000000000000000000000000000000000000000000000000000000000000000000000000000000000000000000000000000000000000000000000000000000000000000000000000000000000000000000000000000000000000000000000000000000000000000000000000000000000000000000000000000000000000000000000000000000000000000000000000000000000000000000000000000000000000000000000000000000000000000000000000000000000000000000000000000000000000000000000000000000000000000000000000000000000000000000000000000000000000000000000000000000000000000000000000000000000000000000000000000000000000000000000000000000000000000000000000000000000000000000000000000000000000000000000000000000000000000000000000000000000000000000000000000000000000000000000000000000000000000000000000000000000000000000000000000000000000000000000000000000000000000000000000000000000000000000000000000000000000000000000000000000000000000000000000000000000000000000000000000000000000000000000000000000000000000000000000000000000000000000000000000000000000000000000000000000000000000000000000000000000000000000000000000000000000000000000000000000000000000000000000000000000000000000000000000000000000000000000000000000000000000000000000000000000000000000000000000000000000000000000000000000000000000000000000000000000000000000000000000000000000000000000000000000000000000000000000000000000000000000000000000000000000000000000000000000000000000000000000000000000000000000000000000000000000000000000000000000000000000000000000000000000000000000000000000000000000000000000000000000000000000000000000000000000000000000000000000000000000000000000000000000000000000000000000000000000000000000000000000000000000000000000000000
#017391:0000000000000000000000000000000000000053000000000000000000000000
#017381:000000000000000000000000000000000000000000000000000000000000000000000000000000000000000000000000000000000000000000000000000000000000000000000000000000000000000000000000000000000000000000000000000000000000000000000000000000000000000000000000000000000000000000000000000000000000000000000000000000000000000000000000000000000000000000000000000000000000000000000000000000000000000000000000000000000000000000000000000000000000000000000000000000000000000000000000000000000000000000000000000000000000000000000000000000000000000000000000000000000000000000000000000000000000000000000000000000000000000000000000000000000000000000000000000000000000000000000000000000000000000000000000000000000000000000000000000000000000000000000000000000000000000000000000000000000000000000000000000000000000000000000000000000000000000000000000000000000000000000000000000000000000000000000000000000000000000000000000000000000000000000000000000000000000000000000000000000000000000000000000000000000000000000000000000000000000000000000000000000000000000000000000000000000000000000000000000000000000000000000000000000000000000000000000000000000000000000000000000000000000000000000000000000000000000000000000000000000000000000000000000000000000000000000000000000000000000000000000000000000000000000000000000000000000000000000000000000000000000000000000000000000000000000000000000000000000000000000000000000000000000000000000000000000000000000000000000000000000000000000000000000000000000000000000000000000000000000000000000000000000000000000000000000000000000000000000000000000000000000000000000000000000000000000000000000000000000000000000000000000000000000000000000000000000000000000000000000000000000000000000000000000000000000000000000000000000000000000000000000000000000000000000000000000000000000000000000000000000000000000000000000000000000000000000000000000000000000000000000000000000000000000000000000000000000000000000000000000000000000000000000000000000000000000000000000000000000000000000000000000000000000000000000000000000000000000000000000000000000000000000000000000000000000000000000000000000000000000000000000000000000000000000000000000000000000000000000000000000000000000000000000000000000000000000000000000000000000000000000000000000000000000000000000000000000000000000000000000000000000000000005400000000000000000000000000000000000000000000000000000000000000000000000000000000000000000000000000000000000000000000000000000000000000000000000000000000000000000000000000000000000000000000000000000000000000000000000000000000000000000000000000000000000000000000000000000000000000000000000000000000000000000000000000000000000000000000000000000000000000000000000000000000000000000000000000000000000000000000000000000000000000000000000000000000000000000000000000000000000000000000000000000000000000000000000000000000000000000000000000000000000000000000000000000000000000000000000000000000000000000000220000000000000000000000000000000000000000000000000000000000000000000000000000000000000000000000000000000000000000000000000000000000000000000000000000000000000000000000000000000000000000000000000000000000000000000000000000000000000000000000000000000000000000000000000000000000000000000000000000000000000000000000000000000000000000000000000000000000000000000000000000000000000000000000000000000000000000000000000000000000000000000000000000000000000000000000000000000000000000000000000000000000000000000000000000000000000000000000000000000000000000000000000000000000000000000000000000000000000000000000000000000000000000000000000000000000000000000000000000000000000000000000000000000000000000000000000000000000000000000000000000000000000000000000000000000000000000000000000000000000000000000000000000000000000000000000000000000000000000000000000000000000000000000000000000000000000000000000000000000000000000000000000000000000000000000000000000000000000000000000
#018361:12
#018321:00220000
#018380:00120000
#0183c0:0022
#018361:0012
#018321:00000022
#0193c1:12
#019381:0000322200000000
#019360:0000001200000000
#019320:00000022
#020380:12
#0203c0:00220000
#020361:00120000
#020321:0022
#020380:0012
#0203c0:00000022
#021320:12
#021350:0032000000000000
#021360:0000322200000000
#021381:0000001200000000
#0213c1:00000022
#022361:00133333230000000000000000000000
#022371:00000000000000133333230000000000
#023371:00133333230000000000000000000000
#023361:00000000000000132300000000000000
#0243b1:13
#024371:00230000
#0253b1:13
#025391:0033000000000000
#025371:00230000
#028321:13
#028361:00230000
#029321:13
#029341:0033000000000000
#029361:00230000
#0323b1:0013
#032371:00000023
#032321:0000000000000013
#033361:0023000000000000
#034381:13230000
#0343b1:0053000000000000
#034350:00132300
#034320:0000005300000000
#0343a1:00001424
#034361:0000000000540000
#034320:00000014
#034360:0000000000000054
#035320:24
#0353b0:00000000000000000000001300230000
#035351:00000000000000000000000000130000
#035341:0000000000000033
#035331:00000000000000000000000000000033
#036321:23
#037381:12
#0373a1:0032000000000000
#0373c1:00000000320000220000000000000000
#037360:00000000120000220000000000000000
#039360:12
#039340:0032000000000000
#039320:00000000320000220000000000000000
#039381:00000000120000220000000000000000
#040381:13
#0403b1:0023000000000000
#040320:13332300
#040350:0033003300000000
#040381:00130000
#0403b1:0000002300000000
#040381:00000000000000001300002300000000
#0403b1:0000000000000000000000000000000000000053000000000000000000000000
#040350:00000000000000000000001300002300
#041350:00000000130000230000000000000000
#041320:0000000000000000000000530000000000000000000000000000000000000000
#041381:00000000000000130000230000000000
#042381:13
#0423b1:0023000000000000
#042320:13332300
#042350:0033003300000000
#042381:00130000
#0423b1:0000002300000000
#042381:00000000000000001300002300000000
#0423b1:0000000000000000000000000000000000000053000000000000000000000000
#043321:00000000140000240000000000000000
#043361:0000000000000000000000540000000000000000000000000000000000000000
#044351:13
#044321:0023000000000000
#0443b0:13332300
#044380:0033003300000000
#044351:00130000
#044321:0000002300000000
#044351:00000000000000001300002300000000
#044321:0000000000000000000000000000000000000053000000000000000000000000
#044380:00000000000000000000001300002300
#045380:00000000130000230000000000000000
#0453b0:0000000000000000000000530000000000000000000000000000000000000000
#045351:00000000000000130000230000000000
#046351:13
#046321:0023000000000000
#0463b0:13332300
#046380:0033003300000000
#046351:00130000
#046321:0000002300000000
#046351:00000000000000001300002300000000
#046321:0000000000000000000000000000000000000053000000000000000000000000
#0473a1:00000000140000240000000000000000
#047361:0000000000000000000000540000000000000000000000000000000000000000
#048321:12220000
#0483a1:00001222
#049361:1222
#056381:14542400000000000000000000000000
#056391:0054005400000000000000000000000000000000000000000000000000000000
#056340:00001454240000000000000000000000
#056330:0000000000540054000000000000000000000000000000000000000000000000
#056381:00000000145424000000000000000000
#056391:0000000000000000005400540000000000000000000000000000000000000000
#056340:00000000000014542400000000000000
#056330:0000000000000000000000000054005400000000000000000000000000000000
#0563a1:00000000000000001454240000000000
#056391:0000000000000000000000000000000000540054000000000000000000000000
#056320:00000000000000000000145424000000
#056330:0000000000000000000000000000000000000000005400540000000000000000
#0563a1:00000000000000000000000014542400
#056391:0000000000000000000000000000000000000000000000000054005400000000
#056320:00000000000000000000000000001454
#056330:0000000000000000000000000000000000000000000000000000000000540054
#057320:24
#057360:00000000000000140000000024000000
#057320:0000000000000000000000000000000000000054000000000000000000000000
#0583a0:14
#058360:00000024000000000000000000000000
#058321:00000014000000000000000000000000
#058361:0000002400000000
#0583a1:0000000000000014
#0593a1:24
#059320:1424000000000000
#059320:00000000000000150000000025000000
#059330:000000000000000000000000000000000000000000000000000000000000000000000000000000000000000000000000000000000000000000000000000000000000000000000000000000000000000000000000000000000000000000000000000000000000000000000000000000000000000000000000000000000000000000000000000000000000000000000000000000000000000000000000000000000000000000000000000000000000000000000000000000000000000000000000000000000000000000000000000000000000000000000000000000000000000000000000000000000000000000000000000000000000000000000000000000000000000000000000000000000000000000000000000000000000000000000000000000000000000000000000000000000000000000000000000000000000000000000000000000000000000000000000000000000000000000000000000000000000000000000000000000000000000000000000000000000000000000000000000000000000000000000000000000000000000000000000000000000000000000000000000000000000000000000000000000000000000000000000000000000000000000000000000000000000000000000000000000000000000000000000000000000000000000000000000000000000000000000000000000000000000000000000000000000000000000000000000000000000000000000000000000000000000000000000000000000000000000000000000000000000000000000000000000000000000000000000000000000000000000000000000000000000000000000000000000000000000000000000000000000000000000000000000000000000000000000000000000000000000000000000000000000000000000000000000000000000000000000000000000000000000000000000000000000000000000000000000000000000000000000000000000000000000000000000000000000000000000000000000000000000000000000000000000000000000000000000000000000000000000000000000000000000000000000000000000000000000000000000000000000000000000000000000000000000000000000000000000000000000000000000000054000000000000000000000000000000000000000000000000000000000000000000000000000000000000000000000000000000000000000000000000000000000000000000000000000000000000000000000000000000000000000000000000000000000000000000000000000000000000000000000000000000000000000000000000000000000000000000000000000000000000000000000000000000000000000000000000000000000000000000000000000000000000000000000000000000000000000000000000000000000000000000000000000000000000000000000000000000000000000000000000000000000000000000000000000000000000000000000000000000000000000000000000000000000000000000000000000000000000000000000000000000000000000000000000000000000000000000000000000000000000000000000000000000000000000000000000000000000000000000000000000000000000000000000000000000000000000000000000000000000000000000000000000000000000000000000000000000000000000000000000000000000000000000000000000000000000000000000000000000000000000000000000000000000000000000000000000000000000000000000000000000000000000000000000000000000000000000000000000000000000000000000000000000000000000000000000000000000000000000000000000000000000000000000000000000000000000000000000000000000000000000000000000000000000000000000000000000000000000054000000000000000000000000000000000000000000000000000000000000000000000000000000000000000000000000000000000000000000000000000000000000000000000000000000000000000000000000000000000000000000000000000000000000000000000000000000000000000000000000000000000000000000000000000000000000000000000000000000000000000000000000000000000000000000000000000000000000000000000000000000000000000000000000000000000000000000000000000000000000000000000000000000000000000000000000000000000000000000000000000000000000000000000000000000000000000000000000000000000000000000000000000000000000000000000000000000000000000000000000000000000000000000000000000000000000000000000000000000000000000000000000000000000000000000000000000000000000000000000000000000000000000000000000000000000000000000000000000000000000000000000000000000000000000000000000000000000000000000000000000000000000000000000000000000000000000000000000000000000000000000000000000000000000000000000000000000000000000000000000
#059371:0000000000000000000000000000150000000055000000002500000000000000
#059391:00000000000000000000000000000000000000000000000000000000000000000055000000000000000000550000000000000000000000000000000000000000
#061321:14240000
#0613a0:00142400
#0623a0:14240000
#062321:00142400
#0623a0:00001424
#062321:00000014
#063321:24
#0633a0:14
#063380:0024000000000000
#063341:0014000000000000
#063321:00240000
#0633a0:00140000
#063380:0000002400000000
#063341:0000001400000000
#063321:0024
#066321:0013
#067321:23
#0673b0:1323
#067351:0016
#068321:23
#076351:00001323
#076381:0000000000000013
#077381:0023000000000000
#079321:1c3c002c
#079331:0000000000000000003a0000000000000000000000003a3a0000000000000000
#079341:0000000000000000000038380000000000000000383800000000000000000000
#079351:0000000000000000000000003636000000003636000000000000000000000000
#079361:0000000000000000000000000000343400340000000000000000000000000000
#079371:0032
#0803b1:13330000
#080371:0033002300000000
#080320:0000001300000000
#080360:0000000000230000
#080360:0000000000000013
#081360:23
#0813b1:13
#081381:0023000000000000
#081350:0013000000000000
#081320:00230000
#081371:0000130000230000
#0813b1:00000000000000530000000000000000
#081321:00000013
#081341:000000000000000000000033
#082351:23
#0823b0:13
#0823a0:003300000000000000000000
#082390:003300000000
#082380:00230000
#082351:00130000
#082341:003300
#082331:000000000033000000000000
#082321:0023
#082370:00001323
#082390:00000000000000000033003300000000
#0823b0:0000000000330000
#082321:00000013
#082341:00000000000000000000000000330033
#082361:0000000000000033
#083321:23
#083370:13
#0833b0:00230000
#083380:0000001323000000
#083321:0013
#083331:00000000000000000033000000000000
#083341:0000000000330000
#083351:00000000000000000000003323000000
#083380:00000013
#083390:00000000000000000000000000330000
#0833a0:0000000000000033
#0833b0:00000000000000000000000000000033
#0843b0:23
#0843b0:00000000000000000000001300002300
#085320:0013
#085340:00000000000000000033000000000000
#085360:0000000000230000
#0853b1:0000000000130000
#085391:00000000000000000000003300000000
#085371:00000023
#085320:00000013
#085340:00000000000000000000000000330000
#085360:0000000000000023
#087320:13000000000000000033333333333333330000000000000000333333333333332300000000000000000000000000000000000000000000000000000000000000
#087360:0034003400000000
#087320:00000000000000000000000000000014
#088360:0000000000540000000000000000000000000000000000000000000000000000
#088320:0000002400000000
#0883a0:00001424
#088370:0000000000540000
#089320:00130000
#089340:0000003300000000
#089360:0023
#089370:00000013
#0903b0:23
#091320:18000022
#093360:12
#093340:0032000000000000
#093320:00000000320000220000000000000000
#093381:00000000120000220000000000000000
#095381:12
#0953a1:0032000000000000
#0953c1:00000000320000220000000000000000
#095360:00000000120000220000000000000000
#096350:13
#096320:0023000000000000
#0963b1:13332300
#096381:0033003300000000
#096350:00130000
#096320:0000002300000000
#096350:00000000000000001300002300000000
#096320:0000000000000000000000000000000000000053000000000000000000000000
#096381:00000000000000000000001300002300
#097381:00000000130000230000000000000000
#0973b1:0000000000000000000000530000000000000000000000000000000000000000
#097350:00000000000000130000230000000000
#098350:13
#098320:0023000000000000
#0983b1:13332300
#098381:0033003300000000
#098350:00130000
#098320:0000002300000000
#098350:00000000000000001300002300000000
#098320:0000000000000000000000000000000000000053000000000000000000000000
#0993a0:00000000140000240000000000000000
#099370:0000000000000000000000540000000000000000000000000000000000000000
#100380:13
#1003b0:0023000000000000
#100321:13332300
#100351:0033003300000000
#100380:00130000
#1003b0:0000002300000000
#100380:00000000000000001300002300000000
#1003b0:0000000000000000000000000000000000000053000000000000000000000000
#100351:00000000000000000000001300002300
#101351:00000000130000230000000000000000
#101321:0000000000000000000000530000000000000000000000000000000000000000
#101380:00000000000000130000230000000000
#102380:13
#1023b0:0023000000000000
#102321:13332300
#102351:0033003300000000
#102380:00130000
#1023b0:0000002300000000
#102380:00000000000000001300002300000000
#1023b0:0000000000000000000000000000000000000053000000000000000000000000
#103320:00000000140000240000000000000000
#103350:0000000000000000000000540000000000000000000000000000000000000000
#103320:00000000000000001433000000000000
#103330:00000000000000000000003300000000
#103340:00000000000000000000000000330000
#103350:00000000000000000000000000000033
#104360:24
#106320:14
#106360:0000005400000000
#106340:00000000000000000000005400000000
#107320:54
#108320:0000002200000000
