This file was generated by Ched 2.7.0.0.
#TITLE ""
#ARTIST ""
#DESIGNER ""
#DIFFICULTY 0
#PLAYLEVEL
#SONGID ""
#WAVE ""
#WAVEOFFSET 0
#JACKET ""
#REQUEST "ticks_per_beat 480"
#00002: 4
#BPM01: 150
#BPM02: 170
#00008: 01
#06408: 01
#05608: 02
#06608: 02
#TIL00: ""
#VOLUME: ""
#HISPEED 00
#MEASUREHS 00
#0601f:11
#06012:0014000000000014
#06018:00140014
#06014:0000001400140000
#0601a:2414
#02912:2400001400000000
#0291a:00140000
#02916:0014000000000000
#02915:00000013
#0291b:0000000000130000
#02918:0000000000000013
#02812:0000001400000000
#0281b:0000000000000013
#02815:00000013
#02818:0000000000130000
#0281a:14
#0251a:2400001400000000
#02512:0000140000130000
#02516:0014000000000000
#02518:00000013
#02515:0000000000000013
#0241a:0000001400000000
#02412:1400000000000013
#02418:00000013
#02415:0000000000130000
#01512:14
#01517:0000000000000000001434003400000000000000000000000000000000000000
#0151a:0014000000000000
#01519:00000034000000000000000000000000
#01518:00340000
#0101b:13130000
#01018:00001313
#01015:0000000000130000
#01012:0013001300000000
#05413:0012
#05116:00120000
#05118:0012
#05114:12
#0501b:0012
#05318:12121200
#05214:00000012
#05216:0012
#05218:00120000
#0521a:12
#01112:0000000000190000
#01115:0019000013000000
#01118:13
#1051a:0000000000140000
#10512:2314
#10515:00000033000000000000000013000000
#10518:00000000000023000000000000130000
#10514:0033000000000000
#10513:00330000000000000000000000000000
#1041a:0000000033000014
#10412:23000014
#10418:0000002300000000
#10413:00330000000000000000000000000000
#10414:0033000000000000
#10415:00000033000000000000000000000000
#10419:00000000000000330000000000000000
#1041b:00000000000000000033000000000000
#10614:00000000000000000000001400000000
#10616:0000001500000000
#10612:16
#1021b:00000000000000000000000000001333
#10215:0013
#10218:0013001300000000
#10212:13130000
#10318:00130000000000000000000000000000
#1031b:33003333130000000000000000000000
#10112:00130000
#1011b:00000013
#10115:00000013
#10018:0013
#10015:0013001300000000
#1001b:13130000
#09812:00000000000000000000000000001333
#09818:0013
#09815:0013001300000000
#0981b:13130000
#09915:00130000000000000000000000000000
#09912:33003333130000000000000000000000
#0971b:00130000
#09712:00000013
#09718:00000013
#09615:0013
#09618:0013001300000000
#09612:13130000
#09114:0000001600000000
#09118:26
#08912:13
#0891b:0013
#08915:00330000
#08913:003300000000000000000000
#08914:003300000000
#0891a:000000000000003300000000
#08919:000033
#08918:00000033
#0881b:00000013
#08818:0013
#08816:0013000000000000
#0881a:000000000033
#08819:000000000000000000000033
#08718:00130013
#08715:0013000000130000
#0871b:1313
#08712:00000000000013000000000000002333
#08615:0000001300000013
#08618:00130013
#08612:0013000000130000
#0861b:1313
#08015:00130013
#08018:0013000000000013
#08012:13
#0791a:0000321232000000
#07918:26
#07919:0034000000340000
#07712:14000024
#07718:0000000000140000
#07714:0014
#0771a:00240000
#07614:0000000000140000
#07618:0014
#0761a:24000024
#07612:00240000
#0731b:00001313
#07315:0000000000130013
#07312:0000002400000000
#07318:00240000
#07314:0024000000000000
#0731a:24
#07218:00131313
#07212:2300001300130013
#07415:0000001300000013
#07412:0013000000130000
#07418:2323
#0741b:00230023
#07118:0024000000130013
#07115:00001313
#0711a:0000002400000000
#07112:00240000
#07114:24
#06912:24001313
#06918:0024000000130013
#0691a:0000002400000000
#06914:00240000
#06815:00131313
#0681b:2300001300130013
#0681f:21
#06810:0041
#06718:0013
#0651a:0000000000140000
#06512:2314
#06518:0000002300000000
#06514:0033000000002400
#06515:00000033000000000000000000000000
#06513:00330000000000000000000000000000
#0641a:0000000033000014
#06412:23000014
#06418:0000002300000000
#06413:00330000000000000000000000000000
#06414:0033000000000000
#06415:00000033000000000000000000000000
#06419:00000000000000330000000000000000
#0641b:00000000000000000033000000000000
#0621a:0014000000000014
#06214:00140014
#06218:0000001400140000
#06212:2414
#0581b:1300000000000013
#05812:00000013
#05818:0000000000130000
#05815:0013
#05819:00000033000000000000000000000000
#0461b:00000000000000000000000000001333
#04615:0013
#04618:0013001300000000
#04612:13130000
#04718:00130000000000000000000000000000
#0471b:33003333130000000000000000000000
#04512:00130000
#0451b:00000013
#04515:00000013
#04418:0013
#04415:0013001300000000
#0441b:13130000
#04212:00000000000000000000000000001333
#04218:0013
#04215:0013001300000000
#0421b:13130000
#04315:00130000000000000000000000000000
#04312:33003333130000000000000000000000
#0411b:00130000
#04112:00000013
#04118:00000013
#04015:0013
#04018:0013001300000000
#04012:13130000
#03412:00130014
#0341a:0014
#0341b:13
#03318:00130013
#03315:0000001300130000
#0331b:0013
#03312:0000000000000013
#03012:1414000000000000
#03015:0000001300001300
#03018:0000130000000013
#0301a:0000000014140000
#02312:0000000000140000
#0231a:00330000000000001400000000000000
#02315:0000002300000000
#0231b:23
#02318:00000033000000000000000024000000
#02319:0033000000000000
#0201b:0000000000000013
#02015:13000013
#02018:0013000000130000
#02012:0013
#01918:00000013330000000000000000000000
#0191b:13
#01812:1300000000000013
#01818:00000013
#01815:0000330000130000
#0181b:0013
#01810:41
#01616:00000014000000000000000000000000
#01612:1400000000000013
#0161b:0013
#01618:00000013
#01615:0000000000130000
#01219:0015
#01212:0000001400000015
#01218:00140015
#01215:0013000000000000
#0121b:13
#01213:0000000000150000
#00916:00000014
#0091b:00130000000000230000000000000000
#00918:33003333130000000000000000000000
#00818:00000000000000000000000000001333
#00812:13131300
#00817:0013001300000000
#0061b:13131300
#00616:0013001300000000
#0071b:00000013
#00715:00130013
#00415:00000000000000000000000000001333
#0041b:13131300
#00416:0013001300000000
#00512:00130000000000000000000013000000
#00515:33003333130000000000000000000000
#00518:00000013
#00212:13131300
#00217:0013001300000000
#0811b:0013000000000000
#08112:13
#08115:00130000
#07018:0000001300000013
#0701b:0013000000130000
#07015:2323
#07012:00230023
#0261a:1414000000000000
#02618:0000001300001300
#02615:0000130000000013
#02612:0000000014140000
#02212:00000000000000000033000000001400
#0221a:00330000000000000000000014000000
#02215:0000002300000000
#0221b:23
#02219:0033000000000000
#02218:00000033000000000000000000000000
#02214:00000000000000330000000000000000
#02213:0033
#09516:0012000000000000
#09514:12
#09318:0012000000000000
#0931a:12
#08512:0000000000130013
#08518:00001313
#08515:0013001300000000
#0851b:13130000
#08412:0000001300000013
#0841b:00130013
#08415:0013000000130000
#08418:1313
#0831b:00130013
#08318:0013
#08315:00230023
#08312:0023
#0611a:14000014
#06112:0014
#06116:00340000
#06312:14
#0631a:00000014
#06315:0000003400000000
#06314:00340000
#06313:0034000000000000
#05715:0000000000003313330000000000000000000000000000000000000013000000
#05718:00000013
#05712:13
#05713:00330000000033000000000000000000
#05714:00003300003300000000000000000000
#05915:13130000
#05918:0013000000000000
#05919:00000000000000000000000000000000000000000000000000000000000000000015000000000000000000150000000000000000000000000000000000000000
#05917:0000000000000000000000000000250000000015000000000000000000000000
#05913:00000000000000240000000000000000
#03918:0012000000000000
#0391a:12
#03117:00000000000000000014000000000000
#03114:00240000
#03118:0024000000000000
#03112:24
#0311a:0000002400000000
#02718:0000240000130000
#02715:00000013
#02712:0000002400000013
#02714:0024000000000000
#0271a:24
#02115:00003313330000000000000000000000
#02112:13
#01718:13
#01715:0013000000000000
#0171b:00130000
#0171a:00000000000000240000000000000000
#01712:00000000000000240000000000000000
#00115:0000001300000000
#00118:00000000130000000033333323000000
#00112:0013000000000000
#0011b:13
#00018:00000014
#00014:0000000000000014
#00012:0000002300000000
#0001b:23
#05514:0012
#0551a:0012
#05516:00120000
#05518:12
#03716:0012000000000000
#03714:12
#00312:00000013
#00318:00130013
#03215:0013001300000000
#03218:00130000
#04915:0022
#04918:00220000
#0491b:22
#09018:2325
#09012:00000026
#09014:00240000
#07812:00000026
#07818:2325
#07814:00240000
#0751a:00240000
#07514:0024000000000000
#07518:24
#07512:0000002400000000
#01315:0000002400000024
#01317:0024000000240000
#04815:2222
#04819:0022
#0561a:0000000000240024
#05614:00002424
#05618:0024002400000000
#05612:24240000
#05610:41
#08219:003400000034000000000000
#08218:003434000000
#08210:41
#09210:41
#03610:41
#10358:00230000000000130000000000000000
#1035b:00630000
#09955:00230000000000130000000000000000
#09952:00530000
#07958:56000016
#0795a:0000002200000000
#04758:00230000000000130000000000000000
#0475b:00630000
#04355:00230000000000130000000000000000
#04352:00530000
#03555:14
#0155a:00005400000000140000000000000000
#01557:0000000000000000002400000000000000000000000000000000000000000000
#00552:00230000000000130000000000000000
#00555:00630000
#09558:00000000000000120000000000000000
#09356:00000000000000120000000000000000
#05752:53000000000000130000000000000000
#05755:0000000000000023000000000000000000000000000000000000000000000000
#03956:00000000000000120000000000000000
#02152:53000013
#02155:00000023000000000000000000000000
#03758:00000000000000120000000000000000
#08752:0000000000000053
#0095b:00230000000000130000000000000000
#00958:00530000
#00158:00000013
#09158:56
#09154:0000002600000000
#09058:1315
#09052:00000016
#09054:00140000
#07852:00000016
#07858:1315
#07854:00140000
#0765a:14
#06554:00000014
#06252:14
#0605a:14
#02358:00000014
#01355:0000001400000014
#01357:0014000000140000
#07552:0000006400000000
#07252:13
#0685b:13
#0315a:0000005400000000
#03157:00000000000000000024000000000000
#02752:0000001400000000
#05957:0000000000000000000000000000550000000055000000000000000000000000
#05959:00000000000000000000000000000000000000000000000000000000000000000025000000000000000000250000000000000000000000000000000000000000
#02952:0000001400000000
#02852:0000001400000000
#0285a:54
#0255a:0000001400000000
#0245a:0000001400000000
#02452:64
#05453:0052
#0505b:0062
#01152:0000000000290000
#01155:0029000063000000
#01158:53
#10654:00000000000000000000006400000000
#10656:0000002500000000
#10652:56
#1025b:0000000000000063
#10255:0053
#10152:00530000
#10058:0063
#09852:0000000000000053
#09858:0063
#0975b:00630000
#09655:0053
#08952:63
#0895b:0053
#0885b:00000023
#08858:0053
#08856:0023000000000000
#06758:0053
#0585b:63
#0465b:0000000000000063
#04655:0053
#04552:00530000
#04458:0063
#04252:0000000000000053
#04258:0063
#0415b:00630000
#04055:0053
#03452:00630064
#0345a:0054
#0345b:63
#01958:00000023000000000000000000000000
#0195b:63
#01852:53
#01656:00000064000000000000000000000000
#01652:64
#00858:0000000000000053
#00852:0053
#0065b:0063
#00755:00630000
#00455:0000000000000063
#0045b:0063
#00252:0053
#08155:00630000
#0615a:54
#06352:64
#02058:0063000000000000
#00358:00530000
#0003b0:13333333230000000000000000000000
#000320:00000000000013333333230000000000
#0013b0:0013
#001380:00000000000000000033333323000000
#002320:0013
#002350:00000000000000000000002300000000
#003380:13333333330000000000000000000000
#0033b0:00000000000000230000000000000000
#0043b0:0013
#004380:00000000000000000000002300000000
#004350:00000000000000000000000000001333
#005350:33003333330000000000000000000000
#005320:00330000000000230000000000000000
#0063b0:0013
#006380:00000000000000000000002300000000
#007350:13333333330000000000000000000000
#007320:00000000000000230000000000000000
#008320:0013
#008350:00000000000000000000002300000000
#008380:00000000000000000000000000001333
#009380:33003333330000000000000000000000
#0093b0:00330000000000230000000000000000
#011380:13230000
#011350:0039000000000000
#011350:00001323
#011320:0000000000390000
#0133a0:14
#013370:0024000000000000
#013320:00140000
#013350:0000002400000000
#0133a0:0014
#013370:0000000000240000
#013320:00000014
#013350:0000000000000024
#0143a0:1434000034340000
#014360:0000343400003424
#0153a0:00001400000000240000000000000000
#015390:00000034000000000000000000000000
#015380:00340000
#015370:0000000000000000005434003400000000000000000000000000000000000000
#015320:00000000000000000000000000140034
#016320:3400002400000000
#016360:00000034000000000000000000000000
#017320:00000000000000140000000000000000
#017330:000000000000000000000000000000000000000000000000000000000000000000000000000000000000000000000000000000000000000000000000000000000000000000000000000000000000000000000000000000000000000000000000000000000000000000000000000000000000000000000000000000000000000000000000000000000000000000000000000000000000000000000000000000000000000000000000000000000000000000000000000000000000000000000000000000000000000000000000000000000000000000000000000000000000000000000000000000000000000000000000000000000000000000000000000000000000000000000000000000000000000000000000000000000000000000000000000000000000000000000000000000000000000000000000000000000000000000000000000000000000000000000000000000000000000000000000000000000000000000000000000000000000000000000000000000000000000000000000000000000000000000000000000000000000000000000000000000000000000000000000000000000000000000000000000000000000000000000000000000000000000000000000000000000000000000000000000000000000000000000000000000000000000000000000000000000000000000000000000000000000000000000000000000000000000000000000000000000000000000000000000000000000000000000000000000000000000000000000000000000000000000000000000000000000000000000000000000000000000000000000000000000000000000000000000000000000000000000000000000000000000000000000000000000000000000000000000000000000000000000000000000000000000000000000000000000000000000000000000000000000000000000000000000000000000000000000000000000000000000000000000000000000000000000000000000000000000000000000000000000000000000000000000000000000000000000000000000000000000000000000000000000000000000000000000000000000000000000000000000000000000000000000000000000000000000000000000000000000000000000000000000000000000000000000000000000000000000000000000000000000000000000000000000000000000000000000000000000000000000000000000000000000000000000000000000000000000000000000000000000000000000000000000000000000000000000000000000000000000000000000000000000000000000000000000000000000000000000000000000000000000000000000000000000000000000000000000000000000000000000000000000000000000000000000000000000000000000000000000000000000000000000000000000000000000000000000000000000000000000000000545500000000000000000000000000000000000000000000000000000000000000000000000000000000000000000000000000000000000000000000000000000000000000000000000000000000000000000000000000000000000000000000000000000000000000000000000000000000000000000000000000000000000000000000000000000000000000000000000000000000000000000000000000000000000000000000000000000000000000000000000000000000000000000000000000000000000000000000000000000000000000000000000000000000000000000000000000000000000000000000000000000000000000000000000000000000000000000000000000000000000000000000000000000000000000000000000000000000000000000000000000000000000000000000000000000000000000000000000000000000000000000000000000000000000000000000000000000000000000000000000000000000000000000000000000000000000000000000000000000000000000000000000000000000000000000000000000000000000000000000000000000000000000000000000000000000000000000000000000000000000000000000000000000000000000000000000000000000000000000000000000000000000000000000000000000000000000000000000000000000000000000000000000000000000000000000000000000000000000000000000000000000000000000000000000000000000000000000000000000000000000000000000000000000000000000000000000000000000000000000000000000000000000000000000000000000000000000000000000000000000000000000000000000000000000000000000000000000000000000000000000000000000000000000000000000000000000000000000000000000000000000000000000000000000000000000000000000000000000000000000000000000000000000000000000000000000000000000000000000000000000000000000000000000000000000000000000000000000000000000000000000000000000000000000000000000000000000000000000000000000000000000000000000000000000000000000000000000000000000000
#017350:00000023
#0173a1:00000000000000140000000000000000
#017391:00000000000000000054000000000000
#017381:000000000000000000000000000000000000000000000000000000000000000000000000000000000000000000000000000000000000000000000000000000000000000000000000000000000000000000000000000000000000000000000000000000000000000000000000000000000000000000000000000000000000000000000000000000000000000000000000000000000000000000000000000000000000000000000000000000000000000000000000000000000000000000000000000000000000000000000000000000000000000000000000000000000000000000000000000000000000000000000000000000000000000000000000000000000000000000000000000000000000000000000000000000000000000000000000000000000000000000000000000000000000000000000000000000000000000000000000000000000000000000000000000000000000000000000000000000000000000000000000000000000000000000000000000000000000000000000000000000000000000000000000000000000000000000000000000000000000000000000000000000000000000000000000000000000000000000000000000000000000000000000000000000000000000000000000000000000000000000000000000000000000000000000000000000000000000000000000000000000000000000000000000000000000000000000000000000000000000000000000000000000000000000000000000000000000000000000000000000000000000000000000000000000000000000000000000000000000000000000000000000000000000000000000000000000000000000000000000000000000000000000000000000000000000000000000000000000000000000000000000000000000000000000000000000000000000000000000000000000000000000000000000000000000000000000000000000000000000000000000000000000000000000000000000000000000000000000000000000000000000000000000000000000000000000000000000000000000000000000000000000000000000000000000000000000000000000000000000000000000000000000000000000000000000000000000000000000000000000000000000000000000000000000000000000000000000000000000000000000000000000000000000000000000000000000000000000000000000000000000000000000000000000000000000000000000000000000000000000000000000000000000000000000000000000000000000000000000000000000000000000000000000000000000000000000000000000000000000000000000000000000000000000000000000000000000000000000000000000000000000000000000000000000000000000000000000000000000000000000000000000000000000000000000000000000000000000000000000000000000005500000000000000000000000000000000000000000000000000000000000000000000000000000000000000000000000000000000000000000000000000000000000000000000000000000000000000000000000000000000000000000000000000000000000000000000000000000000000000000000000000000000000000000000000000000000000000000000000000000000000000000000000000000000000000000000000000000000000000000000000000000000000000000000000000000000000000000000000000000000000000000000000000000000000000000000000000000000000000000000000000000000000000000000000000000000000000000000000000000000000000000000000000000000000000000000000000000000000000000000000000000000000000000000000000000000000000000000000000000000000000000000000000000000000000000000000000000000000000000000230000000000000000000000000000000000000000000000000000000000000000000000000000000000000000000000000000000000000000000000000000000000000000000000000000000000000000000000000000000000000000000000000000000000000000000000000000000000000000000000000000000000000000000000000000000000000000000000000000000000000000000000000000000000000000000000000000000000000000000000000000000000000000000000000000000000000000000000000000000000000000000000000000000000000000000000000000000000000000000000000000000000000000000000000000000000000000000000000000000000000000000000000000000000000000000000000000000000000000000000000000000000000000000000000000000000000000000000000000000000000000000000000000000000000000000000000000000000000000000000000000000000000000000000000000000000000000000000000000000000000000000000000000000000000000000000000000000000000000000000000000000000000000000000000000000000000000000000000000000000000000000000000000000000000000000000000000000000000000000000
#018321:13
#018351:0000332300000000
#0193b1:1300003300002300
#019381:00000053330000000000000000000000
#020381:0013000000000000
#0203b1:0000002300000000
#021321:1300003300002300
#021351:00003353330000000000000000000000
#0223b1:13
#0223a1:00330000000000000000000000000000
#022391:0033000000000000
#022381:00000033230000000000000000000000
#022351:0000001300000000
#022341:00000000000000330000000000000000
#022331:0033
#022321:00000000000000000033230000000000
#0233b1:13
#0233a1:00330000000000000000000000000000
#023391:0033000000000000
#023381:00000033230000000000000000000000
#024321:14
#024351:00240000
#0283a1:14
#028371:00240000
#0313a1:0000001400002400
#031371:00000000000000000054000000000000
#032381:0013
#0323b1:00000023
#032351:0000000000000013
#033321:0023000000000000
#0343b1:13
#034381:00230000
#034320:00130000
#034350:0023
#0343a1:0014
#034371:00000024
#034320:00000014
#035350:24
#036380:12003200323200320032003232002200
#037380:00000000120000220000000000000000
#038360:12003200323200320032003232002200
#039360:00000000120000220000000000000000
#040350:0013
#040320:00000000000000000000002300000000
#0413b0:13333333330000000000000000000000
#041380:00000000000000230000000000000000
#042380:0013
#0423b0:00000000000000000000002300000000
#042320:00000000000000000000000000001333
#043320:33003333330000000000000000000000
#043350:00330000000000230000000000000000
#044380:0013
#0443b0:00000000000000000000002300000000
#045320:13333333330000000000000000000000
#045350:00000000000000230000000000000000
#046350:0013
#046320:00000000000000000000002300000000
#0463b0:00000000000000000000000000001333
#0473b0:33003333330000000000000000000000
#047380:00330000000000230000000000000000
#0503b0:0012323232000000
#050380:00000022
#054330:0012323232000000
#054360:00000022
#057320:13000000000000230000000000000000
#057330:00330000000033000000000000000000
#057340:00003300003300000000000000000000
#057350:0000000000003353330000000000000000000000000000000000000000000000
#0583b0:13
#058390:00000033000000000000000000000000
#058380:0000002300000000
#059370:0000000000000000000000000000150000000055000000002500000000000000
#059390:00000000000000000000000000000000000000000000000000000000000000000055000000000000000000550000000000000000000000000000000000000000
#059331:00000000000000140000000024000000
#0613a1:14
#061361:0000342400000000
#063321:14
#063331:0034000000000000
#063341:00340000
#063351:0000003400000000
#063361:0024
#064321:13
#064331:00330000000000000000000000000000
#064341:0033000000000000
#064351:00000033230000000000000000000000
#064381:0000001300000000
#064391:00000000000000330000000000000000
#0643a1:0033
#0643b1:00000000000000000033230000000000
#065321:13
#065331:00330000000000000000000000000000
#065341:0033000000000000
#065351:00000033230000000000000000000000
#066381:0013
#067381:3333
#0683b1:23
#075321:0000001400000000
#075351:00000024
#079381:16000026
#079391:0034000000340000
#0793a1:0000323232000000
#0803b1:0000001300230000
#081351:00130000
#081321:00000023
#0823a1:1424
#082391:003400000034000000000000
#082381:003434000000
#082361:00340000
#082320:0014
#082330:00000000000000000034000000000034
#082340:0000000000340034
#082350:00000000000000000000003400340000
#082360:00000034
#083320:24
#087320:00000000000000000000000000001333
#088360:0053000000000000
#088320:0000002300000000
#088380:0013
#0883b0:00000033
#0883a0:000000000033
#088390:000000000000000000000033
#089380:23
#089321:13
#089331:003300000000000000000000
#089341:003300000000
#089351:00332300
#0893b0:0013
#0893a0:000000000000003300000000
#089390:000033
#089380:00000033
#090380:23
#091380:16000026
#091340:0000005600000000
#092360:12003200323200320032003232002200
#093360:00000000120000220000000000000000
#094380:12003200323200320032003232002200
#095380:00000000120000220000000000000000
#096350:0013
#096320:00000000000000000000002300000000
#0973b0:13333333330000000000000000000000
#097380:00000000000000230000000000000000
#098380:0013
#0983b0:00000000000000000000002300000000
#098320:00000000000000000000000000001333
#099320:33003333330000000000000000000000
#099350:00330000000000230000000000000000
#100380:0013
#1003b0:00000000000000000000002300000000
#101320:13333333330000000000000000000000
#101350:00000000000000230000000000000000
#102350:0013
#102320:00000000000000000000002300000000
#1023b0:00000000000000000000000000001333
#1033b0:33003333330000000000000000000000
#103380:00330000000000230000000000000000
#104320:13
#104330:00330000000000000000000000000000
#104340:0033000000000000
#104350:00000033230000000000000000000000
#104380:0000001300000000
#104390:00000000000000330000000000000000
#1043a0:0033
#1043b0:00000000000000000033230000000000
#105320:13
#105330:00330000000000000000000000000000
#105340:0033000000000000
#105350:00000033230000000000000000000000
#106320:16
#106360:0000005500000000
#106340:00000000000000000000005400000000
#107320:53
#108320:0000002200000000
