This file was generated by Ched 2.7.0.0.
#TITLE ""
#ARTIST ""
#DESIGNER ""
#DIFFICULTY 0
#PLAYLEVEL
#SONGID ""
#WAVE ""
#WAVEOFFSET 0
#JACKET ""
#REQUEST "ticks_per_beat 480"
#00002: 4
#BPM01: 150
#BPM02: 170
#00008: 01
#06408: 01
#05608: 02
#06608: 02
#TIL00: "55'960:1, 66'960:0.7, 67'0:0.6, 67'960:0.5, 68'0:1, 47'840:0.5, 66'1440:0.65, 67'480:0.55"
#VOLUME: ""
#HISPEED 00
#MEASUREHS 00
#00012:2200000000000016
#00018:00000016
#0001c:0000002200000000
#00015:00000000000000242424240000000000
#00017:00242424240000000000000000000000
#00116:00000000000000000013000024000000
#00118:0000130000140000
#00114:00000000000000000000001300000000
#0011b:1313000000000000
#00117:00140000000000000000000000000000
#00115:00000013000014000000000000000000
#0011a:0014
#00112:00000000001300130000000000000000
#01512:00000000000000001300000000000000000000001300000000000000000000000000000000000000000000000000000000000000001300000000000000000000
#01518:00000013000000220000000000001300
#01515:000000000000000000000000000000000000000000000000000000000000000000000000000000000000000000000000000000000000000000000000000000000000000000000000000000000000000000000000000000000000000000000000000000000000000000000000000000000000000000000000000000000000000000000000000000000000000000000000000000000000000000000000000000000000000000000000000000000000000000000000000000000000000000000000000000000000000000000000000000000000000000000000000000000000000000000000000000000000000000000000000000000000000000000000000000000000000000000000000000000000000000000000000000000000000000000000000000000000000000000000000000000000000000000000000000000000000000000000000000000000000000000000000000000000000000000000000000000000000000000000000000000000000000000000000000000000000000000000000000000000000000000000000000000000000000000000000000000000000000000000000000000000000000000000000000000000000000000000000000000000000000000000000000000000000000000000000000000000000000000000130000000000000000000000000000000000000000000000000000000000000000000000000000000000000000000000000000000000000000000000000000000000000000000000000000000000000000000000000000000000000000000000000000000000000000000000000000000000000000000000000000000000000000000000000000000000000000000000000000000000000000000000000000000000000000000000000000000000000000000000000000000000000000000000000000000000000000000000000000000000000000000000000000000000000000000000000000000000000000000000000000000000000000000000000000000000000000000000000000000000000000000000000000000000000000000000000000000000000000000000000000000000000000000000000000000000000000000000000000000000000000000000000000000000000000000000000000000000000000000000000000000000000000000000000000000000000000000000000000000000161600000000000000000000000000000000000000000000000000000000000000000000000000000000000000000000000000000000000000000000161600000000000000000000000000000000000000000000000000000000000000000000000000000000000000000000000000000000000000000000161600000000000000000000000000000000000000000000000000000000000000000000000000000000000000000000000000000000000000000000161600000000000000000000000000000000000000000000000000000000000000000000000000000000000000000000000000000000000000000000161600000000000000000000000000000000000000000000000000000000000000000000000000000000000000000000000000000000000000000000161600000000000000000000000000000000000000000000000000000000000000000000000000000000000000000000000000000000000000000000000000000000000000000000000000000000000000000000000000000000000000000000000000000000000000000000000000000000000000000000000000000000000000000000000000000000000000000000000000000000000000000000000000000000000000000000000000000000000000000000000000000000000000000000000000000000000000000000000000000000000000000000000000000000000000000000000000000000000000000000000000000000000000000000000000000000000000000000000000000000000000000000000000000000000000000000000000000000000000000000000000000000000000000000000000000000000000000000000000000000000000000000000000000000000000000000000000000000000000000000000000000000000000000000000000000000000000000000000000000000000000000000000000000000000000000000000000000000000000000000000000000000000000000000000000000000000000000000000000000000000000000000000000000000000000000000000000000000000000000000000000000000000000000000000000000000000000000000000000000000000000000000000000000000000000000000000000000000000000000000000000000000000000000000000000000000000000000000000000000000000000000000000000000000000000000000000000000000000000000000000000000000000000000000000000000000000000000000000000000000130000000000000000000000000000000000000000000000000000000000000000000000000000000000000000000000000000000000000000000000000000000000000000000000000000000000000000000000000000000000000000000000000000000000000000000000000000000000000000000000
#0151b:00000000001300000000000013000000
#01516:000000000000000000000000000000000000000000000000000000000000000000000000000000000000000000000000000000000000000000000000000000000000000000000000000000000000000000000000000000000000000000000000000000000000000000000000000000000000000000000000000000000000000000000000000000000000000000000000000000000000000000000000000000000000000000000000000000000000000000000000000000000000000000000000000000000000000000000000000000000000000000000000000000000000000000000000000000000000000000000000000000000000000000000000000000000000000000000000000000000000000000000000000000000000000000000000000000000000000000000000000000000000000000000000000000000000000000000000000000000000000000000000000000000000000000000000000000000000000000000000000000000000000000000000000000000000000000000000000000000000000000000000000000000000000000000000000000000000000000000000000000000000000000000000000000000000000000000000000000000000000000000000000000000000000000000000000000000000000000000000000000000000000000000000000000000000000000000000000000000000000000000000000000000000000000000000000000000000000000000000000000000000000000000000000000000000000000000000000000000000000000000000000000000000000000000000000000000000000000000000000000000000000000000000000000000000000000000000000000000000000000000000000000000000000000000000000000000000000000000000000000000000000000000000000000000000000000000000000000000000000000000000000000000000000000000000000000000000000000000000000000000000000000000000000000000000000000000000000000000000000000000000000000000000000000000000000000000000000000000000000000000000000000000000000000000000000000000000000000000000000000000000000000000000000000000000000000000000000000000000221414000000000000000000000000000000000000000000000000000000000000000000000000000000000000000000000000000000000000000000141400000000000000000000000000000000000000000000000000000000000000000000000000000000000000000000000000000000000000000000141400000000000000000000000000000000000000000000000000000000000000000000000000000000000000000000000000000000000000000000141400000000000000000000000000000000000000000000000000000000000000000000000000000000000000000000000000000000000000000000141400000000000000000000000000000000000000000000000000000000000000000000000000000000000000000000000000000000000000000000141400000000000000000000000000000000000000000000000000000000000000000000000000000000000000000000000000000000000000000000000000000000000000000000000000000000000000000000000000000000000000000000000000000000000000000000000000000000000000000000000000000000000000000000000000000000000000000000000000000000000000000000000000000000000000000000000000000000000000000000000000000000000000000000000000000000000000000000000000000000000000000000000000000000000000000000000000000000000000000000000000000000000000000000000000000000000000000000000000000000000000000000000000000000000000000000000000000000000000000000000000000000000000000000000000000000000000000000000000000000000000000000000000000000000000000000000000000000000000000000000000000000000000000000000000000000000000000000000000000000000000000000000000000000000000000000000000000000000000000000000000000000000000000000000000000000000000000000000000000000000000000000000000000000000000000000000000000000000000000000000000000000000000000000000000000000000000000000000000000000000000000000000000000000000000000000000000000000000000000000000000000000000000000000000000000000000000000000000000000000000000000000000000000000000000000000000000000000000000000000000000000000000000000000000000000000000000000000000000000000000000000000000000000000000000000000000000000000000000000000000000000000000000000000000000000000000000000000000000000000000000000000000000000000000000000000000000000000000000000000000000000000000000000000000000000000000000000000000000000000000000000000000000000000000000000000000000000000000000000000
#01612:0000001313000013
#01619:0000000000130000
#01615:00000013000000000000001300000000
#01617:00000013
#0161b:0013
#01618:15
#00917:0000000012000000000000140000000000000000000000001100000000000000
#00919:00120000000000000000000000000000
#00918:0000001400000000000000000000000000000000000000000000000000000000
#0091b:00000012000000000000000000000000
#0091a:0000000000000014000000000000240000000000000000000000000000000000
#00915:12
#00914:0014000000000000000000000000000000000000000000000000000000000000
#00916:0000000000140000000000000000000000000000000000000000000000000000
#00912:00000000140000240000000000000000
#0101b:13130000
#01012:130000001300000000000000000000001200000000000000000000000000001a
#0101c:00000012
#0101a:0000000000120000
#01018:00000000001300001200000000000000
#01014:0000000000000000000000000000000000000000120000000000000000150000
#01016:00000012
#01015:0000001300000012
#01017:0013000000000000
#01218:2600000000000013
#01216:00120000000000000014001400000013
#01219:00000000000013130000000000000000
#01212:0000000026141400
#0121c:00001212000000000000000000000000
#01215:00260000
#0241b:0013000000130000
#02419:00000013
#02412:23131313
#02417:1300130013000013
#02416:0013001300000000
#02512:0013000013000013
#02517:0013001300000000
#0251b:2300130000131300
#02516:1300130000141400
#0261b:1300000013000013
#02614:0013000000130000
#02617:00130013
#02619:0000001300000000
#02612:00130013
#02616:1313
#02716:1314
#02718:00001300250000000000000000130000
#02715:0000130000000013
#02717:0000001300000000
#0271b:0000000000131300
#02712:0000002500131300
#02719:25
#02713:0025000000000000
#03314:0000000000000014
#03312:0000001400000000
#03318:0000000000140000
#03317:14
#0331a:0014000014000000
#03316:00140014
#03412:14130015
#03418:0000000000000016
#0341a:0014
#03413:0000000000150000
#03417:1200001400000000
#0341b:0013000000000000
#03514:0014
#03518:00000000000000000014000000000000
#03516:00000000140000140000140000140000
#0351a:0000000000000014
#03512:0014001400000000
#0321a:1400000014000024
#03216:00140000
#03214:0000001400000000
#03218:0014000000000000
#03212:1400000024001414
#03215:0000000000140000
#0871a:00001400000000001414000000000000
#08712:13000000000000000000000000000000130000000000000000333333333333330000000000000000140000001400000000000000000000000000000026000000
#08714:00000000000000000000000000140000
#08718:0000000000001315
#08716:13000000000000000033333333333333000000000000000014000000000000000000000000000000000000000000000000000000000000000000000000000000
#0881a:0000001400000000
#08816:000000000000000000000000000000000000000000140000000000000000000000000000000000001400000014000000
#08812:00000014
#08916:000014001400000000000000000000140000000000000000
#0891a:14000000000000000014000000000000
#08912:00000000000000001400001400000000
#10612:15
#10618:0000001600000000
#10615:00000000000000000000001400000000
#10617:27
#01912:0012
#01918:23000000000000000012000000000000
#01916:00000012
#0191c:00000000000000000000000000120000
#01915:2300001600000000
#01914:0000000000120000
#0191a:00000000000000000000001200000000
#06112:2418001813000000
#06116:00000000240000000013000000000000
#0611a:1400140000130000
#06113:00000013
#0611b:0000000000000013
#06117:00000000000000000000000000130000
#03617:12001200121200120012001212001200
#03610:41
#0031a:00000014
#00312:0000000000000014000000000000130000000000000000001400000000000000
#00317:0012130000120000
#00315:00120000000000000000000000000000
#00314:0000001400000000000000000000000000000000000000000000000000000000
#00319:12
#00318:0014000000000000000000000000000000000000000000000000000000000000
#00313:00000012000000000000000000000000
#00316:0000000000140000000000000000000000000000000000000000000000000000
#0031b:0000000000000000000000130000000000000000000000000000000000000000
#04117:0000000000120000
#04112:00140014000000000000000014000000
#0411a:00000014
#04116:00000000000000140000000000000000
#04115:1414140000000000
#0111b:00000013
#01114:000000000000001a00000000000000190000000000000000000000130000000000000000000000000000000000000000
#01119:0000000000130000
#01116:0000001500000000000000000000000000000000000013000000000000000000
#01115:000000150000000000000000000000000000000000000000000000000000000000000015000013000000000000000000000000000000000000000000000000000000000000000000000000000000000000000000000000000000000000000000
#01117:000000000000120000000000000000000000000000140000001400000000000000000000000000000000000000000000130000000000000000000000000000000000000000000000000000000000000000000000130000000000000000000000
#01118:000000000000000000000000000000000000000000000012000000000000000000000000000000000000000000000000000000000000000000000000000000000000000000000000000000000000000000000000000000000000000000000000
#01112:00000000000000000000000000130013
#01712:00000000001300240000000000000000
#0171b:00001300001300000000000000000000
#01715:00000013000000000000000000000000
#01718:00130000
#0171a:00000000000000240000000000000000
#10514:00000000000000000000000000160000
#10516:00000016
#10512:222c2c2c2c00002c1c001c0000000000
#1051c:0000002200000000
#0811b:00000000000000000000130000000013
#08116:00000013
#08416:00141400141400141400000000000000
#0841a:00000014000000000014000000000014
#08412:1400001400140014
#08617:00120012000000000000000000000000
#0861c:1212000000000000
#08614:00000000001300130000000000150015
#08612:00000000000000000014001400000000
#08616:0000000014140000
#08619:0000131300001515
#00515:0000120000000000000000140000000000000000000000000000000000000000
#00514:0000001400000000000000000000000000000000000000000000000000000000
#00513:00000012000000000000000000000000
#00512:0000000000000014000000000000140000000000000000000000000024000000
#00516:0000000000140000000000000000000018000000240000001800000000000000
#00519:12
#00518:0014000000000000000000000000000000000000000000000000000000000000
#00517:0012000000000000
#0051a:00140000
#00417:00130000001300000000000000000012
#00416:0000000000000000000000000000000000000000130000000000000000000014
#0041b:2300230023000012
#0041a:0000000000000000000000000000000000000000000000000000000000140000
#00412:190000150000001700000000190000150000001700000000190000000000140000001600000000000000000000000000
#01318:1300000013000026
#0131c:0012000000120000
#01315:00130013
#01312:0023001200250012
#0131a:0000002400000000
#01812:12000000000012000000000000160000
#0181c:00120000
#01817:0000001200000000
#0181a:0012
#01818:26000000000000000016000000001200
#01816:0000000000120000
#01814:00000012
#01810:41
#03717:22160000000000120000000000000000
#03712:00002216000000000000000000000000
#03718:0000000000000000220000160000000000000000000000000000000000000000
#05718:00000000000000000000000000130000
#05715:0000000000000013
#05712:0000000000001400000014000000000000000013000000000000000000001300
#05716:00140000140000140000000000000000
#0571b:00000013
#0571a:1414001400000000
#0581b:13000000000000000000001300001300
#05816:0000000000000000001300000000000000000000000000001800000000000000
#05812:00000013000000001300000000000000
#05815:00000000000000000013000000000000
#05818:0000000000130000
#05817:0000001300000000000000000000000000000000000000000000000000000000
#0591a:00000000000000001400000000000000000000001400000000000000000000000014000000000000000000140000000000000000000000000000000000000000
#05912:13000014000000250000000000000000
#05916:00140000
#05917:0000000000000000000000000000240000000014000000000000000000000000
#0601a:14142400
#06012:2418001814001400
#06016:0000240000182418
#0601f:11
#06418:0000000000000016
#06412:0000002200001600
#06417:00000000000000242424240000000000
#06415:00242424240000000000000000000000
#0641c:22
#06512:2200000000162c00
#06518:0016
#06515:00000000000000240000000000000000
#06517:00242424240000000000000000000000
#0651c:0000002200000000
#08512:0014240013000000
#08516:00000013000000000000000000000000
#08517:1300001300000000
#0851a:00240000001400240000000000000000
#08518:00000000000000000013000000130000
#08515:0000000000131300
#0851b:00000000000000000000001300000000
#10312:00000000000000001414000000000000
#10316:00000000000000000000001600000018
#10313:00000000000000000000000000170000
#10317:2424140000000000
#1031a:00240024000000000000000000000000
#10318:00000000000000260000000000000000
#07816:00141414000000002800000000000000
#07814:0000000000000000001818182a000000
#07813:000000000000000000000000001a1a1a
#07815:00000000001616160000000000000000
#0781a:24
#07818:00260000
#00212:190000150000001700000000190000150000001700000000190000000000140000001600000000000000000000000000
#00217:00130000001300000000000000000000
#00216:0000000000130000
#0021b:2300230023000013
#0501a:12
#05016:0012
#05018:00120000
#05014:00000012
#0521a:12121200
#05218:0012000000120000
#0521c:0000001200000000
#05214:12121200
#05212:0012000000120000
#05216:0000001200000000
#05516:12
#0551c:12
#0551a:00120000
#05514:00120000
#05512:0012
#05518:0012
#04913:000000000000000000000000000000000000000000150000000000000000000000000000000000000000000000000000000000000000000000000000000000000000000000000000000000000000001500000000000000000000000000000000000000000000000000000000000000000000000000000000000000000000000000000000000000000000000000000000000000000000000000000000000000000000000000000000000000000000000000000000000000000000000000000000000000000000000000000000000000000000000000000000000000000000000000000000000000000000000000000000000000000000000000000000000000000000000000000000000000000000000000000000000000000000000000000000000000000000000000000000000000000000000000000000000000000000000000000000000000000000000000000000000000000000000000000000000000000000000000000000000000000000000000000000000000000000000000000000
#04916:0000001200000000000000000000000000000000000000000000000000000000000000001200000000000000000000000000000000000000000000000000000000000000000000000000000000000000000000000000000000000000000000000000000000000000000000000000000000000000000000000000000000000000
#04912:000000000000000000000000000000000016000000000000000000000000000000160000000000000000000000000000000000000000000000000000000000000000000000000000150000000000000000000000000000000000000000000000000000000000000000000000000000000000000000000000000000000000000000000000000000000000000000000000000000000000000000000000000000000000000000000000000000000000000000000000000000000000000000000000
#04918:000000000000000000120000000000000000000000150000000000000000000000001600000000000000000000000000000000000000000000000000000000000000160000000000000000000000001500000000000000000000000000000000000000000000000000000000120000000000000000000000000000000000000000000000000000000000000000000000000000000000000000000000000000000000000000000000000000000000000000000000000000000000000000000000000000000000000000000000000000000000000000000000000000000000000000000000000000000000000000000000000000000000000000000000000000000000000000000000000000000000000000000000000000000000000000000000000000000000000000000000000000000000000000000000000000000000000000000000000000000000000000000000000000000000000000000000000000000000000000000000000000000000000000000000000000000000000000000000
#04919:0000001500000000
#05414:12
#05418:0012
#05416:00120000
#0541a:00000012
#04012:19000000150000000017000000000000180000001400000000160000000000001700000000001300000000000015000016000000000000001400000000000000
#04017:00130000000000000000000000000000
#0401c:0000000000000012
#04015:0000000000000000000000000000000000000013000000000000000000000000
#04016:00000000001300000000000000000000
#0401b:23
#04019:0023
#0401a:00230000
#02016:0000000000120000
#0201c:001200000000000000000000000000000000000000120000
#0201a:00140000000000000000000000000000
#02012:260000000000000012140000000000000000000000000000120000000000000000000000000000000000000000000000
#02117:22150000000000000000000000000000
#0211a:00000000000000000014001400140000
#02112:00002215000000000014001400140000
#02119:00000000221500000000000000000000
#02114:00000000000022150000000000000000
#0211c:0022
#03817:12001200121200120012001212001200
#04817:00000000000000000000000000000000000000000000000000000000000000000000001100000000000000000000000000000000000000000000000000000000
#04819:00000000000000000000000000000000000000000000000000000000000000000000001100000000000000000000000000000000000000000000000000000000
#04816:00000000000000000000000000000000000000000000000000000000000000002200000000120000000000000012000000000000000000000000000000000000
#04818:260000000000000000000000000000000000000000000000000000000000000000000000000000000000000000000000000000000000000000000000000000000000000000000000000000000000000000000000000000000000000000000000220000000000000000000000000000120000001300000000140000000000150013120000130014001300150013001400000000000000000000000000000000000000000000000000000000000000000000000000000000000000000000000000
#04814:0000000000140000
#04815:000000000000000000000000000000000000000000000000000000000000000000000000000000000000000000000000000000000000000000000000000000000000000000000000000000000000000000000000000000000000000000000000000000000000000000000000000000000000000000000000000000000000000000000000000000000000000000000000000000000000000000000000000000000000000000000000000000000000000000000000000000000000000000000000000000000000000000000000000000000000000000000000000000000000000000000000000013000000000000000000000000000000000000000000000000001300000000000000000000000000000000000000000000130000000000000000000000000000000000000000000000000000000000000000000000000000000000000000000000000000000000000000000000000000000000000000000000000000000000000000000000000000000000000000000000000000000000000000
#04813:0000000000000000000000000000000000000000001500000000000000000000
#04812:26
#06312:00000013000000130019001700150013
#0631b:13131300
#06317:0013001300001300
#06315:0000000000000013
#06319:0000000000130000
#06316:00130000001300000000000000000000
#06214:2200221200002200
#06212:0000000000000000000000160000001600000000000000000000000000000016
#06218:2600000000000000000000000000000000000016000000160000000000000000
#0621a:0022
#02812:0013000000130000
#02814:00000013
#0281b:23131313
#02816:1300130013000013
#02817:0013001300000000
#0291b:0013000013000013
#02916:0013001300141400
#02912:2300130000131300
#02917:13130000
#03012:1300000013000013
#03019:0013000000130000
#03016:00130013
#03014:0000001300000000
#0301b:00130013
#03017:1313
#03115:00001300000000000000000000130000
#03118:0025130000000013
#03117:13
#0311b:0000000013131300
#03112:25001313
#03116:0000001300000000
#03113:00250000
#03119:0000002500000000
#0801b:13
#08014:0000000000120000
#0801a:000012
#08018:00000012
#08016:000000000000000000000000000000000012000000000000
#08012:0000000000000013
#08218:0000000000131300
#08212:140000000000000000000000000000000000000014000000000000000000000000130000000000000000000000130000
#08215:00000000000000000013000000130000
#0821b:0000000013000013
#08216:001400001400000000000000
#0821a:000014140000000000000000
#08210:41
#0911a:0000120000120000
#0911b:0012000012000000
#09119:0000001200001200
#09118:0000000000000012
#09112:26
#10412:222c2c2c2c00002c2c2c2c001a000000
#10414:000000000000001a
#1041c:0000002200000000
#04215:19
#04219:00000000150000000000000000000000000000000000000000000000000000000000000000000000000000000015000000000000000000000000000000000000
#04217:00000000000000000017000000000000000000001300000000000000000000001700000000000000000000000000000000000000000000001400000000000000
#04216:00130000180000000000000000000000
#0421a:00000000001400000000000000000014
#04218:000000000000000000000000000000000000000000000000000000000000000000000000000000000000000000000000000000000000000000000000000000000000000000000000000000160000000000000000000000000000000000000000000000000000000000000000000000000000130000000000000000000000000000000000000000000000000000000000000000001600000000000000000000000000000000000000000000000000000000000000000000000000000000000000
#0421b:0000000000000000000000000000000000000013000000000000000000000000
#04213:00230000
#04212:23
#04214:0023
#04512:00000000000000001400001400000000
#0451a:00140014000000000014000000000000
#04516:00000000000000140000140000000000
#04518:00000000000000000000000000140000
#04514:0000000000000014
#04517:1414140000000000
#02318:0016
#02312:2200000000162c00
#02317:00242424240000000000000000000000
#0231c:0000002200000000
#02315:00000000000000240000000000000000
#02218:0000000000000016
#02212:0000002200001600
#02215:00242424240000000000000000000000
#0221c:22
#02217:00000000000000242424240000000000
#03913:00160000000000000000000000000000
#03918:00000016000000000000000000000000
#03912:0000000000000000000000160000000000000000000000000000000000000000
#03917:22000000000000120000000000000000
#0391c:0022000000000000
#03916:00220000
#07016:00140014000013000014001400000000
#07012:2414140000000013
#0701b:0000001300000000
#07017:0000000000000013
#0701a:0000000024141400
#0761a:0014140000141400
#07617:00000013000014002400001300000000
#07619:00000000000000000000000000000013
#07614:00000000000000130000000000000000
#07615:0000000000000014
#07612:2c
#07719:00000000000000130000000000000000
#07712:0014140000141400
#07716:00000013000000000000001300000000
#07717:0000000000000014
#07715:2400001424000000
#07714:00000000000000000000000000000013
#0791c:0000000000000000000000001232323232320000000000000000000000000000
#07912:2c
#07919:0035353535353535353500000000000000000000003500000000000000000000
#0791a:0000000000000000000034000000000000000034340000000000000000000000
#0791b:0000000000000000000000330000000000003300000000000000000000000000
#07918:0000000000000000000000000000000000000000000036360000000000000000
#0931c:00000000000000120000000000000000
#09318:00002216000000000000000000000000
#09312:22160000000000000000000000000000
#09314:0000000000000000220000160000000000000000000000000000000000000000
#09512:00000016000000120000000000000000
#09518:00160000000000000000000000000000
#09516:0000000022000000000000160000000000000000000000000000000000000000
#0951c:22
#0951a:00220000
#09212:12001200121200120012001212001200
#09210:41
#0941c:12001200121200120012001212001200
#04317:1414140000000000
#0431a:00140014000000140000000000000000
#04312:00001c1c
#04316:0000000000250000
#04319:0000000000000025
#09717:2424140000120000
#09719:00000015
#09712:00000015
#09716:00000000000000180000000000000000
#0971a:00240024000000000000000000000000
#09615:19
#0961a:00140000000000000000000000001400
#09618:000000000000000000000000000000000000000000000000000000160000000000000000000000000000000000000000000000000000000000000000000000000000000000000000000000000000000000000000000000000000000000000000000000000000000000000000000000000000140000000000000000000000000000000000000000000000000000000000000000001600000000000000000000000000000000000000000000000000000000000000000000000000000000000000
#09617:00000000001400001700000000000000
#09616:00140000180000000000000000000000
#0961b:00000000001300000000000000000000
#09619:00000000000000000000000000000000000000000000000000150000000000000000000000000000000000000015000000000000000000000000000000000000
#0961c:0000000000000000000000000000000000000012000000000000000000000000
#09612:2300000000000012
#09613:00230000
#09614:0023
#09812:190000000000000000000000140000000000000000000000000000170000000000000000000000000000000000000000180000000000000000000000130000000000000000000000000000160000000000000000000000000000000000000000170000000000000000000000000000000000120000000000000000000000000000000000000000150000000000000000000000001600000000000000000000000000000000000000000000000000000000000000240000000000000000000000
#09815:00000000001400000000000000002400
#09816:00140000000000000000000000000000
#09814:0000000000000000000000000000000000000014000000000000000000000000
#0981a:00230000
#0981b:23
#09819:0023
#0831b:0000000000130000
#08312:0000000000000013
#09915:2424140000000000
#09912:00240024000000161c0000001c000000
#09914:0000000000260000
#09916:0000000000000026
#06716:0018
#07112:2626262614000014
#07116:00000000000000000000140000140000
#07114:00000014
#07118:26002600260026000000001400000000
#0711a:00000000000000000014000000000014
#07214:0000001318000000
#07216:0000000000131800
#07212:2c001300180000000000000000001313
#07219:00000000000000130000000000000000
#0721b:00000000000000000013001300000000
#07217:00000013000000000000000000000000
#04715:1414140000000000
#04712:00140014000000240000000000000000
#04612:190000000000000000000000150000000000000000000000000000170000000000000000000000000000000000000000180000000000000000000000140000000000000000000000000000160000000000000000000000000000000000000000170000000000000000000000000000000000130000000000000000000000000000000000000000150000000000000000000000001600000000000000000000000000000000000000000000000000000000000000140000000000000000000000
#04616:00000000001300000000000000000000
#04617:00130000000000000000000000000000
#04615:0000000000000000000000000000000000000013000000000000000014000000
#0461a:00230000
#0461b:23
#04619:0023
#06812:2c000000000013001800000000001313
#06816:0013180000131800
#06817:00000000000000130000000000000000
#0681b:00000013000000000013001300000000
#0681f:21
#06810:0041
#0751a:0024002414000014
#07516:28000000280000000000140000140000
#07518:00000014
#07514:00000000000000000000001400000000
#07512:24002800240028000014000000000014
#0731b:00001300000000000000000000001313
#07314:00000000000000131800000000000000
#07312:2c000000000000000013001318000000
#07316:00000013180000000000000000000000
#07319:0000001300000000
#07317:0000000000130000
#10115:2424140000000000
#10112:00240024000000180014000000000000
#10118:0000000000000014
#10114:00000000000000000000000000140000
#1011a:00000000000000001400001400000000
#10116:0000000000140000
#07412:2400001300000013
#07418:00000014000000000000140000000000
#07416:00140000140000000014000014000000
#07414:00001400000000000000001400000000
#0741b:0000001300000013
#0741a:0024
#06916:00000000000000131800000000000000
#06912:2c000013180000000013001318000000
#06917:0013000000130000
#0691b:00000000000013000000000000001313
#00715:12000000000000000000000000130000
#00718:0000001400000000000000000000000000000000000013000000000013000000
#00719:00120000000000000000000000000000
#00714:0014000000000000000000000000000000003300000000000000000000000000
#0071b:00000012000000130000000000000000
#00717:0012000000000000
#00716:0000000000140000130000000000000000000000000000000000000000000000
#00712:0000000000000000000000130000000000000000330000000000000000000000
#0071a:0000000000000014000000000000000000000000000000000000000000000000
#00817:000000000000001700000000000000000000001700000000000000000000130000000000000000000000000000120000
#00816:0000130000000000000013000000000000000000000000000000000000000014
#00813:0000000000000012
#00812:2300000000000000230000000000000023000000000000000000000000140000
#00815:19191900
#00819:00150000001500000000000000000000
#0081a:0000000000140000
#00818:000000000000000000000000000000000016000000000000
#00615:19191900
#00619:00150000001500000000000000000000
#00617:000000000000001700000000000000000000001700000000000000000000130000000000000000000000000000000000
#00616:00130000001300000000000000000000
#0061a:0000000000140000
#00618:000000000000000000000000000000000016000000000000
#00612:2300230023000013
#04415:19
#04419:00000000150000000000000000000000000000000000000000000000000000000000000000000000000000000015000000000000000000000000000000000000
#04417:00000000000000000017000000000000000000001300000000000000000000001700000000000000000000000000000000000000000000000000000000000000
#04416:00130000180000000000000000000000
#0441a:00000000001400000000000000001400
#04418:00000000000000000000000000000000000000000000000000160000000000000000000000001300000000000000000016000000000000000000000000000000
#0441b:0000000000000000000000000000000000000013000000000000000000000000
#04412:2300000000000012
#04413:00230000
#04414:0023
#10012:190000000000000000000000140000000000000000000000000000160000000000000000000000000000000000000000180000000000000000000000130000000000000000000000000000150000000000000000000000000000000000000000170000000000000000000000000000000000120000000000000000000000000000000000000000150000000000000000000000001600000000000000000000000000000000000000140000000000000000000000000000000000000000000000
#10015:00000000001400000000000000000000
#10016:00140000000000000000000000000000
#10014:0000000000000000000000000000000000000014000000000000000000000000
#1001c:0000000000000012
#1001a:00230000
#1001b:23
#10019:0023
#10215:19
#1021a:00140000000000000000000000000024
#10217:00000000000000000017000000000000000000001400000000000000000000001700000000000000000000000000000000000000000000002400000000000000
#10216:00140000180000000000000000000000
#1021b:00000000001300000000000000000000
#10218:000000000000000000000000000000000000000000000000000000000000000000000000000000000000000000000000000000000000000000000000000000000000000000000000000000160000000000000000000000000000000000000000000000000000000000000000000000000000140000000000000000000000000000000000000000000000000000000000000000001600000000000000000000000000000000000000000000000000000000000000000000000000000000000000
#1021c:0000000000000000000000000000000000000012000000000000000000000000
#10219:00000000000000000000000000000000000000000000000000000000000000000000000000000000000000000015000000000000000000000000000000000000
#10213:00230000
#10212:23
#10214:0023
#0561a:2400002424000024
#05612:2824240028242400
#05616:00280028
#05610:41
#09012:2426
#09019:00250000
#09018:00000026
#0901a:24
#03457:6200342400000000
#03452:34633565
#0345a:0064
#03458:0000000000004626
#03453:0000000000250000
#0345b:0023000000000000
#10652:55
#10658:0000002600000000
#10657:47
#10655:00000000000000000000005400000000
#00058:00000046
#00052:0000000000000036
#00555:0000620000000000000000240000000000000000000000000000000000000000
#00554:0000002400000000000000000000000000000000000000000000000000000000
#00553:00000062000000000000000000000000
#00552:0000000000000024000000000000340000000000000000000000000034000000
#00559:62
#00558:0024000000000000000000000000000000000000000000000000000000000000
#00557:0062000000000000
#00556:0000000000240000000000000000000000000000340000000000000000000000
#0055a:00640000
#00457:00230000002300000000000000000062
#00456:0000000000000000000000000000000000000000230000000000000000000024
#0045b:6300630063000062
#0045a:0000000000000000000000000000000000000000000000000000000000240000
#00452:590000250000005700000000590000250000005700000000590000000000240000005600000000000000000000000000
#0135a:0000004400000000
#01358:6300000063000046
#01352:0033002200350022
#01355:00630063
#0135c:0022000000220000
#01852:62000000000000000000000000560000
#01858:46000000000000000066000000000000
#0185a:0022
#01854:00000022
#01955:63
#01958:63
#0195c:00000000000000000000000000420000
#02052:360000000000000022640000000000000000000000000000000000000000000000000000000000000000000000000000
#0205c:002200000000000000000000000000000000000000000000
#0205a:00540000000000000000000000000000
#03552:37
#03757:52260000000000120000000000000000
#03752:00005226000000000000000000000000
#03758:0000000000000000520000260000000000000000000000000000000000000000
#05856:0000000000000000002300000000000000000000000000005800000000000000
#0585b:6300000000000053
#05857:0000002300000000000000000000000000000000000000000000000000000000
#05852:00000053000000000000000000000000
#06552:0000000000361c00
#06558:0046
#06458:0000000000000046
#06452:00000036
#10554:00000000000000000000000000360000
#10556:00000046
#10552:000000004c3c0000
#05756:00000000000000640000000000000000
#05752:0000000000000000000000000000000000000023000000000000000000000000
#00252:590000250000005700000000590000250000005700000000590000000000240000005600000000000000000000000000
#00257:00230000002300000000000000000000
#0025b:6300630063000013
#00256:0000000000230000
#0525a:62626200
#05258:0022000000220000
#0525c:0000002200000000
#05254:62626200
#05252:0022000000220000
#05256:0000002200000000
#04953:000000000000000000000000000000000000000000550000000000000000000000000000000000000000000000000000000000000000000000000000000000000000000000000000000000000000002500000000000000000000000000000000000000000000000000000000000000000000000000000000000000000000000000000000000000000000000000000000000000000000000000000000000000000000000000000000000000000000000000000000000000000000000000000000000000000000000000000000000000000000000000000000000000000000000000000000000000000000000000000000000000000000000000000000000000000000000000000000000000000000000000000000000000000000000000000000000000000000000000000000000000000000000000000000000000000000000000000000000000000000000000000000000000000000000000000000000000000000000000000000000000000000000000000000000000000000000000000000
#04956:0000006200000000000000000000000000000000000000000000000000000000000000006200000000000000000000000000000000000000000000000000000000000000000000000000000000000000000000000000000000000000000000000000000000000000000000000000000000000000000000000000000000000000
#04952:000000000000000000000000000000000026000000000000000000000000000000560000000000000000000000000000000000000000000000000000000000000000000000000000250000000000000000000000000000000000000000000000000000000000000000000000000000000000000000000000000000000000000000000000000000000000000000000000000000000000000000000000000000000000000000000000000000000000000000000000000000000000000000000000
#04958:000000000000000000520000000000000000000000650000000000000000000000002600000000000000000000000000000000000000000000000000000000000000660000000000000000000000002500000000000000000000000000000000000000000000000000000000520000000000000000000000000000000000000000000000000000000000000000000000000000000000000000000000000000000000000000000000000000000000000000000000000000000000000000000000000000000000000000000000000000000000000000000000000000000000000000000000000000000000000000000000000000000000000000000000000000000000000000000000000000000000000000000000000000000000000000000000000000000000000000000000000000000000000000000000000000000000000000000000000000000000000000000000000000000000000000000000000000000000000000000000000000000000000000000000000000000000000000000000
#04959:0000002500000000
#04052:59000000250000000057000000000000580000002400000000560000000000005700000000002300000000000055000026000000000000005400000000000000
#04057:00230000000000000000000000000000
#0405c:0000000000000042
#04059:0063
#04055:0000000000000000000000000000000000000023000000000000000000000000
#0405a:00630000
#04056:00000000002300000000000000000000
#0405b:63
#01556:120000000000000000000000000000000000000000000000000000000000000000000000000000000000000000000000000000000000000000000000000000000000000000000000000000000000000000000000000000000000000000000000000000000000000000000000000000000000000000000000000000000000000000000000000000000000000000000000000000000000000000000000000000000000000000000000000000000000000000000000000000000000000000000000000000000000000000000000000000000000000000000000000000000000000000000000000000000000000000000000000000000000000000000000000000000000000000000000000000000000000000000000000000000000000000000000000000000000000000000000000000000000000000000000000000000000000000000000000000000000000000000000000000000000000000000000000000000000000000000000000000000000000000000000000000000000000000000000000000000000000000000000000000000000000000000000000000000000000000000000000000000000000000000000000000000000000000000000000000000000000000000000000000000000000000000000000000000000000000000000000000000000000000000000000000000000000000000000000000000000000000000000000000000000000000000000000000000000000000000000000000000000000000000000000000000000000000000000000000000000000000000000000000000000000000000000000000000000000000000000000000000000000000000000000000000000000000000000000000000000000000000000000000000000000000000000000000000000000000000000000000000000000000000000000000000000000000000000000000000000000000000000000000000000000000000000000000000000000000000000000000000000000000000000000000000000000000000000000000000000000000000000000000000000000000000000000000000000000000000000000000000000000000000000000000000000000000000000000000000000000000000000000000000000000000000000000000000000000000000000006454000000000000000000000000000000000000000000000000000000000000000000000000000000000000000000000000000000000000000000645400000000000000000000000000000000000000000000000000000000000000000000000000000000000000000000000000000000000000000000645400000000000000000000000000000000000000000000000000000000000000000000000000000000000000000000000000000000000000000000645400000000000000000000000000000000000000000000000000000000000000000000000000000000000000000000000000000000000000000000645400000000000000000000000000000000000000000000000000000000000000000000000000000000000000000000000000000000000000000000645400000000000000000000000000000000000000000000000000000000000000000000000000000000000000000000000000000000000000000000320000000000000000000000000000000000000000000000000000000000000000000000000000000000000000000000000000000000000000000000000000000000000000000000000000000000000000000000000000000000000000000000000000000000000000000000000000000000000000000000000000000000000000000000000000000000000000000000000000000000000000000000000000000000000000000000000000000000000000000000000000000000000000000000000000000000000000000000000000000000000000000000000000000000000000000000000000000000000000000000000000000000000000000000000000000000000000000000000000000000000000000000000000000000000000000000000000000000000000000000000000000000000000000000000000000000000000000000000000000000000000000000000000000000000000000000000000000000000000000000000000000000000000000000000000000000000000000000000000000000000000000000000000000000000000000000000000000000000000000000000000000000000000000000000000000000000000000000000000000000000000000000000000000000000000000000000000000000000000000000000000000000000000000000000000000000000000000000000000000000000000000000000000000000000000000000000000000000000000000000000000000000000000000000000000000000000000000000000000000000000000000000000000000000000000000000000000000000000000000000000000000000000000000000000000000000000000000000000000000000000000000000000000000000000000000000000000000000000000000000000000000000000000000000000000000000000000000000000000000000000000000000000000000000000000000000000000000000000000000000
#01555:000000000000000000000000000000000000000000000000000000000000000000000000000000000000000000000000000000000000000000000000000000000000000000000000000000000000000000000000000000000000000000000000000000000000000000000000000000000000000000000000000000000000000000000000000000000000000000000000000000000000000000000000000000000000000000000000000000000000000000000000000000000000000000000000000000000000000000000000000000000000000000000000000000000000000000000000000000000000000000000000000000000000000000000000000000000000000000000000000000000000000000000000000000000000000000000000000000000000000000000000000000000000000000000000000000000000000000000000000000000000000000000000000000000000000000000000000000000000000000000000000000000000000000000000000000000000000000000000000000000000000000000000000000000000000000000000000000000000000000000000000000000000000000000000000000000000000000000000000000000000000000000000000000000000000000000000000000000000000000000000000000000000000000000000000000000000000000000000000000000000000000000000000000000000000000000000000000000000000000000000000000000000000000000000000000000000000000000000000000000000000000000000000000000000000000000000000000000000000000000000000000000000000000000000000000000000000000000000000000000000000000000000000000000000000000000000000000000000000000000000000000000000000000000000000000000000000000000000000000000000000000000000000000000000000000000000000000000000000000000000000000000000000000000000000000000000000000000000000000000000000000000000000000000000000000000000000000000000000000000000000000000000000000000000000000000000000000000000000000000000000000000000000000000000000000000000000000000000000000000000000000000000000000000000000000000000000000000000000000000000262600000000000000000000000000000000000000000000000000000000000000000000000000000000000000000000000000000000000000000000262600000000000000000000000000000000000000000000000000000000000000000000000000000000000000000000000000000000000000000000262600000000000000000000000000000000000000000000000000000000000000000000000000000000000000000000000000000000000000000000262600000000000000000000000000000000000000000000000000000000000000000000000000000000000000000000000000000000000000000000262600000000000000000000000000000000000000000000000000000000000000000000000000000000000000000000000000000000000000000000262600000000000000000000000000000000000000000000000000000000000000000000000000000000000000000000000000000000000000000000000000000000000000000000000000000000000000000000000000000000000000000000000000000000000000000000000000000000000000000000000000000000000000000000000000000000000000000000000000000000000000000000000000000000000000000000000000000000000000000000000000000000000000000000000000000000000000000000000000000000000000000000000000000000000000000000000000000000000000000000000000000000000000000000000000000000000000000000000000000000000000000000000000000000000000000000000000000000000000000000000000000000000000000000000000000000000000000000000000000000000000000000000000000000000000000000000000000000000000000000000000000000000000000000000000000000000000000000000000000000000000000000000000000000000000000000000000000000000000000000000000000000000000000000000000000000000000000000000000000000000000000000000000000000000000000000000000000000000000000000000000000000000000000000000000000000000000000000000000000000000000000000000000000000000000000000000000000000000000000000000000000000000000000000000000000000000000000000000000000000000000000000000000000000000000000000000000000000000000000000000000000000000000000000000000000000000000000000000000000000000000000000000000000000000000000000000000000000000000000000000000000000000000000000000000000000000000000000000000000000000000000000000000000000000000000000000000000000000000000000000000000000000000000000000000000000000000000000000000000000
#0155b:13
#01558:0000000000420000
#01052:330000005300000000000000000000000000000000000000000000000000002a
#0105b:43
#01054:0000000000000000000000000000000000000000000000000000000000550000
#01055:0000000000000022
#02157:52250000000000000000000000000000
#02159:00000000522500000000000000000000
#02152:00005225000000000000000000000000
#02154:00000000000052250000000000000000
#02452:00330033
#02457:63630000
#0245b:0023000000000000
#0255b:0000430000434300
#02556:53530000
#02552:0053000000000000
#02652:00330033
#02759:45
#02753:0035000000000000
#02758:00450000
#02752:0000003500000000
#04859:00000000000000000000000000000000000000000000000000000000000000000000006100000000000000000000000000000000000000000000000000000000
#04857:00000000000000000000000000000000000000000000000000000000000000000000006100000000000000000000000000000000000000000000000000000000
#04856:00000000000000000000000000000000000000000000000000000000000000000000000000620000000000000052000000000000000000000000000000000000
#04858:000000000000000000000000000000000000000000000000000000000000000000000000000000000000000000000000000000000000000000000000000000000000000000000000000000000000000000000000000000000000000000000000000000000000000000000000000000620000006300000000640000000000550053520000230054002300550023005400000000000000000000000000000000000000000000000000000000000000000000000000000000000000000000000000
#04855:000000000000000000000000000000000000000000000000000000000000000000000000000000000000000000000000000000000000000000000000000000000000000000000000000000000000000000000000000000000000000000000000000000000000000000000000000000000000000000000000000000000000000000000000000000000000000000000000000000000000000000000000000000000000000000000000000000000000000000000000000000000000000000000000000000000000000000000000000000000000000000000000000000000000000000000000000063000000000000000000000000000000000000000000000000005300000000000000000000000000000000000000000000230000000000000000000000000000000000000000000000000000000000000000000000000000000000000000000000000000000000000000000000000000000000000000000000000000000000000000000000000000000000000000000000000000000000000000
#04854:0000000000640000
#04853:0000000000000000000000000000000000000000002500000000000000000000
#05656:0044003400440034
#05952:63
#0595a:00000000000000000000000000000000000000000000000000000000000000000024000000000000000000240000000000000000000000000000000000000000
#05957:0000000000000000000000000000540000000054000000000000000000000000
#06052:34
#06056:00340044
#0605a:0044
#06152:34
#06156:00340000
#06252:0000000000000000000000260000002600000000000000000000000000000026
#06258:0000000000000000000000000000000000000026000000260000000000000000
#06254:1200525212005200
#0625a:00125212
#0285b:00430043
#02856:53530000
#02852:0023000000000000
#0305b:00430043
#02952:0000330000333300
#02957:63630000
#0295b:0063000000000000
#03152:3523
#03158:0045000000000000
#03153:00350000
#03159:0000004500000000
#03156:0000005300000000
#08752:00630000
#08756:6300002400000000
#0875a:0024000000000000
#0905a:44
#09052:00340036
#09059:0045
#10452:0000003a
#10454:000000000000004a
#04255:69
#04259:00000000250000000000000000000000000000000000000000000000000000000000000000000000000000000065000000000000000000000000000000000000
#04257:00000000000000000067000000000000000000002300000000000000000000006700000000000000000000000000000000000000000000000000000000000000
#04256:00230000680000000000000000000000
#0425a:00000000002400000000000000000000
#04258:000000000000000000000000000000000000000000000000000000000000000000000000000000000000000000000000000000000000000000000000000000000000000000000000000000660000000000000000000000000000000000000000000000000000000000000000000000000000230000000000000000000000000000000000000000000000000000000000000000002600000000000000000000000000000000000000000000000000000000000000000000000000000000000000
#0425b:0000000000000000000000000000000000000023000000000000000000000000
#04253:00530000
#04252:53
#04254:0053
#02358:0046
#02352:0000000000361c00
#02258:0000000000000046
#02252:00000036
#03252:1400000000000054
#03255:0000000000240000
#0325a:0054
#03357:24
#01157:000000000000220000000000000000000000000000540000005400000000000000000000000000000000000000000000000000000000000000000000000000000000000000000000000000000000000000000000000000000000000000000000
#01155:000000550000000000000000000000000000000000000000000000000000000000000055000023000000000000000000000000000000000000000000000000000000000000000000000000000000000000000000000000000000000000000000
#01156:0000005500000000000000000000000000000000000000000000000000000000
#01154:000000000000002a00000000000000290000000000000000000000000000000000000000000000000000000000000000
#01158:000000000000000000000000000000000000000000000022000000000000000000000000000000000000000000000000000000000000000000000000000000000000000000000000000000000000000000000000000000000000000000000000
#03953:00260000000000000000000000000000
#03958:00000026000000000000000000000000
#03952:0000000000000000000000260000000000000000000000000000000000000000
#03957:62000000000000120000000000000000
#0395c:0062000000000000
#03956:00620000
#0765a:00440044
#07652:4c
#07752:00340034
#0795c:0000002200000000
#07952:6c00003c
#0935c:00000000000000120000000000000000
#09358:00005226000000000000000000000000
#09352:52260000000000000000000000000000
#09354:0000000000000000520000260000000000000000000000000000000000000000
#09552:00000026000000120000000000000000
#09558:00260000000000000000000000000000
#09556:0000000062000000000000260000000000000000000000000000000000000000
#0955c:62
#0955a:00620000
#01658:55
#00156:00000044
#0785a:44
#07858:00460000
#07856:0048
#07854:0000004a
#00355:00620000000000000000000000000000
#00354:0000002400000000000000000000000000000000000000000000000000000000
#00359:62
#00358:0024000000000000000000000000000000000000000000000000000000000000
#00353:00000062000000000000000000000000
#00357:0062530000000000
#00356:0000000000240000000000000000000000000000000000000000000000000000
#0035b:0000000000000000000000230000000000000000000000000000000000000000
#00352:0000000000000024000000000000330000000000000000000000000000000000
#0095a:0000000000000024000000000000440000000000000000000000000000000000
#00959:00520000000000000000000000000000
#00958:0000002400000000000000000000000000000000000000000000000000000000
#0095b:00000052000000000000000000000000
#00955:52
#00954:0024000000000000000000000000000000000000000000000000000000000000
#00957:0000000052000000000000240000000000000000000000000000000000000000
#00956:0000000000240000000000000000000000000000000000000000000000000000
#00952:00000000540000340000000000000000
#04156:00000000000000140000000000000000
#04155:00540000
#04357:00240000
#0435a:00000000000000440000000000000000
#04356:0000000000450000
#04359:0000000000000045
#04556:00000000000000140000000000000000
#04557:00640000
#09655:69
#0965a:00240000000000000000000000006400
#09658:000000000000000000000000000000000000000000000000000000660000000000000000000000000000000000000000000000000000000000000000000000000000000000000000000000000000000000000000000000000000000000000000000000000000000000000000000000000000240000000000000000000000000000000000000000000000000000000000000000002600000000000000000000000000000000000000000000000000000000000000000000000000000000000000
#09657:00000000002400006700000000000000
#09656:00240000680000000000000000000000
#0965b:00000000002300000000000000000000
#09659:00000000000000000000000000000000000000000000000000650000000000000000000000000000000000000065000000000000000000000000000000000000
#0965c:0000000000000000000000000000000000000022000000000000000000000000
#09653:00530000
#09652:5300000000000032
#09654:0053
#09756:00000000000000180000000000000000
#09757:00640000
#09852:590000000000000000000000240000000000000000000000000000570000000000000000000000000000000000000000580000000000000000000000230000000000000000000000000000560000000000000000000000000000000000000000570000000000000000000000000000000000220000000000000000000000000000000000000000550000000000000000000000002600000000000000000000000000000000000000000000000000000000000000000000000000000000000000
#09855:00000000002400000000000000000000
#09856:00240000000000000000000000000000
#09854:0000000000000000000000000000000000000024000000000000000000000000
#0985a:00630000
#0985b:63
#09859:0063
#09158:46
#09952:00000000000000360000000000000000
#09954:0000000000360000
#09956:0000000000000036
#09955:00240000
#10356:00000000000000000000004600000048
#10353:00000000000000000000000000370000
#10358:00000000000000460000000000000000
#10357:00240000
#07556:48480000
#07552:0038003800000000
#06756:0068
#07052:00140000
#0705a:00000014
#07254:0038
#07256:00000038
#07252:3c380000
#07152:36360000
#07158:0046004600000000
#04755:00240000
#0475a:00000000000000440000000000000000
#04752:00000000000000340000000000000000
#06852:3c38
#06856:00380038
#06952:4c480048
#06956:0048
#07352:4c000048
#07354:0048
#07356:00480000
#10155:00540000
#10152:00000000000000180000000000000000
#07456:00140014
#00857:000000000000006700000000000000000000006700000000000000000000230000000000000000000000000000520000
#00856:0000230000000000000023000000000000000000000000000000000000000024
#00853:0000000000000052
#00852:5300000000000000530000000000000053000000000000000000000000240000
#00855:69696900
#00859:00250000002500000000000000000000
#0085a:0000000000240000
#00858:000000000000000000000000000000000066000000000000
#00655:69696900
#00659:00250000002500000000000000000000
#00657:000000000000006700000000000000000000006700000000000000000000230000000000000000000000000000000000
#00656:00230000002300000000000000000000
#0065a:0000000000240000
#00658:000000000000000000000000000000000066000000000000
#00652:5300530053000013
#00759:00520000000000000000000000000000
#00758:0000002400000000000000000000000000000000000000000000000000000000
#00755:52
#00754:0024000000000000000000000000000000000000000000000000000000000000
#0075b:00000052000000430000000000000000
#00757:0052000000000000
#00756:0000000000240000630000000000000000000000000000000000000000000000
#00752:0000000000000000000000230000000000000000000000000000000000000000
#0075a:0000000000000024000000000000000000000000000000000000000000000000
#04455:69
#04459:00000000250000000000000000000000000000000000000000000000000000000000000000000000000000000065000000000000000000000000000000000000
#04457:00000000000000000067000000000000000000002300000000000000000000006700000000000000000000000000000000000000000000000000000000000000
#04456:00230000680000000000000000000000
#0445a:00000000002400000000000000006400
#04458:00000000000000000000000000000000000000000000000000660000000000000000000000002300000000000000000026000000000000000000000000000000
#0445b:0000000000000000000000000000000000000023000000000000000000000000
#04452:5300000000000032
#04453:00530000
#04454:0053
#04652:590000000000000000000000250000000000000000000000000000570000000000000000000000000000000000000000580000000000000000000000240000000000000000000000000000560000000000000000000000000000000000000000570000000000000000000000000000000000230000000000000000000000000000000000000000550000000000000000000000002600000000000000000000000000000000000000000000000000000000000000000000000000000000000000
#04656:00000000002300000000000000000000
#04657:00230000000000000000000000000000
#04655:0000000000000000000000000000000000000023000000000000000000000000
#0465a:00630000
#0465b:63
#04659:0063
#10052:590000000000000000000000240000000000000000000000000000560000000000000000000000000000000000000000580000000000000000000000230000000000000000000000000000550000000000000000000000000000000000000000570000000000000000000000000000000000220000000000000000000000000000000000000000550000000000000000000000002600000000000000000000000000000000000000540000000000000000000000000000000000000000000000
#10055:00000000002400000000000000000000
#10056:00240000000000000000000000000000
#10054:0000000000000000000000000000000000000024000000000000000000000000
#1005c:0000000000000042
#1005a:00630000
#1005b:63
#10059:0063
#10255:69
#1025a:00240000000000000000000000000000
#10257:00000000000000000067000000000000000000002400000000000000000000006700000000000000000000000000000000000000000000000000000000000000
#10256:00240000680000000000000000000000
#1025b:00000000002300000000000000000000
#10258:000000000000000000000000000000000000000000000000000000000000000000000000000000000000000000000000000000000000000000000000000000000000000000000000000000660000000000000000000000000000000000000000000000000000000000000000000000000000240000000000000000000000000000000000000000000000000000000000000000002600000000000000000000000000000000000000000000000000000000000000000000000000000000000000
#1025c:0000000000000000000000000000000000000022000000000000000000000000
#10259:00000000000000000000000000000000000000000000000000000000000000000000000000000000000000000065000000000000000000000000000000000000
#10253:00530000
#10252:53
#10254:0053
#0023b0:13
#002370:00530000000000000000000000000000
#002380:0024000000000000
#002321:190000550000005700000000590000550000005700000000590000000000540000005600000000000000290000000000
#0023b0:00130000
#002370:00000000005300000000000000000000
#002380:0000002400000000
#0023b0:0013
#002360:0000000000530000
#002370:00000000000000000000002400000000
#003391:12220000000000000000000000000000
#003381:0054000000000000000000000000000000000000000000000000000000000000
#003350:00122200000000000000000000000000
#003340:0000005400000000000000000000000000000000000000000000000000000000
#003371:00001222000000000000000000000000
#003361:0000000000540000000000000000000000000000000000000000000000000000
#003330:00000012220000000000000000000000
#003320:0000000000000054000000000000000000000000000000000000000000000000
#003371:00000000130000230000000000000000
#0033b1:0000000000000000000000530000000000000000000000000000000000000000
#0043b1:13
#004371:00530000000000000000000000000000
#004381:0024000000000000
#004320:190000550000005700000000590000550000005700000000590000000000540000005600000000000000290000000000
#0043b1:00130000
#004371:00000000005300000000000000000000
#004381:0000002400000000
#0043b1:0013
#004361:0000000000530000
#004371:00000000000000000000002400000000
#0043b1:00000000000000000000000000001222
#0043a1:0000000000000000000000000000000000000000000000000000000000540000
#004370:00000000000000000000000000000012
#004360:0000000000000000000000000000000000000000000000000000000000000054
#005370:22
#005391:12220000000000000000000000000000
#005381:0054000000000000000000000000000000000000000000000000000000000000
#005350:00122200000000000000000000000000
#005340:0000005400000000000000000000000000000000000000000000000000000000
#005371:00001222000000000000000000000000
#005361:0000000000540000000000000000000000000000000000000000000000000000
#005330:00000012220000000000000000000000
#005320:0000000000000054000000000000000000000000000000000000000000000000
#0053a1:00000000140000240000000000000000
#005351:0000000000000000000000540000000000000000000000000000000000000000
#006321:13
#006361:00530000000000000000000000000000
#006341:0024000000000000
#006350:1900590059000029
#006390:00550000005500000000000000000000
#006370:000000000000005700000000000000000000005700000000000000000000000000000000000000000000000000000000
#0063a0:0000000000540000
#006380:000000000000000000000000000000000056000000000000
#006321:00130000
#006361:00000000005300000000000000000000
#006341:0000002400000000
#006321:0013
#006371:0000000000530000
#006351:00000000000000000000002400000000
#007350:12220000000000000000000000000000
#007340:0054000000000000000000000000000000000000000000000000000000000000
#007391:00122200000000000000000000000000
#007381:0000005400000000000000000000000000000000000000000000000000000000
#007370:00001222000000000000000000000000
#007360:0000000000540000000000000000000000000000000000000000000000000000
#0073b1:00000012220000000000000000000000
#0073a1:0000000000000054000000000000000000000000000000000000000000000000
#007360:00000000130000230000000000000000
#007320:0000000000000000000000530000000000000000000000000000000000000000
#007360:0013
#007340:00000000000000000033000000000000
#007320:00000000000000000000332300000000
#008320:13
#008360:00530000000000000000000000000000
#008340:0024000000000000
#008351:1900590059000029
#008391:00550000005500000000000000000000
#008371:000000000000005700000000000000000000005700000000000000000000000000000000000000000000000000000000
#0083a1:0000000000540000
#008381:000000000000000000000000000000000056000000000000
#008320:00130000
#008360:00000000005300000000000000000000
#008340:0000002400000000
#008320:0013
#008370:0000000000530000
#008350:00000000000000000000002400000000
#008330:00000000000000000000000000001222
#008320:0000000000000000000000000000000000000000000000000000000000540000
#008371:00000000000000000000000000000012
#008361:0000000000000000000000000000000000000000000000000000000000000054
#009371:22
#009350:12220000000000000000000000000000
#009340:0054000000000000000000000000000000000000000000000000000000000000
#009391:00122200000000000000000000000000
#009381:0000005400000000000000000000000000000000000000000000000000000000
#009370:00001222000000000000000000000000
#009360:0000000000540000000000000000000000000000000000000000000000000000
#0093b1:00000012220000000000000000000000
#0093a1:0000000000000054000000000000000000000000000000000000000000000000
#009320:00000000140000240000000000000000
#009370:0000000000000000000000540000000000000000000000000000000000000000
#010320:0013000000000000
#010360:00230000
#010350:0000000000000012
#010340:0000000000000000000000000000000000000000000000000000000000550000
#010320:000000000000000000000000000000000000000000000000000000000000005a
#011350:000000550000000000000000000000000000000000000000000000000000000000000055000053000000000000000000000000000000000000000000000000000000000000000000000000000000000000000000000000000000000000000000
#011370:000000000000520000000000000000000000000000540000005400000000000000000000000000000000000000000000000000000000000000000000000000000000000000000000000000000000000000000000000000000000000000000000
#011360:0000005500000000000000000000000000000000000000000000000000000000
#011340:000000000000005a00000000000000590000000000000000000000000000000000000000000000000000000000000000
#011380:000000000000000000000000000000000000000000000052000000000000000000000000000000000000000000000000000000000000000000000000000000000000000000000000000000000000000000000000000000000000000000000000
#011320:0022
#013380:13230000
#0133c0:0052000000000000
#013351:00132300
#013321:0000005200000000
#013380:00001323
#0133c0:0000000000520000
#013351:00000013
#013321:0000000000000052
#014351:23
#0143b0:13000000005300003300000000530000
#014380:00520000320000000052000032000000
#0153b0:23
#014361:00001200000000520000320000000052
#014321:00000053000033000000005300003300
#015361:22
#015361:000000000000000000000000000000000000000000000000000000000000000000000000000000000000000000000000000000000000000000000000000000000000000000000000000000000000000000000000000000000000000000000000000000000000000000000000000000000000000000000000000000000000000000000000000000000000000000000000000000000000000000000000000000000000000000000000000000000000000000000000000000000000000000000000000000000000000000000000000000000000000000000000000000000000000000000000000000000000000000000000000000000000000000000000000000000000000000000000000000000000000000000000000000000000000000000000000000000000000000000000000000000000000000000000000000000000000000000000000000000000000000000000000000000000000000000000000000000000000000000000000000000000000000000000000000000000000000000000000000000000000000000000000000000000000000000000000000000000000000000000000000000000000000000000000000000000000000000000000000000000000000000000000000000000000000000000000000000000000000000000000000000000000000000000000000000000000000000000000000000000000000000000000000000000000000000000000000000000000000000000000000000000000000000000000000000000000000000000000000000000000000000000000000000000000000000000000000000000000000000000000000000000000000000000000000000000000000000000000000000000000000000000000000000000000000000000000000000000000000000000000000000000000000000000000000000000000000000000000000000000000000000000000000000000000000000000000000000000000000000000000000000000000000000000000000000000000000000000000000000000000000000000000000000000000000000000000000000000000000000000000000000000000000000000000000000000000000000000000000000000000000000000000000000000000000000000000000000000000000000000125400000000000000000000000000000000000000000000000000000000000000000000000000000000000000000000000000000000000000000000540000000000000000000000000000000000000000000000000000000000000000000000000000000000000000000000000000000000000000000000540000000000000000000000000000000000000000000000000000000000000000000000000000000000000000000000000000000000000000000000540000000000000000000000000000000000000000000000000000000000000000000000000000000000000000000000000000000000000000000000540000000000000000000000000000000000000000000000000000000000000000000000000000000000000000000000000000000000000000000000540000000000000000000000000000000000000000000000000000000000000000000000000000000000000000000000000000000000000000000054220000000000000000000000000000000000000000000000000000000000000000000000000000000000000000000000000000000000000000000000000000000000000000000000000000000000000000000000000000000000000000000000000000000000000000000000000000000000000000000000000000000000000000000000000000000000000000000000000000000000000000000000000000000000000000000000000000000000000000000000000000000000000000000000000000000000000000000000000000000000000000000000000000000000000000000000000000000000000000000000000000000000000000000000000000000000000000000000000000000000000000000000000000000000000000000000000000000000000000000000000000000000000000000000000000000000000000000000000000000000000000000000000000000000000000000000000000000000000000000000000000000000000000000000000000000000000000000000000000000000000000000000000000000000000000000000000000000000000000000000000000000000000000000000000000000000000000000000000000000000000000000000000000000000000000000000000000000000000000000000000000000000000000000000000000000000000000000000000000000000000000000000000000000000000000000000000000000000000000000000000000000000000000000000000000000000000000000000000000000000000000000000000000000000000000000000000000000000000000000000000000000000000000000000000000000000000000000000000000000000000000000000000000000000000000000000000000000000000000000000000000000000000000000000000000000000000000000000000000000000000000000000000000000000000000000000000000000000000000000000
#015351:00000000000000000000000000000000000000000000000000000000005600560056005600560056000000000000000000000000000000000000000000000000
#015380:00000000000000120000220000000000
#015360:000000000000000000000000000000000000000000000000000000000000000000000000000000000000000000000000000000000000000000000000000000000000000000000000000000000000000000000000000000000000000000000000000000000000000000000000000000000000000000000000000000000000000000000000000000000000000000000000000000000000000000000000000000000000000000000000000000000000000000000000000000000000000000000000000000000000000000000000000000000000000000000000000000000000000000000000000000000000000000000000000000000000000000000000000000000000000000000000000000000000000000000000000000000000000000000000000000000000000000000000000000000000000000000000000000000000000000000000000000000000000000000000000000000000000000000000000000000000000000000000000000000000000000000000000000000000000000000000000000000000000000000000000000000000000000000000000000000000000000000000000000000000000000000000000000000000000000000000000000000000000000000000000000000000000000000000000000000000000000000000000000000000000000000000000000000000000000000000000000000000000000000000000000000000000000000000000000000000000000000000000000000000000000000000000000000000000000000000000000000000000000000000000000000000000000000000000000000000000000000000000000000000000000000000000000000000000000000000000000000000000000000000000000000000000000000000000000000000000000000000000000000000000000000000000000000000000000000000000000000000000000000000000000000000000000000000000000000000000000000000000000000000000000000000000000000000000000000000000000000000000000000000000000000000000000000000000000000000000000000000000000000000000000000000000000000000000000000000000000000000000000000000000000000000000000000000000000000000000000000000000054000000000000000000000000000000000000000000000000000000000000000000000000000000000000000000000000000000000000000000005400000000000000000000000000000000000000000000000000000000000000000000000000000000000000000000000000000000000000000000005400000000000000000000000000000000000000000000000000000000000000000000000000000000000000000000000000000000000000000000005400000000000000000000000000000000000000000000000000000000000000000000000000000000000000000000000000000000000000000000005400000000000000000000000000000000000000000000000000000000000000000000000000000000000000000000000000000000000000000000005400000000000000000000000000000000000000000000000000000000000000000000000000000000000000000000000000000000000000005400000000000000000000000000000000000000000000000000000000000000000000000000000000000000000000000000000000000000000000000000000000000000000000000000000000000000000000000000000000000000000000000000000000000000000000000000000000000000000000000000000000000000000000000000000000000000000000000000000000000000000000000000000000000000000000000000000000000000000000000000000000000000000000000000000000000000000000000000000000000000000000000000000000000000000000000000000000000000000000000000000000000000000000000000000000000000000000000000000000000000000000000000000000000000000000000000000000000000000000000000000000000000000000000000000000000000000000000000000000000000000000000000000000000000000000000000000000000000000000000000000000000000000000000000000000000000000000000000000000000000000000000000000000000000000000000000000000000000000000000000000000000000000000000000000000000000000000000000000000000000000000000000000000000000000000000000000000000000000000000000000000000000000000000000000000000000000000000000000000000000000000000000000000000000000000000000000000000000000000000000000000000000000000000000000000000000000000000000000000000000000000000000000000000000000000000000000000000000000000000000000000000000000000000000000000000000000000000000000000000000000000000000000000000000000000000000000000000000000000000000000000000000000000000000000000000000000000000000000000000000000000000000000000000000000000000000000000000000000000000000
#015350:000000000000000000000000000000000000000000000000000000000000000000000000000000000000000000000000000000000000000000000000000000000000000000000000000000000000000000000000000000000000000000000000000000000000000000000000000000000000000000000000000000000000000000000000000000000000000000000000000000000000000000000000000000000000000000000000000000000000000000000000000000000000000000000000000000000000000000000000000000000000000000000000000000000000000000000000000000000000000000000000000000000000000000000000000000000000000000000000000000000000000000000000000000000000000000000000000000000000000000000000000000000000000000000000000000000000000000000000000000000000000000000000000000000000000000000000000000000000000000000000000000000000000000000000000000000000000000000000000000000000000000000000000000000000000000000000000000000000000000000000000000000000000000000000000000000000000000000000000000000000000000000000000000000000000000000000000000000000000000000000000000000000000000000000000000000000000000000000000000000000000000000000000000000000000000000000000000000000000000000000000000000000000000000000000000000000000000000000000000000000000000000000000000000000000000000000000000000000000000000000000000000000000000000000000000000000000000000000000000000000000000000000000000000000000000000000000000000000000000000000000000000000000000000000000000000000000000000000000000000000000000000000000000000000000000000000000000000000000000000000000000000000000000000000000000000000000000000000000000000000000000000000000000000000000000000000000000000000000000000000000000000000000000000000000000000000000000000000000000000000000000000000000000000000000000000000000000000000000000000000000000000000000000000000000000000000000000000000000000000000005600000000000000000000000000000000000000000000000000000000000000000000000000000000000000000000000000000000000000000000005600000000000000000000000000000000000000000000000000000000000000000000000000000000000000000000000000000000000000000000005600000000000000000000000000000000000000000000000000000000000000000000000000000000000000000000000000000000000000000000005600000000000000000000000000000000000000000000000000000000000000000000000000000000000000000000000000000000000000000000005600000000000000000000000000000000000000000000000000000000000000000000000000000000000000000000000000000000000000000000005600000000000000000000000000000000000000000000000000000000000000000000000000000000000000000000000000000000000000000000000000000000000000000000000000000000000000000000000000000000000000000000000000000000000000000000000000000000000000000000000000000000000000000000000000000000000000000000000000000000000000000000000000000000000000000000000000000000000000000000000000000000000000000000000000000000000000000000000000000000000000000000000000000000000000000000000000000000000000000000000000000000000000000000000000000000000000000000000000000000000000000000000000000000000000000000000000000000000000000000000000000000000000000000000000000000000000000000000000000000000000000000000000000000000000000000000000000000000000000000000000000000000000000000000000000000000000000000000000000000000000000000000000000000000000000000000000000000000000000000000000000000000000000000000000000000000000000000000000000000000000000000000000000000000000000000000000000000000000000000000000000000000000000000000000000000000000000000000000000000000000000000000000000000000000000000000000000000000000000000000000000000000000000000000000000000000000000000000000000000000000000000000000000000000000000000000000000000000000000000000000000000000000000000000000000000000000000000000000000000000000000000000000000000000000000000000000000000000000000000000000000000000000000000000000000000000000000000000000000000000000000000000000000000000000000000000000000000000000000000000000000000000000000000000000000000000000000000000000000000
#016380:15
#0163a0:00510000510000000000000000000000
#016370:0000002700000000
#016370:0000000000000013
#0173b0:23
#017361:13
#017321:0023000000000000
#017321:00000000000000140000000000000000
#017331:000000000000000000000000000000000000000000000000000000000000000000000000000000000000000000000000000000000000000000000000000000000000000000000000000000000000000000000000000000000000000000000000000000000000000000000000000000000000000000000000000000000000000000000000000000000000000000000000000000000000000000000000000000000000000000000000000000000000000000000000000000000000000000000000000000000000000000000000000000000000000000000000000000000000000000000000000000000000000000000000000000000000000000000000000000000000000000000000000000000000000000000000000000000000000000000000000000000000000000000000000000000000000000000000000000000000000000000000000000000000000000000000000000000000000000000000000000000000000000000000000000000000000000000000000000000000000000000000000000000000000000000000000000000000000000000000000000000000000000000000000000000000000000000000000000000000000000000000000000000000000000000000000000000000000000000000000000000000000000000000000000000000000000000000000000000000000000000000000000000000000000000000000000000000000000000000000000000000000000000000000000000000000000000000000000000000000000000000000000000000000000000000000000000000000000000000000000000000000000000000000000000000000000000000000000000000000000000000000000000000000000000000000000000000000000000000000000000000000000000000000000000000000000000000000000000000000000000000000000000000000000000000000000000000000000000000000000000000000000000000000000000000000000000000000000000000000000000000000000000000000000000000000000000000000000000000000000000000000000000000000000000000000000000000000000000000000000000000000000000000000000000000000000000000000000000000000000000000000000000000005200000000000000000000000000000000000000000000000000000000000000000000000000000000000000000000000000000000000000000000000000000000000000000000000000000000000000000000000000000000000000000000000000000000000000000000000000000000000000000000000000000000000000000000000000000000000000000000000000000000000000000000000000000000000000000000000000000000000000000000000000000000000000000000000000000000000000000000000000000000000000000000000000000000000000000000000000000000000000000000000000000000000000000000000000000000000000000000000000000000000000000000000000000000000000000000000000000000000000000000000000000000000000000000000000000000000000000000000000000000000000000000000000000000000000000000000000000000000000000000000000000000000000000000000000000000000000000000000000000000000000000000000000000000000000000000000000000000000000000000000000000000000000000000000000000000000000000000000000000000000000000000000000000000000000000000000000000000000000000000000000000000000000000000000000000000000000000000000000000000000000000000000000000000000000000000000000000000000000000000000000000000000000000000000000000000000000000000000000000000000000000000000000000000000000000000000000000000000000000000000000000000000000000000000000000000000000000000000000000000000000000000000000000000000000000000000000000000000000000000000000000000000000000000000000000000000000000000000000000000000000000000000000000000000000000000000000000000000000000000000000000000000000000000000000000000000000000000000000000000000000000000000000000000000000000000000000000000000000000000000000000000000000000000000000000000000000000000000000000000000000000000000000000000000000000000000000000000000000000000000000000000000000000000000000000000000000000000000000000000000000000000000000000000000000000000000000000000000000000000000000000000000000000000000000000000000000000000000000000000000000000000000000000000000000000000000000000000000000000000000000000000000000000000000000000000000000000000000000000000000000000000000000000000000000000000000000000000000000000000000000000000000000000000000000000000000000000000000000000000000000000000000000000000000000000000000000000000000000000000
#017351:000000000000000000000000000000000000000000000000000000000000000000000000000000000000000000000000000000000000000000000000000000000000000000000000000000000000000000000000000000000000000000000000000000000000000000000000000000000000000000000000000000000000000000000000000000000000000000000000000000000000000000000000000000000000000000000000000000000000000000000000000000000000000000000000000000000000000000000000000000000000000000000000000000000000000000000000000000000000000000000000000000000000000000000000000000000000000000000000000000000000000000000000000000000000000000000000000000000000000000000000000000000000000000000000000000000000000000000000000000000000000000000000000000000000000000000000000000000000000000000000000000000000000000000000000000000000000000000000000000000000000000000000000000000000000000000000000000000000000000000000000000000000000000000000000000000000000000000000000000000000000000000000000000000000000000000000000000000000000000000000000000000000000000000000000000000000000000000000000000000000000000000000000000000000000000000000000000000000000000000000000000000000000000000000000000000000000000000000000000000000000000000000000000000000000000000000000000000000000000000000000000000000000000000000000000000000000000000000000000000000000000000000000000000000000000000000000000000000000000000000000000000000000000000000000000000000000000000000000000000000000000000000000000000000000000000000000000000000000000000000000000000000000000000000000000000000000000000000000000000000000000000000000000000000000000000000000000000000000000000000000000000000000000000000000000000000000000000000000000000000000000000000000000000000000000000000000000000000000000000000000000000000000000000000000000000000000000000000000000000000000000000000000000000000000000000000000000000000000000000000000000000000000000000000000000000000000000000000000000000000000000000000000000000000000000000000000000000000000000000000000000000000000000000000000000000000000000000000000000000000000000000000000000000000000000000000000000000000000000000000000000000000000000000000000000000000000000000000000000000000000000000000000000000000000000000000000000000000000000000000000000000000000000000000000000000000000000000000000000000000000000000000000000000000000000005256000000000000000000000056520000000000000000000000000000000000000000000000000000000000000000000000000000000000000000000000000000000000000000000000000000000000000000000000000000000000000000000000000000000000000000000000000000000000000000000000000000000000000000000000000000000000000000000000000000000000000000000000000000000000000000000000000000000000000000000000000000000000000000000000000000000000000000000000000000000000000000000000000000000000000000000000000000000000000000000000000000000000000000000000000000000000000000000000000000000000000000000000000000000000000000000000000000000000000000000000000000000000000000000000000000000000000000000000000000000000000000000000000000000000000000000000000000000000000000000000000000000000000000000000000000000000000000000000000000000000000000000000000000000000000000000000000000000000000000000000000000000000000000000000000000000000000000000000000000000000000000000000000000000000000000000000000000000000000000000000000000000000000000000000000000000000000000000000000000000000000000000000000000000000000000000000000000000000000000000000000000000000000000000000000000000000000000000000000000000000000000000000000000000000000000000000000000000000000000000000000000000000000000000000000000000000000000000000000000000000000000000000000000000000000000000000000000000000000000000000000000000000000000000000000000000000000000000000000000000000000000000000000000000000000000000000000000000000000000000000000000000000000000000000000000000000000000000000000000000000000000000000000000000000000000000000000000000000000000000000000000000000000000000000
#017361:000052
#017371:00000021
#0173a0:00000000000000140000000000000000
#0173b0:000000000000000000000000000000000000000000000000000000000000000000000000000000000000000000000000000000000000000000000000000000000000000000000000000000000000000000000000000000000000000000000000000000000000000000000000000000000000000000000000000000000000000000000000000000000000000000000000000000000000000000000000000000000000000000000000000000000000000000000000000000000000000000000000000000000000000000000000000000000000000000000000000000000000000000000000000000000000000000000000000000000000000000000000000000000000000000000000000000000000000000000000000000000000000000000000000000000000000000000000000000000000000000000000000000000000000000000000000000000000000000000000000000000000000000000000000000000000000000000000000000000000000000000000000000000000000000000000000000000000000000000000000000000000000000000000000000000000000000000000000000000000000000000000000000000000000000000000000000000000000000000000000000000000000000000000000000000000000000000000000000000000000000000000000000000000000000000000000000000000000000000000000000000000000000000000000000000000000000000000000000000000000000000000000000000000000000000000000000000000000000000000000000000000000000000000000000000000000000000000000000000000000000000000000000000000000000000000000000000000000000000000000000000000000000000000000000000000000000000000000000000000000000000000000000000000000000000000000000000000000000000000000000000000000000000000000000000000000000000000000000000000000000000000000000000000000000000000000000000000000000000000000000000000000000000000000000000000000000000000000000000000000000000000000000000000000000000000000000000000000000000000000000000000000000000000000000000000000000000000005200000000000000000000000000000000000000000000000000000000000000000000000000000000000000000000000000000000000000000000000000000000000000000000000000000000000000000000000000000000000000000000000000000000000000000000000000000000000000000000000000000000000000000000000000000000000000000000000000000000000000000000000000000000000000000000000000000000000000000000000000000000000000000000000000000000000000000000000000000000000000000000000000000000000000000000000000000000000000000000000000000000000000000000000000000000000000000000000000000000000000000000000000000000000000000000000000000000000000000000000000000000000000000000000000000000000000000000000000000000000000000000000000000000000000000000000000000000000000000000000000000000000000000000000000000000000000000000000000000000000000000000000000000000000000000000000000000000000000000000000000000000000000000000000000000000000000000000000000000000000000000000000000000000000000000000000000000000000000000000000000000000000000000000000000000000000000000000000000000000000000000000000000000000000000000000000000000000000000000000000000000000000000000000000000000000000000000000000000000000000000000000000000000000000000000000000000000000000000000000000000000000000000000000000000000000000000000000000000000000000000000000000000000000000000000000000000000000000000000000000000000000000000000000000000000000000000000000000000000000000000000000000000000000000000000000000000000000000000000000000000000000000000000000000000000000000000000000000000000000000000000000000000000000000000000000000000000000000000000000000000000000000000000000000000000000000000000000000000000000000000000000000000000000000000000000000000000000000000000000000000000000000000000000000000000000000000000000000000000000000000000000000000000000000000000000000000000000000000000000000000000000000000000000000000000000000000000000000000000000000000000000000000000000000000000000000000000000000000000000000000000000000000000000000000000000000000000000000000000000000000000000000000000000000000000000000000000000000000000000000000000000000000000000000000000000000000000000000000000000000000000000000000000000000000000000000000000000000000000000
#017390:000000000000000000000000000000000000000000000000000000000000000000000000000000000000000000000000000000000000000000000000000000000000000000000000000000000000000000000000000000000000000000000000000000000000000000000000000000000000000000000000000000000000000000000000000000000000000000000000000000000000000000000000000000000000000000000000000000000000000000000000000000000000000000000000000000000000000000000000000000000000000000000000000000000000000000000000000000000000000000000000000000000000000000000000000000000000000000000000000000000000000000000000000000000000000000000000000000000000000000000000000000000000000000000000000000000000000000000000000000000000000000000000000000000000000000000000000000000000000000000000000000000000000000000000000000000000000000000000000000000000000000000000000000000000000000000000000000000000000000000000000000000000000000000000000000000000000000000000000000000000000000000000000000000000000000000000000000000000000000000000000000000000000000000000000000000000000000000000000000000000000000000000000000000000000000000000000000000000000000000000000000000000000000000000000000000000000000000052000000000000520000000000000000000000000000000000000000000000000000000000000000000000000000000000000000000000000000000000000000000000000000000000000000000000000000000000000000000000000000000000000000000000000000000000000000000000000000000000000000000000000000000000000000000000000000000000000000000000000000000000000000000000000000000000000000000000000000000000000000000000000000000000000000000000000000000000000000000000000000000000000000000000000000000000000000000000000000000000000000000000000000000000000000000000000000000000000000000000000000000000000000000000000000000000000000000000000000000000000000000000000000000000000000000000000000000000000000000000000000000000000000000000000000000000000000000000000000000000000000000000000000000000000000000000000000000000000000000000000000000000
#017350:000000000000000000000000000000000000000000000000000000000000000000000000000000000000000000000000000000000000000000000000000000000000000000000000000000000000000000000000000000000000000000000000000000000000000000000000000000000000000000000000000000000000000000000000000000000000000000000000000000000000000000000000000000000000000000000000000000000000000000000000000000000000000000000000000000000000000000000000000000000000000000000000000000000000000000000000000000000000000000000000000000000000000000000000000000000000000000000000000000000000000000000000000000000000000000000000000000000000000000000000000000000000000000000000000000000000000000000000000000000000000000000000000000000000000000000000000000000000000000000000000000000000000000000000000000000000000000000000000000000000000000000000000000000000000000000000000000000000000000000000000000000000000000000000000000000000000000000000000000000000000000000000000000000000000000000000000000000000000000000000000000000000000000000000000000000000000000000000000000000000000000000000000000000000000000000000000000000000000000000000000000000000000000000000000000000000000000000000560000000056000000000000000000000000000000000000000000000000000000000000000000000000000000000000000000000000000000000000000000000000000000000000000000000000000000000000000000000000000000000000000000000000000000000000000000000000000000000000000000000000000000000000000000000000000000000000000000000000000000000000000000000000000000000000000000000000000000000000000000000000000000000000000000000000000000000000000000000000000000000000000000000000000000000000000000000000000000000000000000000000000000000000000000000000000000000000000000000000000000000000000000000000000000000000000000000000000000000000000000000000000000000000000000000000000000000000000000000000000000000000000000000000000000000000000000000000000000000000000000000000000000000000000000000000000000000000000000000000000000000000
#017380:000000000000000052210000
#018320:12
#018370:00220000
#0183a0:0000000012220000
#018380:00000000000000000056000000000000
#018340:0000000000001222
#018320:00000000000000000000000000560000
#019350:13
#019320:0000005300000000230000000000000000000000000000000000000000000000
#019381:13
#0193b1:0000005300000000230000000000000000000000000000000000000000000000
#0203c1:125252000000000000220000000000000000000000000000
#0203a1:00540000000000000000000000000000
#020320:000000000000120052545200000000000000220000000000000000000000000000000000000000000000000000000000
#020380:00001222
#0203c0:0000000000320000
#020321:00000012
#020361:0000000000000032
#021321:22
#021370:12550000000000000000000000000000
#0213a0:0022000000000000
#021321:00001255000000000000000000000000
#021351:00220000
#021390:00000000125500000000000000000000
#0213c0:0000002200000000
#021341:00000000000012550000000000000000
#021371:0022
#024371:13330000
#0243b1:0033002300000000
#025361:13330000
#025321:0033002300000000
#028361:13330000
#028321:0033002300000000
#029371:13330000
#0293b1:0033002300000000
#031361:0000001300230000
#031321:0053
#0323a1:00001424
#032351:0000000000540000
#032321:0000000000000014
#033371:54
#033321:0024000000000000
#033321:0000000018000022
#034371:12240000
#0343b1:0053000000000000
#034320:00132500
#034370:0000005400000000
#0343a1:0014
#034331:0000000000550000
#034381:00000026
#034320:00000015
#034380:0000000000000056
#035320:27
#0353a1:14000054340000000000000000000000
#035361:00543400005424000000000000000000
#0353a1:00000000000000000000001400240000
#035321:00000000000000000000000000000012
#037321:22
#037370:12560000000000000000000000000000
#0373b0:0022000000000000
#037321:00001256000000000000000000000000
#037361:00220000
#037380:0000000000000000120000560000000000000000000000000000000000000000
#0373c0:00000000000000220000000000000000
#0383c0:12
#0393c0:22
#039371:12
#039331:00562200000000000000000000000000
#0393c0:0012000000000000
#039380:00000056220000000000000000000000
#039361:00120000
#039321:0000000000000000000000560000220000000000000000000000000000000000
#0403b1:13
#040371:00530000000000000000000000000000
#040381:0024000000000000
#040320:19000000550000000057000000000000580000005400000000560000000000005700000000005300000000000055000056000000000000005400000000000000
#041320:22
#0403a1:00130000
#040361:00000000005300000000000000000000
#040371:0000002400000000
#040391:0013
#040351:0000000000000000000000000000000000000053000000000000000000000000
#040361:00000000000000000000002400000000
#041350:00140000
#0413a0:00000000000000240000000000000000
#042320:13
#042360:00530000000000000000000000000000
#042340:0024000000000000
#042351:19
#042391:00000000550000000000000000000000000000000000000000000000000000000000000000000000000000000055000000000000000000000000000000000000
#042371:00000000000000000057000000000000000000000000000000000000000000005700000000000000000000000000000000000000000000000000000000000000
#042361:00580000
#0423a1:00000000005400000000000000000000
#042381:000000000000000000000000000000000000000000000000000000000000000000000000000000000000000000000000000000000000000000000000000000000000000000000000000000560000000000000000000000000000000000000000000000000000000000000000000000000000000000000000000000000000000000000000000000000000000000000000000000005600000000000000000000000000000000000000000000000000000000000000000000000000000000000000
#0423b1:0000000000000000000000000000000000000053000000000000000000000000
#0423c1:0000000000000022
#042330:00130000
#042370:00000000005300000000000000000000
#042350:0000002400000000
#042340:0013
#042380:0000000000000000000000000000000000000053000000000000000000000000
#042360:00000000000000000000002400000000
#043371:00140000
#043321:00000000000000240000000000000000
#044321:13
#044361:00530000000000000000000000000000
#044341:0024000000000000
#044350:19
#044390:00000000550000000000000000000000000000000000000000000000000000000000000000000000000000000055000000000000000000000000000000000000
#044370:00000000000000000057000000000000000000000000000000000000000000005700000000000000000000000000000000000000000000000000000000000000
#044360:00580000
#0443a0:00000000005400000000000000005400
#044380:00000000000000000000000000000000000000000000000000560000000000000000000000000000000000000000000056000000000000000000000000000000
#0443b0:0000000000000000000000000000000000000053000000000000000000000000
#0453c0:22
#044331:00130000
#044371:00000000005300000000000000000000
#044351:0000002400000000
#044341:0013
#044381:0000000000000000000000000000000000000053000000000000000000000000
#044361:00000000000000000000002400000000
#045370:00140000
#045320:00000000000000240000000000000000
#0463b0:13
#046370:00530000000000000000000000000000
#046380:0024000000000000
#046321:190000000000000000000000550000000000000000000000000000570000000000000000000000000000000000000000580000000000000000000000540000000000000000000000000000560000000000000000000000000000000000000000570000000000000000000000000000000000530000000000000000000000000000000000000000550000000000000000000000005600000000000000000000000000000000000000220000000000000000000000000000000000000000000000
#0463a0:00130000
#046360:00000000005300000000000000000000
#046370:0000002400000000
#046390:0013
#046350:0000000000000000000000000000000000000053000000000000000000000000
#046360:00000000000000000000002400000000
#047351:00140000
#0473a1:00000000000000240000000000000000
#048321:16
#048341:000000000000000000000000000000000000000000000000000000000000000000000000000000000000000000000000000000000000000000000000000000000000000000000000000000000000000000000000000000000000000000000000000000000000000000000000000000000000000000000000545800000000000000000000000000000000000000000000000000000000000000000000000000000000000000000000000000000000000000000000000000000000000000000000000000000000000000000000000000000000000000000000000000000000000000000000000000000000000000000000000000000000000000000000000000000000000000000000000000000000000000000000000000000000000000000000000000000000000000000000000000000000000000000000000000000000000000000000000000000000000000000000000000000000000000000000000000000000000000000000000000000000000000000000000000000000000000000000000000000000000000000000000000000000000000000000000000000000000000000000000000000000000000000000000000000000000000000000000000000000000000000000000000000000000000000000000000000000000000000000000000000000000000000000000000000000000000000000000000000000000000000000000000000000000000000000000000000000000000000000000000000000000000000000000000000000000000000000000000000000000000000000000000000000000000000000000000000000000000000000000000000000000000000000000000000000000000000000000000000000000000000000000000000000000000000000000000000000000000000000000000000000000000000000000000000000000000000000000000000000000000000000000000000000000000000000000000000000000000000000000000000000000000000000000000000000000000000000000000000000000000000000000000000000000000000000000000000000000000000000000000000000000000000000000000000000000000000000000000000000000000000000000000000000000000000000000000000000000000000000000000000000000000000000000000000000000000000000000000000000000000000000000000000000000000000000000000000000000000000000000000000000000000000000000000000000000000000000000000000000000000000000000000000000000000000000000000000000000000000000
#048361:00000000000000000000000000000000000000000000000000000000000000000000000000000000000000000000000000000000000000000000000000000000000000000000000000000000000000000000000000000000000000000000000000000000000000000000000000000000000000000000000000000000000000000000000000000000000000000000000000000000000000000000000000000054220000000000000000000000000000000000000000000000000000000000000000000000000000000000000000000000000000000000000000000000000000000000000000000000000000000000000000000000000000000000000000000000000000000000000000000000000000000000000000000000000000000000000000000000000000000000000000000000000000000000000000000000000000000000000000000000000000000000000000000000000000000000000000000000000000000000000000000000000000000000000000000000000000000000000000000000000000000000000000000000000000000000000000000000000000000000000000000000000000000000000000000000000000000000000000000000000000000000000000000000000000000000000000000000000000000000000000000000000000000000000000000000000000000000000000000000000000000000000000000000000000000000000000000000000000000000000000000000000000000000000000000000000000000000000000000000000000000000000000000000000000000000000000000000000000000000000000000000000000000000000000000000000000000000000000000000000000000000000000000000
#048380:1654220000000000
#048340:000000000000000000000000000000000000000000000000000000000000000000000000000000000000000000000000000000000000000000000000000000000000000000000000000000000000000000000000000000000000000000000000000000000000000000000000000000000000000000000000000000000000000000000000000000000000000000000000000000000000000000000000000000000000000000000000000000000000000000000000000000000000000000000000000000000000000000000000000000000000000000000000000000000000000000000000000000000000000000000000005800000000000000000000000000000000000000000000000000000000000000000000000000000000000000000000000000000000000000000000000000000000000000000000000000000000000000000000000000000000000000000000000000000000000000000000000000000000000000000000000000000000000000000000000000000000000000000000000000000000000000000000000000000000000000000000000000000000000000000000000000000000000000000000000000000000000000000000000000000000000000000000000000000000000000000000000000000000000000000000000000000000000000000000000000000000000000000000000000000000000000000000000000000000000000000000000000000000000000000000000000000000000000000000000000000000000000000000000000000000000000000000000000000000000000000000000000000000000000000000000000000000000000000000000000000000000000000000000000000000000000000000000000000000000000000000000000000000000000000000000000000000000000000000000000000000000000000000000000000000000000000000000000000000000000000000000000000000000000000000000000000000000000000000000000000000000000000000000000000000000000000000000000000000000000000000000000000000000000000000000000000000000000000000000000000000000000000000000000000000000000000000000000000000000000000000000000000000000000000000000000000000000000000000000000000000000000000000000000000000000000000000000000000000000000000000000000000000000000000000000000000000000000000000000000000000000000000000000000000000000000000000000000000000000000000000000000000000000000000000000000000000000000000000000000000000000000000000000000000000000000000000000000000000000000000000000000000000000000000000000000000000000000000000000000000000000000000000000000000000000000000000000000000000000000000000000000000000000000000000000000000000000000000000000000000000000000000000000000000000000000000000000000000000000000000000000000000000000000000000000000000000000000000000000000000000000000000000000000000000000000000000000000000000000000000000000000000000000000000000000000000000000000000000000000000000000000000000000000000000000000000000000000000000000000000000000000000000000000000000000000000000000000000000000000000000000000000000000000000000000000000000000000000000000000000000000000000000000000000000000000000000000000000000000000000000000000000000000000000000000000000000000000000000000000000000000000000000000000000000000000000000000000000000000000000000000000000000000000000000000000000000000000000000000000000000000000000000000000000000000000000000000000000000000000000000000000000000000000000000000000000000000000000000000000000000000000000000000000000000000000000000000000000000000000000000000000000000000000000000000000000000000000000000000000000000000000000000000000000000000000000000000000000000000000000000000000000000000000000000000000000000000000000000000000000000000000000000000000000000000000000000000000000000000000000000000000000000000000000000000000000000000000000000000000000000000000000000000000000000000000000000000000000000000000000000000000000000000000000000000000000000000000000000000000000000000000000000000000000000000000000000000000000000000000000000000000000000000000000000000000000000000000000000000000000000000000000000000000000000000000000000000000000000000000000000000000000000000000000000000000000000000000000000000000000000000000000000000000000000000000000000000000000000000000000000000000000000000000000000000000000000000000000000000000000000000000000000000000000000
#048360:000000000000000000000000000000000000000000000000000000000000000000000000000000000000000000000000000000000000000000000000000000000000000000000000000000000000000000000000000000000000000000000000000000000000000000000000000000000000000000000000000000000000000000000000000000000000000000000000000000000000000000000000000000000000000000000000000000000000000000000000000000000000000000000000000000000000000000000000000000000000000000000000000000000000000000000000000000000000000000000000000000000000000000000000000000000000000000000000000000000000000000000000000000000000000000000000000000000000000000000000000000000000000000000000000000000000000000000000000000000000000000000000000000000000000000000000000000000000000000000000000000000000000000000000000000000000000000000000000000000000000000000000000000000000000000000000000000000000000000000000000000000000000000000000000000000000000000000000000000000000000000000000000000000000000000000000000000000000000000000054000000000000000000000000000000000000000000000000000000000000000000000000000000000000000000000000000000000000000000000000000000000000000000000000000000000000000000000000000000000000000000000000000000000000000000000000000000000000000000000000000000000000000000000000000000000000000000000000000000000000000000000000000000000000000000000000000000000000000000000000000000000000000000000000000000000000000000000000000000000000000000000000000000000000000000000000000000000000000000000000000000000000000000000000000000000000000000000000000000000000000000000000000000000000000000000000000000000000000000000000000000000000000000000000000000000000000000000000000000000000000000000000000000000000000000000000000000000000000000000000000000000000000000000000000000000000000000000000000000000000000000000000000000000000000000000000000000000000000000000000000000000000000000000000000000000000000000000000000000000000000000000000000000000000000000000000000000000000000000000000000000000000000000000000000000000000000000000000000000000000000000000000000000000000000000000000000000000000000000000000000000000000000000000000000000000000000000000000000000000000000000000000000000000000000000000000000000000000000000000000000000000000000000000000000000000000000000000000000000000000000000000000000000000000000000000000000000000000000000000000000000000000000000000000000000000000000000000000000000000000000000000000000000000000000000000000000000000000000000000000000000000000000000000000000000000000000000000000000000000000000000000000000000000000000000000000000000000000000000000000000000000000000000000000000000000000000000000000000000000000000000000000000000000000000000000000000000000000000000000000000000000000000000000000000000000000000000000000000000000000000000000000000000000000000000000000000000000000000000000000000000000000000000000000000000000000000000000000000000000000000000000000000000000000000000000000000000000000000000000000000000000000000000000000000000000000000000000000000000000000000000000000000000000000000000000000000000000000000000000000000000000000000000000000000000000000000000000000000000000000000000000000000000000000000000000000000000000000000000000000000000000000000000000000000000000000000000000000000000000000000000000000000000000000000000000000000000000000000000000000000000000000000000000000000000000000000000000000000000000000000000000000000000000000000000000000000000000000000000000000000000000000000000000000000000000000000000000000000000000000000000000000000000000000000000000000000000000000000000000000000000000000000000000000000000000000000000000000000000000000000000000000000000000000000000000000000000000000000000000000000000000000000000000000000000000000000000000000000000000000000000000000000000000000000000000000000000000000000000000000000000000000000000000000000000000000000000000000000000000000000000000000000000000000000000000000000000000000000000000000
#048360:00000000000000000000000000000000000000000000000000000000000000001200000000520000000000520052000022000000000000000000000000000000
#048370:000000000000000000000000000000000000000000000000000000000000000000000000000000000000000000000000000000000000000000000000000000000000000000000000000000000000000000000000000000000000000000000000000000000000000000000000000000000000000000000000000000000000000000000000000000000000000000000000000000000000000000000000000000000000000000000000000000000000000000000000000000000000000000000000000000000000000000000000000000000000000000000000000000000000000000000000000000000000000000000000000000000000000000000000000000000000000000000000000000000000000000000000000000000000000000000000000000000000000000000000000000000000000000000000000000000000000000000000000000000000000000000000000000000000000000000000000000000000000000000000000000000000000000000000000000000000000000000000000000000000000000000000000000000000000000000000000000000000000000000000000000000000000000000000000000000000000000000000000000000000000000000000000000000000000000000000000000000000000000000000000051000000000000000000000000000000000000000000000000000000000000000000000000000000000000510000000000000000000000000000000000000000000000000000000000000000000000000000000000000000000000000000000000000000000000000000000000000000000000000000000000000000000000000000000000000000000000000000000000000000000000000000000000000000000000000000000000000000000000000000000000000000000000000000000000000000000000000000000000000000000000000000000000000000000000000000000000000000000000000000000000000000000000000000000000000000000000000000000000000000000000000000000000000000000000000000000000000000000000000000000000000000000000000000000000000000000000000000000000000000000000000000000000000000000000000000000000000000000000000000000000000000000000000000000000000000000000000000000000000000000000000000000000000000000000000000000000000000000000000000000000000000000000000000000000000000000000000000000000000000000000000000000000000000000000000000000000000000000000000000
#048350:000000000000000000000000000000000000000000000000000000000000000000000000000000000000000000000000000000000000000000000000000000000000000000000000000000000000000000000000000000000000000000000000000000000000000000000000000000000000000000000000000000000000000000000000000000000000000000000000000000000000000000000000000000000000000000000000000000000000000000000000000000000000000000000000000000000000000000000000000000000000000000000000000000005300000000000000000053000000000000000000000000000000000000000000000000005300000000000000000000000000000000000000000000530000000000000000000000000000000000000000000000000000000000000000000000000000000000000000000000000000000000000000000000000000000000000000000000000000000000000000000000000000000000000000000000000000000000000000
#048340:0000000000000000000000000000000000000054540054000000000000000000
#048330:000000000000000000000000000000000000000000000000000000000000000000000000000000000000000000000000000000000000000000000000000000000000000000000000000000000000000000000000000000000000000000000000000000000000000000000000000000000000000000000055000000000000550000000000000000000000000000000000000000000000000000000000000000000000000000000000000000000000000000000000000000000000000000000000
#048320:000000000000000000000000000000000000000000000000000000000000000000000000000000000000000000000000000000000000000000000000000000000000000000000000000000000000000000000000000000000000000000000000000000000000000000000000000000000000000000000000000000000056000000000000000000000000000000000000000000000000000000000000000000000000000000000000000000000000000000000000000000000000000000000000
#048381:000000000000000000000000000000000000000000000000000000000000000000000000000000000000000000000000000000000000000000000000000000000000000000000000000000000000000000000000000000000000000000000000120000000000000000000000000053520000545300000055540000000056550053520000530054005300550053005400220000000000000000000000000000000000000000000000000000000000000000000000000000000000000000000000
#048391:000000000000000000000000000000000000000000000000000000000000000000000000000000000000000000000000000000000000000000000000000000000000000000000000000000000000000000000000000000000000000000000000000000000000000000000000000000000000000000000000000000000000000000000000000000000000000000000000000000000000000000000000000000000000000000000000000000000000000000000000000000000000000000000000000000000000000000000000000000000000000000000000000000000000000000000000000000000000000000000000000000000000000000000000000000000000000000000000000000000000000000000000000000000000000000000000000000000000000000000000000000000000000000000000000000000000000000000000000000000000000000000000000000000000000000000000000000000000000000000000000000000000000000000000000000000000000000000000000000000000000000000000000000000000000000000000000000000000000000000000000000000000000000000000000000000000000000000000000000000000000000000000000000000000000000000000000000000000000000000000000051000000000000000000000000000000000000000000000000000000000000000000000000000000000000510000000000000000000000000000000000000000000000000000000000000000000000000000000000000000000000000000000000000000000000000000000000000000000000000000000000000000000000000000000000000000000000000000000000000000000000000000000000000000000000000000000000000000000000000000000000000000000000000000000000000000000000000000000000000000000000000000000000000000000000000000000000000000000000000000000000000000000000000000000000000000000000000000000000000000000000000000000000000000000000000000000000000000000000000000000000000000000000000000000000000000000000000000000000000000000000000000000000000000000000000000000000000000000000000000000000000000000000000000000000000000000000000000000000000000000000000000000000000000000000000000000000000000000000000000000000000000000000000000000000000000000000000000000000000000000000000000000000000000000000000000000000000000000000000000
#049361:1200005200000000000000000000000000000000000000000000000000000000000000005200000000000000000000000000000000000000000000000000000000000000000000000000000000000000000000000000000000000000000000000000000000000000000000000000000000000000000000000000000000000000
#049341:000000000054000000000000000000000000000000000000000000000000000000000000000000000000000000000000000000000000000000000000000000000000000000000000000000000000000000000000000000000000000000000000
#049331:000000000000000000000000000000000000000000550000000000000000000000000000000000000000000000000000000000000000000000000000000000000055000000000000000000000000005500000000000000000000000000000000000000000000000000000000000000000000000000000000000000000000000000000000000000000000000000000000000000000000000000000000000000000000000000000000000000000000000000000000000000000000000000000000000000000000000000000000000000000000000000000000000000000000000000000000000000000000000000000000000000000000000000000000000000000000000000000000000000000000000000000000000000000000000000000000000000000000000000000000000000000000000000000000000000000000000000000000000000000000000000000000000000000000000000000000000000000000000000000000000000000000000000000000000000000000000000000000
#049321:000000000000000000000000000000000056000000000000000000000000000000560000000000000000000000000000000000000000000000000000000000000000000000000000550000000000000000000000000000000000000000000000220000000000000000000000000000000000000000000000000000000000000000000000000000000000000000000000000000000000000000000000000000000000000000000000000000000000000000000000000000000000000000000000
#049380:120000000000000000520000000000000000000054550000000000000000000000005600000000000000000000000000000000000000000000000000000000000055560000000000000000000000005500000000000000000000000000000000000000000000000000000000520000000000000000000000000000000000000000000000000000000000000000000000000000000000000000000000000000000000000000000000000000000000000000000000000000000000000000000000000000000000000000000000000000000000000000000000000000000000000000000000000000000000000000000000000000000000000000000000000000000000000000000000000000000000000000000000000000000000000000000000000000000000000000000000000000000000000000000000000000000000000000000000000000000000000000000000000000000000000000000000000000000000000000000000000000000000000000000000000000000000000000000000
#049390:0000005500000000
#0493c0:0022
#051320:160000000000000000000000000000000000000000000000000000000000000000000000000000000000000000000000000000000000000000000056530000000000000000000000000000000000000000000000000000000000520000000000000000000000000000000000000000000000000000000000530000000000000000000000000000000000000000000000000000000000540000000000000000000000000000000000000000000000000000000000530000000000000000000000000000000000000000000000000000000000540000000000000000000000000000000000000000000000000000000000550000000053000000000000000000000000000000000000000000000000000000000000000000005300000000000000000000000000000000000000000000000000000000000000000000000000000000000000000000000000000000000000000000000000000000550000000053000000000000000000000000000000000000000000000000000000000000000000005300000000550000000000000000000000000000000000000000000000000000000000000000000000000000000000000000000000000000000000000000000000560000000054000000000000000000000000000000000000000000000000000000000000000000005400000000000000000000000000000000000000000000000000000000000000000000000000000000000000000000000000000000000000000000000000000000560000000054000000000000000000000000000000000000000000000000000000000000000000005400000000560000000000000000000000000000000000000000000000000000000000000000000000000000000000000000000000000000000000000000000000570000000055000000000000000000000000000000000000000000000000000000000000000000005500000000000000000000000000000000000000000000000000000000000000000000000000000000000000000000000000000000000000000000000000000000570000000055000000000000000000000000000000000000000000000000000000000000000000005500000000570000000000000000000000000000000000000000000000000000000000000000000000000000000000000000000000000000000000000000000000000000000000000000000000000000000000000000000000000000000000000000000000000000000000000000000000000000000000000000000000000000000000000000000000000000000000000000000000000000000000270000000000000000000000000000000000000000000000000000000000000000000000000000000000000000000000000000000000000000000000000000000000000000000000000000000000000000000000000000000000000000000000000000000000000000000000000000000000000000000000000000000000000000000000000000000000000000000000000000000000000000000000000000000000000000000000000000000000000000000000000000000000000000000000000000000000000000000000000000000000000000000000000000000000000000000000000000000000000000000000000000000000000000000000000000000000000000000000000000000000000000000000000000000000000000000000000000000000000000000000000000000000000000000000000000000000000000000000000000000000000000000000000000000000000000000000000000000000000000000000000000000000000000000000000000000000000000000000000000000000000000000000000000000000000000000000000000000000000000000000000000000000000000000000000000000000000000000000000000000000000000000000000000000000000000000000000000000000000000000000000000000000000000000000000000000000000000000000000000000000000000000000000000000000000000000000000000000000000000000000000000000000000000000000000000000000000000000000000000000000000000000000000000000000000000000000000000000000000000000000000000000000000000000000000000000000000000000000000000000000000000000000000000000000000000000000000000000000000000000000000000000000000000000000000000000000000000000000000000000000000000000000000000000000000000000000000000000000000000000000000000000000000000000000000000000000000000000000000000000000000000000000000000000000000000000000000000000000000000000000000000000000000000000000000000000000000000000000000000000000000000000000000000000000000000000000000000000000000000000000000000000000000000000000000000000000000000000000000000000000000000000000000000000000000000000000000000000000000000000000000000000000000000000000000000000000000000000000000000000000000000000000000000000000000000000000000000000000000000000000
#051381:160000000000000000000000000000000000000000000000000000000000000000000000000000000000000000000000000000000000000000000056000000000000000000000000000000000000000000000000000000000000000000000000000000000000000000000000000000000000000000000000000000000000000000000000000000000000000000000000000000000000000000000000000000000000000000000000000000000000000000000000000000000000000000000000000000000000000000000000000000000000000000000000000000000000000000000000000000000000000000000000000000000000000000000000000000000000000000000000000000000000000000000000000000000000000000000000000000000000000000000000000000000000000000000000000000000000000000000000000000000000000000000000000000000000000000000000000000000000000000000000000000000000000000000000000000000000000000000000000000000000000000000000000000000000000000000000000000000000000000000000000000000000000000000000000000000000000000000000000000000000560000000000000000000000000000000000000000000000000000000000000000000000000000000000000000560000000000000000000000000000000000000000000000000000000000000000000000000000000000000000000000000000000000000000000000000000000000000000000000000000000000000000000000000000000000000000000000000000000000000000560000000000000000000000000000000000000000000000000000000000000000000000000000000000000000000000000000000000000000000000000000000000000000000000000000000000000000000000000000000000000000000000000000000000000000000000000000000000000000000000000000000000000000000000000000000000000000000000000000000000000000000000000000000000000000000000000000000000000000000000000000000000000000000000000000000000000000000000000000000000000000000000000000000000000000000000000000000000000000000000000000000000000000000000000000000000000000000000000000000000000000000000000000000000000000000000000000000000000000000000000000000000000000000000000000000000000000000000000000000000000000000000000000000000000000000000000000000000000000000000000000000000000000000000000000000000000000000000000000000000000000000000000000000000000000000000000000000000000000000000000000000000000000000000000000000000000000000000000000000000000000000000000000000000000000000000000000000000000000000000000000000000000000000000000000000000000000000000000000000000000000000000000000000000000000000000000000000000000000000000000000000000000000000000000000000000000000000000000000000000000000000000000000000000000000000000000000000000000000000000000000000000000000000000000000000000000000000000000000000000000000000000000000000000000000000000000000000000000000000000000000000000000000000000000000000000000000000000000000000000000000000000000000000000000000000000000000000000000000000000000000000000000000000000000000000000000000000000000000000000000000000000000000000000000000000000000000000000000000000000000000000000000000000000000000000000000000000000000000000000000000000000000000000000000000000000000000000000000000000000000000000000000000000000000000000000000000000000000000000000000000000000000000000000000000000000000000000000000000000000000000000000000000000000000000000000000000000000000000000000000000000000000000000000000000000000000000000000000000000000000000000000000000000000000000000000000000000000000000000000000000000000000000000000000000000000000000000000000000000000000000000000000000000000000000000000000000000000000000000000000000000000000000000000000000000000000000000000000000000000000000000000000000000000000000000000000000000000000000000000000000000000000000000000000000000000000000000000000000000000000000000000000000000000000000000000000000000000000000000000000000000000000000000000000000000000000000000000000000000000000000000000000000000000000000000000000000000000000000000000000000000000000000000000000000000000000000000000000000000000000000000000000000000000000000000000000000000000000000000000000000000000000000000000000000000000000000000000000000000000
#051351:0059590000000000000000000000000000000000000000000000000000000000
#051361:00000058005800580000000000000000000000000000000000000000000000000000000000000000000000000000000000000000000000000000000000000000
#051371:0000000000000000000000005700000057000057000000000000570000000000000000000000000000000000000000000000000000000000000000000000000000000000000000000000000000000000000000000000000000000000000000000000000000000000000000000000000000000000000000000000000000000000
#051391:000000000000000000000000000000000000000000000000000000000000000000000000000000000000000000000000005500000000000055000000000000000000000000005500000000000055000000000000000000000000000000000000000000000000000000000000000000000000000000000000000000000000000000000000550000000000000000550000000000000000000000000000000000000000550000000000000000000000000000000000000000000000000000000000250000000000000000000000000000000000000000000000000000000000000000000000000000000000000000000000000000000000000000000000000000000000000000000000000000000000000000000000000000000000000000000000000000000000000000000000000000000000000000000000000000000000000000000000000000000000000000000000000000000000000000000000000000000000000000000000000000000000000000000000000000000000000000000000
#0513a1:000000000000000000000000000000000000000000000000000000000000000000000000000000000000000000000000000000000000000000000000000000000000000000000000000000000000000000000000000000000000005400000000000054000000000000000000000000005400000000000054000000000000000000000000000000000000000000000000000000000000000000000000000000000000000000000000000000000000000000000000000000000000000000000000000000000000000000000000000000000000000000000000000000000000000000000000000000000000000000000000000000000000000000000000000000000000000000000000000000000000000000000000000000000000000000000000000000000000000000000000000000000000000000000000000000000000000000000000000000000000000000000000000000000000000000000000000000000000000000000000000000000000000000000000000000000000000000000000
#0513b1:000000000000000000000000000000000000000000000000000000000000000000000000000000000000000000000000000000000000000000000000000000000000000000000000000000000000000000000000000000000000000000000000000000000000000000000000000000000000000000000000000000000000000000000000005300000000000053000000000000000000000000005300000000000053000000000000000000000000000000000000000000000000000000000000000000000000000000000000000000000000000000000000000000000000000000000000000000000000000000000000000000000000000000000000000000000000000000000000000000000000000000000000000000000000000000000000000000000000000000000000000000000000000000000000000000000000000000000000000000000000000000000000000000000000000000000000000000000000000000000000000000000000000000000000000000000000000000000000
#0523a1:12525222
#052381:0052000000520000
#0523c1:0000005200000000
#052340:12525222
#052320:0052000000520000
#052360:0000005200000000
#053370:1200323222000000
#0563a0:14
#056380:00540000540000000000000000000000000000000000000000000000000000000000000000000000000000000000000000000000000000000000000000000000
#056390:0054000000000000000000000000000000000000000000000000000000000000
#056370:00000054000054000000000000000000000000000000000000000000000000000000000000000000000000000000000000000000000000000000000000000000
#056360:00000000005400002400000000000000000000000000000000000000000000000000000000000000000000000000000000000000000000000000000000000000
#056350:00000000000000540000000000000000000000000000000000000000000000000000000000000000000000000000000000000000000000000000000000000000
#056320:00140000
#056340:00000000000000000000000000000000005400005400000000000000000000000000000000000000000000000000000000000000000000000000000000000000
#056330:0000000000000000005400000000000000000000000000000000000000000000
#056350:00000000000000000000000000000000000000540000540000000000000000000000000000000000000000000000000000000000000000000000000000000000
#056360:00000000000000000000000000000000000000000054000024000000000000000000000000000000000000000000000000000000000000000000000000000000
#056370:00000000000000000000000000000000000000000000005400000000000000000000000000000000000000000000000000000000000000000000000000000000
#0563a0:0014
#056380:00000000000000000000000000000000000000000000000000000000000000000054000054000000000000000000000000000000000000000000000000000000
#056390:0000000000000000000000000000000000540000000000000000000000000000
#056370:00000000000000000000000000000000000000000000000000000000000000000000005400005400000000000000000000000000000000000000000000000000
#056360:00000000000000000000000000000000000000000000000000000000000000000000000000540000240000000000000000000000000000000000000000000000
#056350:00000000000000000000000000000000000000000000000000000000000000000000000000000054000000000000000000000000000000000000000000000000
#056320:00000014
#056340:00000000000000000000000000000000000000000000000000000000000000000000000000000000000000000000000000540000540000000000000000000000
#056330:0000000000000000000000000000000000000000000000000054000000000000
#056350:00000000000000000000000000000000000000000000000000000000000000000000000000000000000000000000000000000054000054000000000000000000
#056360:00000000000000000000000000000000000000000000000000000000000000000000000000000000000000000000000000000000005400002400000000000000
#056370:00000000000000000000000000000000000000000000000000000000000000000000000000000000000000000000000000000000000000540000000000000000
#057360:00000000000000140000000024000000
#057320:0000000000000000000000000000000000000053000000000000000000000000
#0583b0:13000023000000000000000000000000
#058370:0000005300000000000000000000000000000000000000000000000000000000
#058321:00000013000023000000000000000000
#058361:0000000000000000005300000000000000000000000000000000000000000000
#058380:0000001323000000
#058360:00000018
#058320:0000000000000023
#0583b1:0000000000000013
#059371:23
#059320:13
#059360:0023000000000000
#059320:00000000000000150000000025000000
#059330:000000000000000000000000000000000000000000000000000000000000000000000000000000000000000000000000000000000000000000000000000000000000000000000000000000000000000000000000000000000000000000000000000000000000000000000000000000000000000000000000000000000000000000000000000000000000000000000000000000000000000000000000000000000000000000000000000000000000000000000000000000000000000000000000000000000000000000000000000000000000000000000000000000000000000000000000000000000000000000000000000000000000000000000000000000000000000000000000000000000000000000000000000000000000000000000000000000000000000000000000000000000000000000000000000000000000000000000000000000000000000000000000000000000000000000000000000000000000000000000000000000000000000000000000000000000000000000000000000000000000000000000000000000000000000000000000000000000000000000000000005300000000000000000000000000000000000000000000000000000000000000000000000000000000000000000000000000000000000000000000000000000000000000000000000000000000000000000000000000000000000000000000000000000000000000000000000000000000000000000000000000000000000000000000000000000000000000000000000000000000000000000000000000000000000000000000000000000000000000000000000000000000000000000000000000000000000000000000000000000000000000000000000000000000000000000000000000000000000000000000000000000000000000000000000000000000000000000000000000000000000000000000000000000000000000000000000000000000000000000000000000000000000000000000000000000000000000000000000000000000000000000000000000000000000000000000000000000000000000000000000000000000000000000000000000000000000000000000000000000000000000000000000000000000000000000000000000000000000000000000000000000000000000000000000000000000000000000000000000000000000000000000000000000000000000000000000000000000000000000000000000000000000000000000000000000000000000000000000000000000000000000000000000000000000000000000000000000000000000000000
#059340:000000000000000000000000000000000000000000000000000000000000000000000000000000000000000000000000000000000000000000000000000000000000000000000000000000000000000000000000000000000000000000000000000000000000000000000000000000000000000000000000000000000000000000000000000000000000000000000000000000000000000000000000000000000000000000000000000000000000000000000000000000000000000000000000000000000000000000000000000000000000000000000000000000000000000000000000000000000000000000000000000000000000000000000000000000000000000000000000000000000000000000000000000000000000000000000000000000000000000000000000000000000000000000000000000000000000000000000000000000000000000000000000000000000000000000000000000000000000000000000000000000000000000000000000000000000000000000000000000000000000000000000000000000000000000000000000000000000000000000000000000000000000000000000000000000000000000000000000000000000000000000000000000000000000000000000000000000000000000000000000000000000000000000000000000000000000000000000000000000000000000000000000000000000000000000000000000000000000000000000000000000000000000000000000000000000000000000000000000000000000000000000000000000000000000000000000000000000000000000000000000000000000000000000000000000000000000000000000000000000000000000000000000000000000000000000000000000000000000000000000000000000000000000000000000000000000000000000000000000000000000000000000000000000000000000000000000000000000000000000000000000000000000000000000000000000000000000000000000000000000000000000000000000000000000000000000000000000000000000000000000000000000000000000000000000000000000000000000000000000000000000000000000000000000000000000000000000000000000000000000000000000000000000000000000000000000000000000000000000000000000000000000000000000000000000000000000000000000000000000000000000000000000000000000000000000000000000000000000000000000000000000000000000000000000000000000000000000000000000000000000000000000000000000000000000000000000000000000000000000000000000000000000000000000000000000000000000000000000000000000000000000000000000000000000000000000000000000000000000000000000000000000000000000000000000000000000000000000000000000000000000000000000000000000000000000000000000000000000000000000000000000000000000000000000000000000000000000000000000000000000000000000000000000000000000000000000000000000000000000000000000000000000000000000000000000000000000000000000000000000000000000000000000000000000000000000000000000000000000000000000000000000000000000000000000000000000000000000000000000000000000000000000000000000000000000000000000000000000000000000000000000000000000000000000000000000000000000000000000000000000000000000000000000000000000000000000000000000000000000000000000000000000000000000000000000000000000000000000000000000000000000000000000000000000000000000000000000000000000000000000000000000000000000000000000000000000000000000000000000053000000000000000000000000000000000000000000000000000000000000000000000000000000000000000000000000000000000000000000000000000000000000000000000000000000000000000000000000000000000000000000000000000000000000000000000000000000000000000000000000000000000000000000000000000000000000000000000000000000000000000000000000000000000000000000000000000000000000000000000000000000000000000000000000000000000000000000000000000000000000000000000000000000000000000000000000000000000000000000000000000000000000000000000000000000000000000000000000000000000000000000000000000000000000000000000000000000000000000000000000000000000000000000000000000000000000000000000000000000000000000000000000000000000000000000000000000000000000000000000000000000000000000000000000000000000000000000000000000000000000000000000000000000000000000000000000000000000000000000000000000000000000000000000000000000000000000000000000000000000000000000000000000000000000000000000000000000000000000000000000
#059371:0000000000000000000000000000140000000054000000002400000000000000
#0593a1:00000000000000000000000000000000000000000000000000000000000000000054000000000000000000540000000000000000000000000000000000000000
#062381:16560054000000000000000000000000
#0623a1:000000000000000000000000000000000000000000000000000000000000000000000000000000000000000000000000000000000000000000000000000000000000000000000000000000000000000000000000000000000000000000000000000000000000000000000000000000000000000000000000005200000000000000000000000000000000000000000000000000000000000000000000000000000000000000000000000000000000000000000000000000000000000000000000000000000000000000000000000000000000000000000000000000000000000000000000000000000000000000000000000000000000000000000000000000000000000000000000000000000000000000000000000000000000000000000000000000000000000000000000000000000000000000000000000000000000000000000000000000000000000000000000000000000000000000000000000000000000000000005200000000000000000000000000000000000000000000000000000000000000000000000000000000000000000000000000000000000000000000000000000000000000000000000000000000000000000000000000000000000000000000000000000000000000000000000000000000000000000000000000220000000000000000000000000000000000000000000000000000000000000000000000000000000000000000000000000000000000000000000000000000000000000000000000000000000000000000000000000000000000000000000000000000000000000000000000000000000000000000000000000000000000000000000000000000000000000000000000000000000000000000000000000000000000000000000000000000000000000000000000000000000000000000000000000000000000000000000000000000000000000000000000000000000000000000000000000000000000000000000000000000000000000000000000000000000000000000000000000000000000000000000000000000000000000000000000000000000000000000000000000000000000000000000000000000000000000000000000000000000000000000000000000000000000000000000000000000000000000000000000000000000000000000000000000000000000000000000000000000000000000000000000000000000000000000000000000000000000000000000000000000000000000000000000000000000000000000000000000000000000000000000000000000000000000000000000000000000000000000000000000000000000000000000000000000000000000000000000000000000000000000000000000000000000000000000000000000000000000000000000000000000000000000000000000000000000000000000000000000000000000000000000000000000000000000000000000000000000000000000000000000000000000000000000000000000000000000000000000000000000000000000000000000000000000000000000000000000000000000000000000000000000000000000000000000000000000000000000000000000000000000000000000000000000000000000000000000000000000000000000000000000000000000000000000000000000000000000000000000000000000000000000000000000000000000000000000000000000000000000000000000000000000000000000000000000000000000000000000000000000000000000000000000000000000000000000000000000000000000000000000000000000000000000000000000000000000000000000000000000000000000000000000000000000000000000000000000000000000000000000000000000000000000000000000000000000000000000000000000000000000000000000000000000000000000000000000000000000000000000000000000000000000000000000000000000000000000000000000000000000000000000000000000000000000000000000000000000000000000000000000000000000000000000000000000000000000000000000000000000000000000000000000000000000000000000000000000000000000000000000000000000000000000000000000000000000000000000000000000000000000000000000000000000000000000000000000000000000000000000000000000000000000000000000000000000000000000000000000000000000000000000000000000000000000000000000000000000000000000000000000000000000000000000000000000000000000000000000000000000000000000000000000000000000000000000000000000000000000000000000000000000000000000000000000000000000000000000000000000000000000000000000000000000000000000000000000000000000000000000000000000000000000000000000000000000000000000000000000000000000000000000000000000000000000000000000000000000000000000000000000000000000000000000000000000000000000000000000000000000000000000000000000000000000000000000000000000000000000000000000
#062340:0000125222000000
#062320:0000000000000000005600560056005600000000000000000000000000000000
#0623a1:00001222
#062381:000000000000000000000000000000000000000000000000000000000000000000000000000000000000000000000000000000000000000000000000000000000000000000000000000000000000000000000000000000000000000000000000000000000000000000000000000000000000000000000000000000000000000000000000000000000000000000000000000000000000000000000000000000000000000000000000000000000000000000000000000000000000000000000000000000000000000000000000000000000000000000000000000000000000000000000000000000000000000000000000000000000000000000000000000000560000000000000000000000000000000000000000000000000000000000560000000000000000000000000000540000000000000000000000000000000000000000000000000000000000000000000000000000000000000054560000000000000000000000000000000000000000000000000000000000000000000000000000000000000000000000000000000000000000000000000000000000000000000000000000000000000000000000000000000000000000000000000000000000000000000000000000000000000000000000000000000000000000000000000000
#062340:00000012
#062320:0000000000000000000000000000000000000000000000000056000000000056
#063340:22
#0663b0:0000000000000000000000000000000012525252525252525252525252525252
#0663a0:00000000000000000000000000000000000000000000000000000000000000000054005400540054005400540054005400540054005400540054005400540054
#0673b0:22
#067331:1252525252525252525252525252525222000000000000000000000000000000
#067321:00540054005400540054005400540054005400540054005400540054005400540000000000000000000000000000000000000000000000000000000000000000
#067360:0018
#0673c0:000000000000000000000000000000000000000000000000000000000000000000000000000000000000000000000000000000000000000000000000000000000000000000000000000000000000000000000000000000000000000000000000000000000000000000000000000000000000000000000000000000000000000000000000000000000000000000000000000000000000000000000000000000000000000000000000000000000000000000000000000000000000000000000000000000000000000000000000000000000000000000000000000000000000000000000000000000000000000000000000000000000000000000000000000000000000000000000000000000000000000000000000000000000000000000000000000000000000000000000000000000000000000000000000000000000000000000000000000000000000000000000000000000000000000000000000000000000000000000000000000000000000000000000000000000000000000000000000000000000000000000000000000000000000000000000000000000000000000000000000000000000000000000000000000000000000000000000000000000000000000000000000000000000000000000000000000000000000000000000000000000000000000000000000000000000000000000000000000000000000000000000000000000000000000000000000000000000000000000000000000000000000000000000000000000000000000000000000000000000000000000000000000000000000000000000000000000000000000000000000000000000000000000000000000000000000000000000000000000000000000000000000000000000000000000000000000000000000000000000000000000000000000000000000000000000000000000000000000000000000000000000000000000000000000000000000000000000000000000000000000000000000000000000000000000000000000000000000000000000000000000000000000000000000000000000000000000000000000000000000000000000000000000000000000000000000000000000000000000000000000000000000000000000000000000000000000000000000000000000000000000000000000000000000000000000000000000000000000000000000000000000000000000000000000000000000000000000000000000000000000000000000000000000000000000000000000000000000000000000000000000000000000000000000000000000000000000000000000000000000000000000000000000000000000000000000000000000000000000000000000000000000000000000000000000000000000000000000000000000000000000000000000000000000000000000000000000000000000000000000000000000000000000000000000000000000000000000000000000000000000000000000000000000000000000000000000000000000000000000000000000000000000000000000000000000000000000000000000000000000000000000000000000000000000000000000000000000000000000000000000000000000000000000000000000000000000000000000000000000000000000000000000000000000000000000000000000000000000000000000000000000000000000000000000000000000000000000000000000000000000000000000000000000000000000000000000000000000000000000000000000000000000000000000000000000000000000000000000000000000000000000000000000000000000000000000000000000000000000000000000000000000000000000000000000000000000000000000000000000000000000000000000000000000000000000000000000000000000000000000000000000000000000000000000000000000000000000000000000000000000000000000000000000000000000000000000000000000000000000000000000000000000000000000000000000000000000000000000000000000000000000000000000000000000000000000000000000000000000000000000000000000000000000000000000000000000000000000000000000000000000000000000000000000000000000000000000000000000000000000000000000000000000000000000000000000000000000000000000000000000000000000000000000000000000000000000000000000000000000000000000000000000000000000000000000000000000000000000000000000000000000000000000000000000000000000000000000000000000000000000000000000000000000000000000000000000000000000000000000000000000000000000000000000000000000000000000000000000000000000000000000000000000000000000000000000000000000000000000000000000000000000000000000000000000000000000000000000000000000000000000000000000000000000000000000000000000000000000000000000000000000000000000000000000000000000000000000000000000000000000000000000000000000000000000000000000000000000000000000052
#068320:2c
#079320:1c00002c
#079390:0035353535353535353500000000000000000000003500000000000000000000
#0793a0:0000000000000000000034000000000000000034340000000000000000000000
#0793b0:0000000000000000000000330000000000003300000000000000000000000000
#0793c0:0000000000000000000000003232323232320000000000000000000000000000
#079380:0000000000000000000000000000000000000000000036360000000000000000
#080320:13
#080360:00532300000000000000000000000000
#0803b1:0013000000000000
#080371:00000053230000000000000000000000
#080320:00130000
#080360:00000000005323000000000000000000
#0803b1:0000001300000000
#080371:0000000000000000000000000000535353535353230000000000000000000000
#080361:00000000000000000000000000000000000000000000000000000000005300530053005300530053000000000000000000000000000000000000000000000000
#080361:00000000000000000000000000000000000000000000000000000000000000000000000000000000000000000000000000000000000000001400005400000000
#080351:00000000000000000000000000000000000000000000000000000000000000000000000000000000000000000000000000000000000000000054000000000000
#080371:00000000000000000000000000000000000000000000000000000000000000000000000000000000000000000000000000000000000000000000540000540000
#080381:00000000000000000000000000000000000000000000000000000000000000000000000000000000000000000000000000000000000000000000000054000054
#080391:0000000000000000000000000000000000000000000000000000000000000054
#0813a1:24
#081360:14000054000000000000000000000000000000000000000000000000000000000000000000000000000000000000000000000000000000000000000000000000
#081370:00540000000000000000000000000000000000000000000000000000000000000000000000000000000000000000000000000000000000000000000000000000
#081350:00005400005400000000000000000000000000000000000000000000000000000000000000000000000000000000000000000000000000000000000000000000
#081340:00000000540000540000000000000000000000000000000000000000000000000000000000000000000000000000000000000000000000000000000000000000
#081330:0000005400000000000000000000000000000000000000000000000000000000
#081320:0024000000000000
#081361:00000000000000001400005400000000000000000000000000000000000000000000000000000000000000000000000000000000000000000000000000000000
#081351:00000000000000000054000000000000000000000000000000000000000000000000000000000000000000000000000000000000000000000000000000000000
#081371:00000000000000000000540000540000000000000000000000000000000000000000000000000000000000000000000000000000000000000000000000000000
#081381:00000000000000000000000054000054000000000000000000000000000000000000000000000000000000000000000000000000000000000000000000000000
#081391:0000000000000054000000000000000000000000000000000000000000000000
#0813a1:00240000
#081320:0000150000250000
#081340:00000000000000000000000000000000005500005500000000000000000000000000000055000055000000000000000000000000000000000000000000000000
#081330:0000000000000000005500000000000000000055000000000000000000000000
#081350:00000000000000000000000000000000000000550000550000000000000000000000550000550000000000000000000000000000000000000000000000000000
#081360:00000000000000000000000000000000000000000055000055000000000000005500005500000000000000000000000000000000000000000000000000000000
#081370:00000000000000000000000000000000000000000000005500005500550055000055000000000000000000000000000000000000000000000000000000000000
#081380:00000000000000000000000000000000000000000000000000550000000000550000000000000000000000000000000000000000000000000000000000000000
#081390:00000000000000000000000000000000000000000000000000000055005500000000000000000000000000000000000000000000000000000000000000000000
#081320:0000000000000000000000000000000000000000000000001454000000000000
#081330:00000000000000000000000000000000000000000000000000000000000000000000000000000000000000000000000000540000540000000000000000000000
#081340:00000000000000000000000000000000000000000000000000000000000000000000000000000000000000000000000000000054000054000000000000000000
#081350:00000000000000000000000000000000000000000000000000000000000000000000000000000000000000000000000000000000005400005400000000000000
#081360:00000000000000000000000000000000000000000000000000000000000000000000000000000000000000000000000000000000000000540000540000000000
#081370:00000000000000000000000000000000000000000000000000000000000000000000000000000000000000000000000000000000000000000054000024000000
#081380:00000000000000000000000000000000000000000000000000000000000000000000000000000000000000000000000000000000000000000000005400000000
#0833a0:14240000
#083380:00540000540000000000000054000054000000000000000000000000000000000000000000000000000000000000000000000000000000000000000000000000
#083390:0054000000000054000000000000000000000000000000000000000000000000
#083370:00000054000054000000540000540000000000000000000000000000000000000000000000000000000000000000000000000000000000000000000000000000
#083360:00000000005400005400005400000000000000000000000000000000000000000000000000000000000000000000000000000000000000000000000000000000
#083350:00000000000000540054000000000000000000000000000000000000000000000000000000000000000000000000000000000000000000000000000000000000
#083321:00140000
#083341:00000000000000000000000000000000005400005400000000000000000000000000000000000000000000000000000000000000000000000000000000000000
#083331:0000000000000000005400000000000000000000000000000000000000000000
#083351:00000000000000000000000000000000000000540000540000000000000000000000000000000000000000000000000000000000000000000000000000000000
#083361:00000000000000000000000000000000000000000054000024000000000000000000000000000000000000000000000000000000000000000000000000000000
#083371:00000000000000000000000000000000000000000000005400000000000000000000000000000000000000000000000000000000000000000000000000000000
#0833a0:0000001400000000
#083380:00000000000000000000000000000000000000000000000000540000540000000000000000000000000000000000000000000000000000000000000000000000
#083390:0000000000000000000000000054000000000000000000000000000000000000
#083370:00000000000000000000000000000000000000000000000000000054000054000000000000000000000000000000000000000000000000000000000000000000
#083360:00000000000000000000000000000000000000000000000000000000005400002400000000000000000000000000000000000000000000000000000000000000
#083350:00000000000000000000000000000000000000000000000000000000000000540000000000000000000000000000000000000000000000000000000000000000
#083321:00001424
#083341:00000000000000000000000000000000000000000000000000000000000000000054000034000000000000003400005400000000000000000000000000000000
#083331:0000000000000000000000000000000000540000000000540000000000000000
#083351:00000000000000000000000000000000000000000000000000000000000000000000005400005400000054000054000000000000000000000000000000000000
#083361:00000000000000000000000000000000000000000000000000000000000000000000000000540000340000540000000000000000000000000000000000000000
#083371:00000000000000000000000000000000000000000000000000000000000000000000000000000054005400000000000000000000000000000000000000000000
#0833a0:00000014
#083380:00000000000000000000000000000000000000000000000000000000000000000000000000000000000000000000000000540000340000000000000034000054
#083390:0000000000000000000000000000000000000000000000000054000000000054
#083370:00000000000000000000000000000000000000000000000000000000000000000000000000000000000000000000000000000054000054000000540000540000
#083360:00000000000000000000000000000000000000000000000000000000000000000000000000000000000000000000000000000000005400003400005400000000
#083350:00000000000000000000000000000000000000000000000000000000000000000000000000000000000000000000000000000000000000540054000000000000
#0843a0:24
#084360:00000000000000000000001400000000
#0843a0:0000000000000000000000000000000000000000000000545454545424000000
#084380:00000000000000000000000000000000000000000000000000000000000000000000000000000000000000000000005400000000000000000000000000000000
#084390:00000000000000000000000000000000000000000000000000000000000000000000000000000000000000000000000000540054005400540000000000000000
#085320:0000000000000013
#086370:23
#087360:13000000000000000033333333333333230000000000000000000000000000000000000000000000000000000000000000000000000000000000000000000000
#0873a0:0034000000000000
#087321:00000000000000000000000000000000130000000000000000333333333333332300000000000000000000000000000000000000000000000000000000000000
#087361:0000003400000000
#087321:00000000000000000000000000000016
#087351:00000000000000000000000000000000000000000000000000000000000000000000000000000000000000000000000000000000000000000000000000560000
#087341:0000000000000000000000000000000000000000000000000000000000000055
#087361:00000000000000000000000000000000000000000000000000000000000000000000000000000000000000000000000000000000000000000000000000000056
#088351:55000000000000000000000000000000000000005500005600000000000000000000000000000000000000000000000000000000000000000000000000000000
#088371:00560000000000000000000000000000000000560000000000000000000000000000000000000000000000000000000000000000000000000000000000000000
#088361:00005500560056005600560056005600560055000056000000000000000000000000000000000000000000000000000000000000000000000000000000000000
#088381:00000056005600560056005600560056005600000000000000000000000000000000000000000000000000000000000000000000000000000000000000000000
#088341:0000000000000000000000550000000000000000000000000000000000000000
#088321:0000002600000000
#088381:00001626
#088351:000000000000000000000000000000000000000000000000000000000000000000000000000000000000000000000000005600000000560000000000000000000000000056000056000000000000000000000000000000000000000000000000
#088371:000000000000000000000000000000000000000000000000005600000000000000000000000000000000000000000000
#088341:000000000000000000000000000000000000000000000000000000000000000000000000000000000000000000000000000000560000000056005600560056005600560000560000000000000000000000000000000000000000000000000000
#088361:000000000000000000000000000000000000000000000000000056000000000000000056000000000000000000000000
#088331:000000000000000000000000000000000000000000000000000000000000000000000000000000000000000000000000000000000056000000000000000000000000005600000000000000000000000000000000000000000000000000000000
#088321:000000000000000000000000000000000000000000000000000000000000000000000000000000000000000000000000000000000000005600560056005600560056000000000000000000000000000000000000000000000000000000000000
#089321:00140000
#089361:000000000000000000000000000054545454240000000000000000000000000000000000000000000000000000000000
#089371:000000000000000000000000000000000000000000000000000000000052005200520052000000000000000000000000000000000000000000000000000000000000000000000000000000000000000000000000000000000000000000000000
#0893a0:0000001400000000
#089360:000000000000000000000000000000000000000054545454240000000000000000000000000000000000000000000000
#089370:000000000000000000000000000000000000000000000000000000000000000000000000000000000052005200520052000000000000000000000000000000000000000000000000000000000000000000000000000000000000000000000000
#089360:00000014
#0893a0:0000000000000000000000000000000000000000000000000000545454545454
#089390:00000000000000000000000000000000000000000000000000000000000000000000000000000000000000000000000000000000005400540054005400540054
#0903a0:24
#090321:14240000
#090371:0000545454543400000000000000000000000000000000000000000000000000
#090361:00000000005400540054005400000000000000000000000000000000000000000000000000000000000000000000000000000000000000000000000000000000
#090390:00152500
#090340:0000000000000000000055555555350000000000000000000000000000000000
#090350:00000000000000000000000000000000000000000055005500550055000000000000000000000000000000000000000000000000000000000000000000000000
#090321:00001626
#090371:0000000000000000000000000000000000005656565636000000000000000000
#090361:00000000000000000000000000000000000000000000000000000000000000000000000000560056005600560000000000000000000000000000000000000000
#090380:00000016
#090320:0000000000000000000000000000000000000000000000000000565656563600
#090330:00000000000000000000000000000000000000000000000000000000000000000000000000000000000000000000000000000000005600560056005600000000
#091380:26
#091321:1656565656565656560000000000000000000000000000000000000021000000
#091331:00560056005600560056005600560056000000000000000000000000000000000000000000000000000000000000000000000000000000000000000000000000
#092361:12
#093361:22
#093320:12560000000000000000000000000000
#093360:0022000000000000
#093381:00001256000000000000000000000000
#0933c1:00220000
#093340:0000000000000000120000560000000000000000000000000000000000000000
#093380:00000000000000220000000000000000
#094380:12
#095380:22
#0953c1:12
#095381:00562200000000000000000000000000
#095360:0012000000000000
#095320:00000056220000000000000000000000
#0953a1:00120000
#095361:0000000000000000000000560000220000000000000000000000000000000000
#096321:13
#096361:00540000000000000000000000000000
#096351:0024000000000000
#096350:19
#0963a0:00540000000000000000000000005400
#096380:000000000000000000000000000000000000000000000000000000560000000000000000000000000000000000000000000000000000000000000000000000000000000000000000000000000000000000000000000000000000000000000000000000000000000000000000000000000000000000000000000000000000000000000000000000000000000000000000000000005600000000000000000000000000000000000000000000000000000000000000000000000000000000000000
#096360:00580000
#0963b0:00000000005300000000000000000000
#096390:00000000000000000000000000000000000000000000000000550000000000000000000000000000000000000055000000000000000000000000000000000000
#096370:0057
#0963c0:0000000000000000000000000000000000000052000000000000000000000000
#0973c0:22
#096331:00130000
#096371:00000000005400000000000000000000
#096361:0000002400000000
#096341:0013
#096381:0000000000000000000000000000000000000054000000000000000000000000
#096361:00000000000000000000002400000000
#097370:00140000
#097320:00000000000000240000000000000000
#0983b0:13
#098360:00540000000000000000000000000000
#098380:0024000000000000
#098321:190000000000000000000000540000000000000000000000000000570000000000000000000000000000000000000000580000000000000000000000530000000000000000000000000000560000000000000000000000000000000000000000570000000000000000000000000000000000520000000000000000000000000000000000000000550000000000000000000000005600000000000000000000000000000000000000220000000000000000000000000000000000000000000000
#0983a0:00130000
#098350:00000000005400000000000000000000
#098370:0000002400000000
#098390:0013
#098340:0000000000000000000000000000000000000054000000000000000000000000
#098360:00000000000000000000002500000000
#099351:00140000
#0993a1:00000000000000240000000000000000
#1003b1:13
#100361:00540000000000000000000000000000
#100371:0024000000000000
#100320:190000000000000000000000540000000000000000000000000000560000000000000000000000000000000000000000580000000000000000000000530000000000000000000000000000550000000000000000000000000000000000000000570000000000000000000000000000000000520000000000000000000000000000000000000000550000000000000000000000005600000000000000000000000000000000000000540000000000000000000000000000000000000000000000
#101320:22
#1003a1:00130000
#100351:00000000005400000000000000000000
#100361:0000002400000000
#100391:0013
#100341:0000000000000000000000000000000000000054000000000000000000000000
#100361:00000000000000000000002400000000
#101350:00140000
#1013a0:00000000000000240000000000000000
#102320:13
#102360:00540000000000000000000000000000
#102340:0024000000000000
#102351:19
#1023a1:00540000000000000000000000000000
#102371:00000000000000000057000000000000000000000000000000000000000000005700000000000000000000000000000000000000000000000000000000000000
#102361:00580000
#1023b1:00000000005300000000000000000000
#102381:000000000000000000000000000000000000000000000000000000000000000000000000000000000000000000000000000000000000000000000000000000000000000000000000000000560000000000000000000000000000000000000000000000000000000000000000000000000000000000000000000000000000000000000000000000000000000000000000000000005600000000000000000000000000000000000000000000000000000000000000000000000000000000000000
#1023c1:0000000000000000000000000000000000000052000000000000000022000000
#102391:00000000000000000000000000000000000000000000000000000000000000000000000000000000000000000055000000000000000000000000000000000000
#102330:00130000
#102370:00000000005400000000000000000000
#102350:0000002400000000
#102340:0013
#102380:0000000000000000000000000000000000000054000000000000000000000000
#102350:00000000000000000000002500000000
#103371:00140000
#103321:00000000000000240000000000000000
#106321:15
#106381:0000005600000000
#106351:00000000000000000000005400000000
#107321:53
#108321:0000002100000000
