This file was generated by Ched 2.7.0.0.
#TITLE ""
#ARTIST ""
#DESIGNER ""
#DIFFICULTY 0
#PLAYLEVEL
#SONGID ""
#WAVE ""
#WAVEOFFSET 0
#JACKET ""
#REQUEST "ticks_per_beat 480"
#00002: 4
#BPM01: 150
#BPM02: 170
#00008: 01
#06408: 01
#05608: 02
#06608: 02
#TIL00: ""
#VOLUME: ""
#HISPEED 00
#MEASUREHS 00
#00118:1414
#00114:00140014
#0021a:24141400
#00418:14141400
#00512:14
#00518:00140000
#00514:0014
#0051a:00000014
#01012:0014
#0101a:24
#0111a:14
#01112:0014
#0161a:14
#01618:0014
#01614:00140000
#02612:1414
#02618:00140014
#03212:1414
#0331a:1414
#05018:14
#05019:00000014
#0501a:0014
#05118:14
#05214:14
#05213:00000014
#05212:0014
#05314:14
#05418:14
#05419:00000014
#0541a:0014
#05518:14
#06814:00140000
#06818:2614
#06812:00000014
#0681f:21
#06810:0041
#06914:00140000
#06918:0014
#06912:00000014
#0691a:14
#0761a:14
#07614:00140000
#07618:0014
#07612:00000014
#0771a:14
#07714:00140000
#07718:0014
#07712:00000014
#07916:00160000
#07918:26
#08012:14
#08014:0000341434000000
#10512:0016
#10518:26000016
#10612:16
#10614:0000001600000000
#10613:00000000000000000000001500000000
#00314:14
#00612:24141400
#00814:14141400
#0091a:14
#00718:14
#01518:00140000
#01512:1414
#01712:14
#01718:00140000
#01714:0014
#01814:0014
#01818:26
#01810:41
#02018:0014
#02012:26
#02314:0014
#02318:00000014
#0231a:24
#0301a:1414
#03014:00140014
#03414:14
#03418:00140000
#03412:0014
#0341a:00000014
#0401a:24141400
#04218:14141400
#04312:14
#04318:00140000
#04314:0014
#0431a:00000014
#04114:14
#04412:24141400
#04614:14141400
#0471a:14
#04518:14
#05618:00140000
#05614:0014
#0561a:00000014
#05612:24
#05610:41
#05714:14
#05718:00140000
#05712:0014
#0581a:14
#05814:00140000
#05818:0014
#05812:00000014
#05918:14
#05914:00140000
#0591a:0014
#06012:2414
#06018:00140014
#0601f:11
#06518:0014
#06512:24
#06514:00000024
#0621a:2414
#06214:00140014
#0701a:14140000
#07012:00001414
#07118:14
#07114:00140000
#07218:00140000
#07214:0014
#0721a:00000014
#07212:26
#07318:00140000
#07314:0014
#0731a:00000014
#07312:14
#07412:14140000
#0741a:00001414
#07514:14
#07518:00140000
#08814:00000014
#08812:14
#08918:00000014
#0891a:14
#0811a:14
#08118:0000341434000000
#09114:00160000
#09112:26
#0961a:24141400
#09818:14141400
#09912:14
#09918:00140000
#09914:0014
#0991a:00000014
#09714:14
#10012:24141400
#10214:14141400
#1031a:14
#10314:00140000
#10118:14
#04818:24
#04813:0024
#04819:0024
#0491a:24
#04912:0024
#04916:00240000
#07818:2626
#07812:00260026
#0001a:24
#00012:0024
#0221a:24
#02212:0024
#02712:24
#02714:0034340000000000
#0311a:24
#03118:0034340000000000
#06412:24
#0641a:0024
#09012:2626
#09018:00260026
#10418:26
#10412:0026
#02414:0034
#02413:00340000
#02519:00340000
#0251a:0034
#02818:0034
#02819:00340000
#02913:00340000
#02912:0034
#06114:00340000
#06318:0000343400000000
#06319:0034000000000000
#0921a:00343434
#09210:41
#09412:00343434
#0361a:00343434
#03610:41
#03812:00343434
#01918:00340000
#02114:00340000
#02113:0034000000000000
#08210:41
#0105a:14
#05058:54
#05059:00000054
#0505a:0024
#05158:24
#05254:64
#05253:00000064
#05252:0024
#05354:24
#05458:54
#05459:00000054
#0545a:0024
#05558:24
#06858:16
#07956:00260000
#07958:5616
#08052:54
#08054:0000002400000000
#10652:56
#10654:0000002600000000
#10653:00000000000000000000006500000000
#01552:0014
#01754:0014
#02358:00000014
#01858:16
#02052:16
#06554:00000014
#07252:16
#08852:54
#0895a:64
#0815a:64
#08158:0000002400000000
#09154:00260000
#09152:6616
#09358:00000000000000140000000000000000
#10354:00140000
#09554:00000000000000140000000000000000
#03758:00000000000000140000000000000000
#03954:00000000000000140000000000000000
#0595a:0014
#003340:00000000140000340000000024000000
#007380:00000000140000340000000024000000
#009340:00000000140000340000000024000000
#0123a0:14240000
#012340:00001424
#013380:14240000
#013320:00001424
#0143a0:14340000
#014380:00003424
#0193a0:14
#019380:0000343400002400
#021320:14
#021330:0034000000000000
#021340:0000343400002400
#024320:14
#024330:00340000
#024340:00003424
#025380:14
#025390:00340000
#0253a0:00003424
#027320:14
#027340:0034343400002400
#0283a0:14
#028390:00340000
#028380:00003424
#029340:14
#029330:00340000
#029320:00003424
#0313a0:14
#031380:0034343400002400
#035340:1424
#0363a0:14343434
#037380:34003400340000240000000000000000
#038320:14343434
#039340:34003400340000240000000000000000
#041340:00000000140000340000000024000000
#045380:00000000140000340000000024000000
#047340:00000000140000340000000024000000
#050380:14
#0503a0:0034
#050390:00000054
#051380:34
#0513a0:0024
#052340:14
#052320:0034
#052330:00000054
#053340:34
#053320:0024
#054380:14
#0543a0:0034
#054390:00000054
#055380:34
#0553a0:0024
#061320:14
#061340:0000343400002400
#0633a0:14
#063390:0034000000000000
#063380:0000343434002400
#071380:00001424
#075340:00001424
#079380:1626
#079360:00560000
#080320:14000024
#080340:0000345434000000
#0813a0:14000024
#081380:0000345434000000
#082320:14000024
#082340:00343400
#0833a0:14000024
#083380:00343400
#084320:1434
#084340:00340024
#085380:1434
#0853a0:00340024
#086320:14240000
#086380:00001424
#087340:14240000
#0873a0:00001424
#088320:14
#088340:0024
#0893a0:14
#089380:0024
#091320:1626
#091340:00560000
#0923a0:14343434
#093380:34003400340000240000000000000000
#094320:14343434
#095340:34003400340000240000000000000000
#097340:00000000140000340000000024000000
#101380:00000000140000340000000024000000
#106320:16
#106340:0000005600000000
#106330:00000000000000000000005500000000
#107320:54
#108320:0000002400000000
