This file was generated by Ched 2.7.0.0.
#TITLE ""
#ARTIST ""
#DESIGNER ""
#DIFFICULTY 0
#PLAYLEVEL
#SONGID ""
#WAVE ""
#WAVEOFFSET 0
#JACKET ""
#REQUEST "ticks_per_beat 480"
#00002: 4
#BPM01: 170
#00008: 01
#TIL00: ""
#VOLUME: ""
#HISPEED 00
#MEASUREHS 00
#0011a:14
#0021a:14
#00312:14
#00412:14
#0051a:14
#00510:41
#00614:14
#00718:14
#01012:14
#0111a:14
#0121a:14
#01312:14
#01418:14
#0231a:14
#02312:00000014
#02310:41
#02612:0014
#02814:14
#03112:16
#03118:0016
#03212:16
#03218:0016
#03312:16
#03918:16
#03912:0016
#04018:16
#04012:0016
#04118:16
#04218:0016
#04312:16
#04318:0016
#04412:16
#04512:0016
#04618:16
#04612:0016
#04610:0041
#03412:0016
#03518:16
#03512:0016
#03618:16
#03612:0016
#03712:16
#0571a:0014
#05814:0014
#05918:0014
#07212:0016
#07512:1616
#07510:41
#07618:1616
#07712:16
#07818:0016
#07912:16
#07918:0016
#08018:16
#08012:0016
#08118:16
#08112:0016
#08218:16
#08212:0026
#08318:1616
#08412:1616
#08518:16
#08612:0016
#08718:16
#08712:0016
#08818:16
#08918:0016
#09012:16
#09018:0016
#09116:00000000000000000000001600000000
#09418:0016
#09412:26
#06012:0014
#0661f:0011
#03018:0026
#03812:0026
#03810:0041
#07418:0026
#0741f:0021
#0611a:0024
#06210:0041
#02854:24
#02652:0054
#09058:0056
#09156:00000000000000000000002600000000
#09458:0056
#008320:1434
#009320:24
#015340:1434
#016340:3424
#017380:14
#0173a0:00000024
#018340:0014
#019320:00240000
#020380:14
#0203a0:00000024
#021340:0014
#022320:00240000
#024380:0014
#025380:0024
#026320:1434
#028340:54
#029320:0024
#033380:0016
#034380:26
#037380:0016
#038380:26
#041320:0016
#042320:26
#044380:0016
#045380:26
#047380:0014
#048380:0024
#049320:0014
#050320:0024
#0513a0:0014
#052390:0034
#053380:0024
#054320:0014
#055330:0034
#056340:0024
#062320:0014
#063320:0024
#0643a0:0014
#0653a0:0024
#066340:0014
#067340:0024
#068380:0014
#0723a0:24
#077320:0016
#078320:26
#085380:0016
#086380:26
#088320:0016
#089320:26
#090380:0016
#091360:00000000000000000000005600000000
#092380:0000000000000036
#093380:0026
#094380:0016
#097350:00003636
#098350:3636362600000000
