This file was generated by Ched 2.7.0.0.
#TITLE ""
#ARTIST ""
#DESIGNER ""
#DIFFICULTY 0
#PLAYLEVEL
#SONGID ""
#WAVE ""
#WAVEOFFSET 0
#JACKET ""
#REQUEST "ticks_per_beat 480"
#00002: 4
#BPM01: 170
#00008: 01
#TIL00: ""
#VOLUME: ""
#HISPEED 00
#MEASUREHS 00
#0001a:00140014
#00015:00000013000000000000000000001300
#00018:00001300000000000000000000000013
#00016:0000001400140000
#00012:2414
#00112:13
#00115:0013000000130000
#00118:00131313
#0011b:0000001300000013
#00218:00000013000000000000000000001300
#0021b:00000013
#00215:00000000130000000000000000130013
#0031b:13000000000000001300000000000013
#00312:0013000000001300
#00318:00000013000013000000000013000000
#00315:0000130000130000
#0041b:0000000000130000
#00415:0000000000000013
#00418:00000013
#00416:13
#00518:00000000130000000000001300001300
#00515:00000013000013000000000013000000
#00512:13
#0051b:0013
#00510:41
#00612:1300130000230000
#0061b:00130000000000002300000000000000
#00615:0013001323000000
#00618:00000013001300000000230000001300
#02215:0000000000130000
#02218:00000013
#0221b:1300000000000013
#02212:1313
#02213:00130013000000000000000000000000
#02214:0013000000000000
#0221a:00130013000000000000000000000000
#02219:0013000000000000
#0231b:0013130000002300
#02315:00000013000000000000000000000000
#02312:2300002300000013
#02318:00000000000023000000000000000013
#02310:41
#02412:13
#02415:0023000000130000
#02414:0000000000000014
#02418:00002324
#0241b:0023000000000000
#02513:0015000000000000
#02512:0000001600000000
#02517:0000000000130000
#0251b:0013
#02518:25260000
#02618:000022000000000000000000000000130000130000000000
#02615:00000000000000000000001300000000
#02612:2200000023000013
#0261b:0000000000000013
#02614:002200000000
#0261a:00220000
#02616:002200
#0261c:000000000022000000000000
#0291b:000000130000130000130000231313131313131313131313
#0291a:000000000000000000000000000000000000000000000000000000000000000000000000000000000000000000000000001300130013001300130013001300130013001300130013001300130013001300130013001300130013001300130013
#02919:000000000000000000000000000000000000000000000000001300130013001300130013001300130013001300130013
#02916:00003313330000000000000000000000
#02914:0000003300000000
#04518:0000001200000012
#04512:0013000000000000
#04516:00120000
#0451a:0012
#0451b:0013000000000000
#04514:0012
#04618:00260012
#04616:0012
#04612:26
#04610:0041
#04716:12
#04719:00120000
#0481c:0000000000000012
#04916:12
#0491a:0012000000000000
#04914:00120000
#04918:0000001200000012
#05012:12
#0501a:0012000000000000
#05014:00120000
#0501c:0000001200000000
#05118:12
#05112:00000012
#05116:0012
#0521c:12
#0521a:00120000
#05218:0012
#0531a:0012000000000000
#05314:00120000
#05318:0000001200000000
#05518:00001200000000000000000000002413
#05514:0000120000000024
#0551a:0000001200000000
#05515:00000000000000000000000000000013
#05616:0000000000000012
#05613:15
#05615:00130013001300000000000000000000
#05612:0016161600000000
#05614:00000000000000140000000000000000
#05618:15131613161316140000000000000000
#05718:12
#05714:0012000000000000
#0571a:00120000
#05716:0000001200000000
#0581c:0012000000001200
#0581a:00120000
#05818:0000001200000000
#05918:0012000000001200
#05916:00120000
#05914:0000001200000000
#06018:00120012
#06012:0000120000003212
#0601c:2212
#06016:2212
#06014:0000000000320000
#0621a:1200000014000014
#06218:0012001200131300
#06216:00120000
#06215:00000000000000000000001300000000
#06212:0000000024000024
#06210:0041
#06118:1200000000000012
#06116:00000000000000000000000000000012
#0611c:00120000
#06117:0022
#06112:32
#06114:0032000000000000
#0631b:0013000000001300
#06318:00130000
#06315:0000001300000000
#06317:0013
#06319:0000000000130000
#06312:0023
#06314:0000000000230000
#06316:00000023
#0651b:0013000000000000
#06518:00130000
#06515:0000001300000000
#06512:0013
#06514:000000000000000000000033
#06513:000000000033
#0671a:00001414
#06716:14
#06712:00140026
#06714:003400000034000000000000
#06713:003434000000
#06818:26000000000000002600001300000000
#06815:0000000000130013
#0681a:00140000
#06812:14262424
#0681b:0000000000000013
#0691b:0013000000000000
#06915:00000000000013000000001300000000
#06918:0000130000130013
#06912:2400240013000013
#06919:00002525
#09213:0000000000000013
#09216:0000000000120000
#09218:00000012
#0921a:0000000000000013
#09214:0012
#09315:0013130000000000
#09318:00000013000013000000000000001600
#09312:0023
#0931b:0023
#09418:0000260000131313
#09412:26000000000000002600001300000000
#09518:0013001326000000
#09515:00000013001300000000130013001300
#0951b:00000000130000000000001300000000
#09512:00000000000000130000000000000000
#09615:0013001300000000
#09618:00000013001300000000000000000000
#09612:00132600
#0961b:00000000000000130000000000000000
#09616:000000000000000000000000003636363636363636363636
#09716:163636363636363636363636000000000000000000130000
#0971b:0013
#09717:0000000000130000
#09712:00000013
#09719:00000000000000000000003300000000
#09714:00000000000000000000000000000033
#0981a:0000001400000000
#09818:24240000
#09814:0024000000000000
#09812:0000002400000000
#01412:0000001300130000
#01415:0013000013000000
#0141b:0023000000130000
#01418:2300002313000000
#00818:0024000000260013
#00815:00000000000000000000000000000013
#00812:24002426
#0081a:24
#00816:00240000
#00814:0000002400000000
#01015:00000013000000000000000000001300
#01012:00000013
#01018:00000000130000000000000000130013
#01112:13000000000000000000000000000013
#0111b:0013000000000000
#01115:00000013000000000000000000000000
#01315:00000000130000000000001300001300
#01318:00000013000013000000000013000000
#01312:0013
#0131b:13
#01712:13
#01716:0000331333000000
#01714:00000013
#01717:13
#0171b:0000331333000000
#01719:00000013
#02113:00000000000000000013001300130013
#02112:00001313
#02114:0000000000130013
#0211a:00000000000000000013001300130013
#0211b:00001313
#02119:0000000000130013
#0641b:13
#06415:0000000000131300
#06418:00000000000000000000001300000000
#0641a:0000000024000024
#06412:00333333333333330000000000000000
#00716:0000000000140014
#00718:00001300000000130000000000000000
#00715:00000013000013000000000000000000
#00712:1314
#0071b:00130000
#0071a:00000014
#01217:13
#01212:0000000000130000
#01215:00000013
#01218:0000000000000013
#01618:0000000000130000
#01615:00000013
#01612:2400140024000013
#0161a:14241400
#01514:0000000000140000
#01516:00000014
#01518:00000013000013000000000000001400
#01515:00130000
#0151a:1424
#01512:2414
#0661a:000000140000140000000014
#06616:003333333333000014000000
#06612:000000000014
#0661f:0011
#06615:33
#08916:0000120000000012
#08912:0013000000000000
#08918:0000001200000000
#0891a:0012
#0891b:0013000000000000
#08914:0012
#0901a:00000012
#0901c:0012
#09018:26
#09012:00260000
#09118:12000000000000000000001200000000
#0911a:00120000
#0911c:0012
#09112:0000000000000012
#09116:0000000000121200
#07012:0013000026002600
#07018:00000000000013000000001300000000
#07015:0000130000130013
#0701b:0000000013000013
#07019:25250000
#0711b:0013000013000000
#07115:00000000000013000000001300130000
#07118:0000130000131313
#07112:26261300
#0301b:131313131313000000000000000000000000000000130000
#03012:0013
#03015:00000013
#0301a:001300130013001300130013001300130013001300130013000000000000000000000000000000000000000000000000000000000000000000000000000000000000000000000000000000000000000000000000000000000000000000000000
#03019:001300130013001300130013000000000000000000000000000000000000000000000000000000000000000000000000
#03018:0026
#03215:13000013
#03218:0013000000000000
#03216:00130000
#03214:0000001300000000
#03217:0013
#0321b:1300000000000013
#03212:0013
#03112:1300000000000013
#03118:13000013
#03115:0013000000000000
#03116:0013
#03117:00130000
#03119:0000001300000000
#0311b:0013
#0341b:13
#03416:1300000000000013
#03415:0000001300000000
#03418:00000000000000130000000000000000
#03412:0013
#03312:1313
#03318:13
#03315:0013000000000000
#03317:00130000
#03319:0000001300000000
#0331b:0000000000000013
#03316:0000000000000033
#07512:1300000013000024
#07514:0013001300000000
#07516:0000130000130000
#0751b:0000000000000013
#0751a:0024002400240000
#07510:41
#07617:1313
#07619:0013001300000000
#0761b:0000130000130000
#07616:0000000000000013
#07612:0024002400240000
#0761a:0000000000000024
#07712:1313
#07714:0013001300000000
#07716:00000000130000000000001300000000
#0771a:0024002400240024
#07812:13000000000000130000000000000000
#07818:0013
#0781b:0000001300130013
#0781a:0024000000000000
#08012:1400001313000014
#0801b:0000000000131300
#08016:00000000000000000000001300000014
#0801a:0014000000000000
#08017:00000000000000130000000000000000
#08112:1400001414000000
#08116:00000014000000140000000014000000
#0811a:0014140000000000
#08114:0000000000340034
#08113:00000000000000000034000000000034
#08115:00000000000000000000003400340000
#0791b:00000013000000000013000000000013
#07912:00001313
#07915:0000000000130013
#07918:00000000000000000000001300130000
#08217:0000000000000013
#0821a:14
#08218:00132600
#08215:00000000000000230000000000000000
#08212:0000260000000024
#0831b:1313
#08319:0013001300000000
#08317:0000130000130000
#08312:0024002400240013
#0831a:0000000000000024
#08416:1313
#08414:0013001300000000
#08412:0000130000130024
#08417:0000000000000013
#0841a:0024002400240000
#0851b:1313
#08519:0013001300000000
#08517:00000000130000000000001300000000
#08512:0024002400240024
#0861b:13000000000000130000000000000000
#08615:0013
#08616:0000000000000013
#08612:0024001300130000
#0871b:00000013000000000000130000001300
#08715:0000130000000013
#08712:00001300000013000000001300000000
#08718:0000001300001300
#08818:2313000023000000
#08815:0000231300000000
#08812:2323
#0881b:00230000
#03512:00000013000000000013000000130000
#03518:0000000000131300
#0351b:0000000013000013
#03515:00000000000000000000001300000000
#03618:00001400000013000000001300001300
#03614:14
#0361b:0013
#03615:00000000000000001300130000000013
#03612:0000001300001300
#0371b:1313
#03712:0013000000000013
#03715:00130000
#03718:00000000000013000000000000000013
#03717:00000000000000000000001300000000
#03815:13130000
#03812:0000000026000013
#03818:00000000260000230000000000000000
#03810:0041
#04315:00000000000000000000001300001300
#0431b:00001313
#04318:00000013000013000000000000000000
#04312:13130000
#04418:2313000023000000
#04415:0000231300000000
#04412:2323
#0441b:00230000
#04018:13000013
#04015:0013000000000000
#04017:00130000
#04019:0000001300000000
#04016:0013
#04012:1300000000000013
#0401b:0013
#0391b:1300000000000013
#03915:13000013
#03918:0013000000000000
#03917:0013
#03916:00130000
#03914:0000001300000000
#03912:0013
#04212:13
#04217:1300000000000013
#04218:0000001300000000
#04215:00000000000000130000000000000000
#0421b:0013
#0411b:1313
#04115:13
#04118:0013000000000000
#04116:00130000
#04114:0000001300000000
#04112:0000000000000013
#04117:0000000000000033
#01912:0000000033133300
#01915:00130000
#0191b:33
#0181b:0000000000003313
#01818:0013
#01812:3313330000000000
#01817:3313330000000000
#02716:00003313330000000000000000000000
#02715:0000000000131300
#0271b:0013131323000013
#02718:00000000000000000000001300000000
#02712:0000000000000013
#02714:0000003300000000
#02817:00003313330000000000000000000000
#02818:0000000000131300
#02815:00000000000000000000001300000000
#02812:0013131323000013
#0281b:0000000000000013
#02819:0000003300000000
#07412:00261600
#0741a:0000000000000024
#07418:2626
#0741f:0021
#07218:141516000000
#07214:24
#07212:002600
#07213:002500000000
#05417:002300000000000000000000
#05414:002300000000
#05419:00230000
#05416:000023230000
#0541b:000000000023000000000000
#05412:23
#00052:14
#0005a:00000014
#00852:00000036
#00858:0000000000460000
#02458:00001314
#02558:15160000
#02557:0000000000230000
#0255b:00005343
#0295a:000000000000000000000000000000000000000000000000000000000000000000000000000000000000000000000000006300630063006300630063006300630063006300630063006300630063006300630063006300630063006300630063
#02959:000000000000000000000000000000000000000000000000002300230023002300230023002300230023002300230023
#0295b:000000000000000000000000232323232323232323232323
#02956:00000023000000000000000000000000
#09253:0000000000000013
#0925a:0000000000000013
#09452:3636
#09458:0000460000000013
#09558:0046
#09555:0000000000000013
#09756:2600000000000023
#09757:0000000000230000
#0975b:0053
#09752:00000063
#09652:0056
#0145b:0000000000230000
#01455:00006313
#01452:0000000000230000
#01458:00005313
#01752:63
#01756:0000002300000000
#01754:00000053
#01757:63
#0175b:0000002300000000
#01759:00000053
#02153:00000000000000000063006300630063
#02152:00002323
#02154:0000000000230023
#0215a:00000000000000000053005300530053
#0215b:00002323
#02159:0000000000230023
#01058:00530000
#00255:00630000
#0035b:00000000000000000000000000000063
#00456:63
#00452:0013
#00457:0013
#01152:00000000000000000000000000000053
#01257:53
#01256:0013
#0125b:0013
#02253:00630063000000000000000000000000
#02252:23
#02254:0023000000000000
#0225a:00530053000000000000000000000000
#0225b:23
#02259:0023000000000000
#01552:14
#0155a:0014
#01652:1414
#0165a:00140000
#04658:00460000
#04652:36
#04656:0052
#0655b:00000013
#06552:0013
#0665a:0064
#06656:000024
#06756:64
#06752:00240016
#09058:46
#09052:00360000
#06056:0052
#06052:0000000000000022
#05653:55
#05655:00230023002300000000000000000000
#05652:0056565616000000
#05654:00000000000000240000000000000000
#05658:65236623662366241600000000000000
#06852:00160000
#06858:1616
#05152:00000022
#05156:0052
#06252:0000000034000034
#0645a:0000000044000044
#03257:0063
#03156:0063
#03352:0063
#03058:0016
#0305b:232323232323000000000000000000000000000000000000
#0305a:006300630063006300630063006300630063006300630063000000000000000000000000000000000000000000000000000000000000000000000000000000000000000000000000000000000000000000000000000000000000000000000000
#03059:002300230023002300230023000000000000000000000000000000000000000000000000000000000000000000000000
#07552:0063
#07556:0000000000230000
#08052:34
#0805a:0044000000000000
#08152:0064
#08156:00000024
#07752:0063
#07756:00000000000000000000002300000000
#07852:63
#07657:0063
#0765b:0000000000230000
#0835b:0053
#08357:0000000000230000
#0855b:0053
#08557:00000000000000000000002300000000
#0865b:53
#08456:0053
#08452:0000000000230000
#08258:0046
#08252:00360000
#08852:0053
#08858:0013
#05554:0000000000000024
#05555:00000000000000000000000000000023
#05558:00000000000000000000000000002423
#05958:00000012
#0585c:00000012
#0345b:63
#03456:63
#03658:0044000000000000
#03654:34
#0375b:0053
#03757:00000000000000000000002300000000
#0435b:0053
#04352:63
#04452:0053
#04458:0013
#04056:0053
#03957:0053
#04252:53
#04257:53
#0415b:0053
#01952:0000000000230000
#01955:00530000
#0185b:0000000000000023
#01858:0063
#01852:0023000000000000
#01857:0023000000000000
#02652:0000000000000063
#02756:00000023000000000000000000000000
#0275b:0000000000000053
#02857:00000023000000000000000000000000
#02852:0000000000000063
#03852:0036
#03858:00460000
#07452:00166600
#07458:1616
#09852:0000003400000000
#0985a:0000004400000000
#07258:006600
#07252:006600
#07358:00000016
#07352:00000016
#002350:13000023000000000000000000000000
#002350:00130000
#002320:00000023
#0033b0:00000000000000000000000000000013
#004370:0023
#004361:13
#004321:0023
#0053b1:13000023000000000000000000000000
#005321:00000000000000001300002300000000
#0093b1:1323000000000000
#009350:0013230000000000
#009381:0000132300000000
#009320:0000001323000000
#009381:0000000013230000
#009350:0000000000132300
#0093b1:0000000000001323
#009320:0000000000000013
#010320:23
#010381:13000023000000000000000000000000
#010381:00130000
#0103b1:00000023
#011381:0000132300000000
#011320:0000001323000000
#0113b1:0000000013230000
#011350:0000000000132300
#0113b1:00000013
#011371:00000000000000000000000000000023
#011320:00000000000000000000000000000013
#012360:0023
#012371:13
#0123b1:0023
#013351:13
#013321:00000023000000000000000000000000
#013381:0013
#0133b1:00000000000000000000002300000000
#014351:00001323
#014321:0000000000530000
#014380:00001323
#0143b0:0000000000530000
#017370:13
#0173b0:0000335333000000
#017390:00000033
#018370:3353330000000000
#018380:0033
#0183b0:0000000000003353
#0193b0:33
#019380:00330000
#020380:33000033
#0203b0:00333300
#021380:33
#0213b0:00333353
#0213a0:00000000000000000053005300530053
#021390:0000000000530053
#0223b0:53230000
#0223a0:00530053000000000000000000000000
#022390:0053000000000000
#017321:13
#017361:0000335333000000
#017341:00000033
#018321:3353330000000000
#018351:0033
#019351:00330000
#019321:0000000033533300
#020351:33330000
#020321:00003333
#021351:33330000
#021321:00003353
#021331:00000000000000000053005300530053
#021341:0000000000530053
#022321:53230000
#022331:00530053000000000000000000000000
#022341:0053000000000000
#023321:0000001300230000
#023380:0000001300230000
#024350:0013002300000000
#0243b1:0013002300000000
#0253b1:00001323
#025371:0000000000530000
#026321:0000000000000013
#027361:00003353330000000000000000000000
#027341:0000003300000000
#027321:0023
#0273b1:0000000000000013
#028371:00003353330000000000000000000000
#028391:0000003300000000
#0283b1:0023
#028321:0000000000000013
#029361:00003353330000000000000000000000
#029341:0000003300000000
#029321:0023
#0293b0:000000000000000000000000135353535353535353535353
#0293a0:000000000000000000000000000000000000000000000000000000000000000000000000000000000000000000000000005300530053005300530053005300530053005300530053005300530053005300530053005300530053005300530053
#029390:000000000000000000000000000000000000000000000000005300530053005300530053005300530053005300530053
#0303b0:535353535353230000000000000000000000000000000000
#0303a0:005300530053005300530053005300530053005300530053000000000000000000000000000000000000000000000000000000000000000000000000000000000000000000000000000000000000000000000000000000000000000000000000
#030390:005300530053005300530053000000000000000000000000000000000000000000000000000000000000000000000000
#031360:0013
#031320:00000023
#032370:0013
#0323b0:00000023
#033320:0013
#033360:0000000000000033
#034360:33
#034320:00230000
#0333b1:00001323
#0343b1:13
#034371:00230000
#034371:0000000000130000
#0343b1:0000000000000023
#0353b1:13000023000000000000000000000000
#035381:0000132300000000
#035350:0000001323000000
#0373b0:0000000013000023
#037370:00000000000000000000005300000000
#039370:0013
#0393b0:00000023
#040360:0013
#040320:00000023
#0413b0:0013
#041370:0000000000000033
#042370:33
#0423b0:00230000
#041321:00001323
#042321:13
#042361:00230000
#042361:0000000000130000
#042321:0000000000000023
#043321:13
#043351:00000023000000000000000000000000
#0433b1:0013
#043381:00000000000000000000002300000000
#044321:0013
#044361:0000000000000024
#046361:0012
#046321:00000022
#0473c1:0012
#0483c1:22
#048360:12
#048320:00220000
#048381:00120000
#0483c1:0022
#048360:0000000012000022
#049320:0000000012000022
#050360:00001222
#051320:12
#051360:00220000
#051381:00120000
#0513c1:0022
#051360:0012
#051320:00000052
#052360:22
#052360:00000012
#053320:0022000000000000
#053360:00001222
#053381:00000012
#0543c1:22
#054361:0013
#055321:23
#055321:00001222
#0553c0:00001222
#055340:0000000000000014
#055350:00000000000000000000000000000053
#056330:55
#056350:00530053005300000000000000000000
#056320:0056565626000000
#056340:00000000000000540000000000000000
#055381:00000000000000000000000000001453
#056381:55535653565356542600000000000000
#057381:00001222
#057360:00000012
#058320:22
#058360:00001222
#059320:00001222
#060360:0012
#060340:0000000000320000
#060320:0000000000003232
#061320:32
#061340:0032000000000000
#061360:00220000
#064360:13
#064320:00333333333333332300000000000000
#064320:0000000000000014
#065360:0024000000000000
#065370:0013
#0653b0:00000023
#065321:00000013
#065331:000000000033
#065341:000000000000000000000033
#066351:33
#066361:003333333333230000000000
#0663a0:000000140024
#066360:000054
#067360:1424
#067340:003400000034000000000000
#067330:003434000000
#067320:00340000
#072380:001600
#0723c0:0032
#073380:00000026
#072321:000016320000
#073321:00000026
#074321:0016
#074361:0000000000000023
#075321:00001323
#075361:0000000000530000
#076371:00001323
#0763b1:0000000000530000
#077321:0000000013000023
#077361:00000000000000000000005300000000
#078321:13
#078361:0000002300000000
#078361:0000000000130000
#078321:0000000000000023
#079321:13000023000000000000000000000000
#079351:0000132300000000
#079380:0000001323000000
#081320:0014
#081330:00000000000000000034000000000034
#081340:0000000000340034
#081350:00000000000000000000003400340000
#081360:00000034
#082320:24
#0833b0:00001323
#083370:0000000000530000
#084360:00001323
#084320:0000000000530000
#0853b0:0000000013000023
#085370:00000000000000000000005300000000
#0863b0:13
#086370:0000002300000000
#086370:0000000000130000
#0863b0:0000000000000023
#087380:1323000000000000
#087350:0000000013230000
#088320:0013
#088360:0000000000000024
#090360:0012
#090350:0000000000320000
#090340:00000032
#090330:0000000000000032
#091320:32
#091330:0032000000000000
#091340:00320000
#091350:0000003200000000
#091360:0022
#0913c0:0000000000000012
#0923c0:0022
#094320:0000000000000013
#095320:0023000000000000
#0953b0:0000000000000013
#0963b0:0023000000000000
#096320:0016
#096360:000000000000000000000000003636363636363636363636
#097360:363636363636363636363636000000000000000000000000
#097320:0026
#0973b1:00001323
#097371:0000000000330000
#097391:00000000000000000000003300000000
#097320:00000013
#097360:0000000000000033
#097340:00000000000000000000000000000033
#098320:23
