This file was generated by Ched 2.7.0.0.
#TITLE ""
#ARTIST ""
#DESIGNER ""
#DIFFICULTY 0
#PLAYLEVEL
#SONGID ""
#WAVE ""
#WAVEOFFSET 0
#JACKET ""
#REQUEST "ticks_per_beat 480"
#00002: 4
#BPM01: 170
#00008: 01
#TIL00: ""
#VOLUME: ""
#HISPEED 00
#MEASUREHS 00
#00018:0013
#0001b:00001333330000000000000000000000
#00012:0000000000000013
#00015:23
#00019:0000000000330000
#00118:1300130000130000
#00115:0013000013000000
#0011b:0000001300000013
#00112:00000013
#00218:00000013
#00215:0000130000000013
#00318:1300001300000000
#00312:0013000000000000
#00315:00000000130000000000130000000013
#0031b:00001313
#00418:0000000000130013
#00415:33000013
#00618:0000000000000013
#00612:1300000000240000
#0061a:0024
#00613:00330000000000000000000000000000
#00614:0033000000000000
#00615:00000033333300000000000000000000
#02218:0000000000130000
#02215:00000013
#0221b:0000000000000013
#02212:0013
#04518:0012001200000013
#04516:00121200
#04715:12
#04717:00120000
#04915:12
#0491a:0012000000000000
#04914:00120000
#04919:0000001200000012
#05013:12
#0501a:0012000000000000
#05014:00120000
#0501b:0000001200000000
#05218:00120000
#05216:0012
#05318:0012001200000000
#05316:00120000
#05314:0012
#0531a:00000012
#05518:00001200000012000000000000000013
#05516:00120000
#05517:0000000000000025
#05614:0000000000000012
#05617:15000000001500150000000000000000
#05618:00130013000000000000000000000000
#05616:0017000000000000
#05615:0000191900000000
#0571a:12
#05715:0012000000000000
#05719:00120000
#05716:0000001200000000
#0581b:0012000000000000
#05816:00120000
#0581a:0000001200000000
#06018:00120000
#06012:0000120000000012
#06016:2212
#0601c:2212
#06312:0013000000000000
#06318:00132300
#06315:0000001300230000
#0631b:00000023
#0651b:0013000000000000
#06515:00130000
#06518:0000001300000000
#06512:0013
#09312:0013000023000000
#09315:00130000
#09318:0000001300000013
#0931b:0023
#09415:00000000000000000000341434000000
#09412:2414
#0941a:00240000
#0141b:0013001313000000
#01412:0013001313000000
#01418:13
#0071b:0000000000000013
#00718:0000000000130000
#00715:00000013
#06716:14
#06712:00140000
#06718:00000026
#06714:003400000034000000000000
#06713:003434000000
#04616:0012
#04612:23
#0461b:00230000
#04610:0041
#07118:1300001300000000
#0711b:0013000000000000
#07112:00130000
#0511c:00000012
#0511a:0012
#05118:12
#05119:00120000
#03012:0000000000000013
#03018:0026
#03215:0013001300000000
#03218:00131300
#03212:0000000000000013
#0321b:13
#0311b:1313
#03112:0000001300000013
#03115:0013000000000000
#03118:00130000
#0331b:1313
#03315:0013000000000000
#03318:00130000
#03312:0000001300000013
#0661a:00140000
#06612:0014
#0661f:0011
#06616:000000000000000000003434
#03415:0000001313000000
#03418:13000000000000130000000000000000
#03715:00130000
#03712:0000001300000000
#0371b:00000000000000001300000000003333
#03718:0013000000001300
#04318:0013
#04315:13
#04312:00330000
#0431b:00000033
#00512:13
#0051b:0013
#00515:00000033330000000000000000000000
#00518:00000000000000000000003333000000
#00510:41
#00915:1300130000130000
#00918:0013000013000000
#00912:0000001300000013
#0091b:00000013
#01015:00000013
#01018:0000130000000013
#01115:1300001300000000
#0111b:0013000000000000
#01118:00000000130000000000130000000013
#01112:00001313
#01215:0000000000130013
#01218:33000013
#0081b:0000000000230013
#00812:00000023
#00815:23
#0131b:13
#01312:0013
#01318:00000033330000000000000000000000
#01315:00000000000000000000003333000000
#01515:00000013000000000000000013000000
#01518:0000000000130013
#0151b:23
#01512:0000003323000000
#01514:00330000
#01718:13
#01712:13
#01715:00330013
#0171b:00330013
#01812:3313
#01818:33
#01815:00000033
#01918:00130000
#0191b:0033
#02118:3313
#02115:3313
#02315:00003313330000000000000000000000
#02312:13
#02318:00000000000023000000000000003313
#0231b:00000013
#02310:41
#02516:0000000000140000
#02512:0014
#02518:23
#0251b:00230000
#0261a:242400140000
#02614:002400000000000000000000
#02612:000000240024000000000000
#02618:002400
#02716:14
#02712:0015
#02816:15
#02818:0016
#02914:16
#02912:0024
#04218:0000001313000000
#04215:13000000000000130000000000000000
#0421b:0000000000330000
#04816:00120000
#05416:000000003434140000000000
#05412:24
#05413:003400000000000000000000
#05414:003400000000
#05415:00340000
#05919:0012000000000000
#05914:00120000
#05918:0000001200000000
#06218:0000000000130000
#06215:00000013
#06212:0024
#0621a:0000000000000024
#06210:0041
#06415:0000001300130000
#06418:00000013
#0641a:0024
#06412:0000000000000024
#06915:0016000000000000
#07015:0013000000000013
#0701b:00130000
#07012:0000001300000000
#07018:13
#08112:0000001400000000
#0811a:0014
#08116:00000014
#08118:0000000000340034
#08119:00000000000000000034000000000034
#08117:00000000000000000000003400340000
#08315:1313
#08312:00130000
#08318:0023000000000023
#0831b:0000002300000000
#08512:00131300
#08515:13000000000000000000001300000000
#08518:0023000000000000
#0851b:0000002300000000
#08618:13000000000000130000000000000000
#08612:0000001300000000
#08615:0000000000130000
#08415:13130000
#08412:0013
#0841b:0023000000000023
#08418:0000002300000000
#08918:00121200
#08916:0012001200000000
#08915:0000000000000013
#08715:0000000000130000
#08718:0013000000000000
#08713:00000000000000000000003300000000
#08712:00000033
#0871a:00000033000000000000000000000000
#0871b:00330000
#07518:1313
#0751b:00130000
#07515:0023000000000023
#07512:0000002300000000
#07510:41
#07915:0000001300000013
#07912:0000000000130000
#07918:00000013
#0791b:0013
#0771b:00131300
#07718:13000000000000000000001300000000
#07715:0023000000000000
#07712:0000002300000000
#07815:13000000000000130000000000000000
#0781b:0000001300000000
#07818:0013
#07312:0013000000000000
#07618:13130000
#0761b:0013
#07612:0023000000000023
#07615:0000002300000000
#0951a:0014000014000000
#09516:00140000
#09512:0000001400000000
#09517:00000000000000000000341434000000
#09612:0014000024000000
#09616:0000140000000014
#0961a:0000001400000000
#0971a:00001414
#09712:00001414
#02015:13
#0201b:00000013
#02012:00330013
#03512:13
#03515:00130000
#03518:00000013000000000000000000000000
#0351b:0000001300000000
#0381b:0000000000000013
#03818:00000000000000260000000000000000
#03812:00262600
#03810:0041
#04018:0013001300000000
#04015:00131300
#0401b:0000000000000013
#04012:13
#03912:1313
#0391b:0000001300000013
#03918:0013000000000000
#03915:00130000
#04112:1313
#04118:0013000000000000
#04115:00130000
#0411b:0000001300000013
#0361b:0000001300000000
#03618:24
#03614:0024000000000000
#02412:0023
#02415:0023000000002300
#02418:33
#06118:0022
#09814:24240000
#09818:0024002400000000
#06818:00260000
#06812:2626
#04412:2323
#04418:2323
#04415:00230000
#0441b:00230000
#01612:2424
#0161a:00240000
#07218:26
#07212:0026
#0801a:24
#08012:0024000000000000
#08218:00000000000000260000000000000000
#08212:00262600
#0821b:0000000000000023
#0881b:2323
#08815:2323
#08818:00230000
#08812:00230000
#07412:0000260000000023
#07418:2626
#0741f:0021
#0901b:23
#09012:00230000
#0911a:00000032
#0911b:0000000000320000
#00852:00000033
#0085b:0000000000430000
#0145b:0053
#01452:0063
#01455:00000013
#01458:00000013
#00255:00630000
#00355:00000000000000000000000000000063
#06555:00000013
#06552:0053
#06756:64
#06752:00240000
#06758:00000016
#06056:0052
#06052:0000000000000022
#04656:0052
#04652:13
#0465b:00130000
#06858:00160000
#06852:1656
#0515c:00000022
#0515a:0052
#0315b:0063
#03058:0016
#0335b:0063
#0375b:0053
#03758:00000023
#04358:0053
#04355:63
#04452:0053
#04458:0053
#05657:65000000002500250000000000000000
#05658:00230023000000000000000000000000
#05656:0067000000000000
#05655:0000696919000000
#05558:00000000000000000000000000000023
#05557:0000000000000025
#00552:53
#0055b:0063
#00652:53
#01058:00530000
#01158:00000000000000000000000000000053
#0135b:63
#01352:0053
#01555:00000063000000000000000000000000
#0155b:13
#01552:0013
#01652:1414
#0165a:00140000
#01758:63
#01752:63
#01755:00000053
#0175b:00000053
#01852:0063
#01958:00530000
#02158:0063
#02155:0053
#02355:00000023000000000000000000000000
#02352:63
#02358:00000000000000000000000000000023
#0235b:00000053
#02556:0000000000240000
#02552:00006434
#0265a:0054
#02756:24
#02752:0065
#02856:25
#02858:0056
#02954:26
#03258:0053
#03458:53
#05452:54
#05456:0054
#05855:00000012
#05953:00000012
#0625a:0000000000000014
#06252:0014
#0645a:0014
#06452:0000000000000014
#06652:0054
#06955:0026000000000000
#04258:0053
#04255:63
#0815a:0054
#08156:00000024
#08355:0063
#08552:0063
#08555:00000000000000000000002300000000
#08658:63
#08655:0000000000630000
#08452:0063
#08755:0000000000630000
#08758:0053000000000000
#0885b:0063
#08855:0063
#07558:0053
#0775b:0053
#07758:00000000000000000000002300000000
#07855:53
#07352:0023000000001600
#0765b:0053
#07458:1616
#07452:00160000
#07252:0066
#0905b:13
#09052:00130000
#09258:0000000000000012
#09452:1400000054000034
#0945a:00140000
#09455:00000000000000000000002400000000
#09557:00000000000000000000002400000000
#0955a:0000000064000044
#09656:0000000000000024
#09652:0054
#09858:0000001400000000
#0005b:0053000000001300
#00058:0053
#08252:0016
#0825a:44
#03852:0016
#02055:63
#0205b:00000053
#02052:00000063
#03952:0053
#04152:0053
#04055:0063
#0003b0:00001333330000000000000023000000
#000380:0000003333000000
#000390:0000000000330000
#002350:13000033330000000000000000000000
#002320:0023
#003350:00000000000000000000000000000013
#004350:33
#004320:0023
#005320:13
#005350:00000033330023000000000000000000
#0053b0:0013
#005380:00000000000000000000003333002300
#006320:13
#006330:00330000000000000000000000000000
#006340:0033000000000000
#006350:00000033333323000000000000000000
#007320:13000000000033332300000000000000
#007350:00003333330000000000000000000000
#008350:1333333323000000
#010380:13000033330000000000000000000000
#0103b0:0023
#011380:00000000000000000000000000000013
#012380:33
#0123b0:0023
#0133b0:13
#013380:00000033330023000000000000000000
#013320:0013
#013350:00000000000000000000003333002300
#014320:0013
#014350:00000023
#0143b1:0013
#014381:00000023
#015351:00000013000000000000000000000000
#015341:00330000
#015321:0000003323000000
#017321:13
#017351:00333333
#018321:33333300
#018351:00000033
#019351:33333333
#020351:33
#020321:00333333
#021351:33333300
#022321:00230000
#017380:13
#0173b0:00333333
#018380:33333333
#019380:33330000
#0193b0:00003333
#0203b0:33333333
#021380:33333300
#0223b0:00230000
#023320:1300003300230000
#023350:00003333330000000000000000000000
#023381:0000001300230000
#0233b1:00000013
#023381:00000000000000000000000000003333
#024381:33
#0243b1:0033002300000000
#024350:0013002300000000
#025320:00001424
#025360:0000000000540000
#0263a0:0014
#027360:54
#0273a0:0024
#027321:0015
#028361:55
#028321:0025
#028380:0016
#029340:56
#029380:0026
#029321:000000000000145454545454
#029331:000000000000000000000000005400540054005400540054
#030321:545454240000000000000000
#030331:005400540054000000000000000000000000000000000000
#0313b1:0013
#031381:00000023
#032381:0013
#0323b1:00000023
#0333b1:0013
#033381:00000023
#034381:13
#0343b1:00230000
#0343b1:0000000000130023
#035351:0000000013000023
#035341:00000000000000000033000000330000
#035331:0000000000333300
#035321:00000000000000000000003300000000
#036321:00000000000000001300000000003333
#036351:00000000000000000000333333000000
#037321:23
#0373b1:00000000000000001300000000003333
#037381:00000053
#0383b1:23
#039321:0013
#039351:00000023
#040351:0013
#040321:00000023
#041321:0013
#041351:00000023
#042351:13
#042321:00230000
#042381:0013
#0423b1:0000000000330023
#043351:13
#043321:0000332300000000
#043381:0013
#0433b1:0000000000003323
#044321:0013
#044351:0000000000000023
#044380:0013
#0443b0:0000000000000023
#046360:0012
#046330:00000022
#047390:0012
#048390:22
#0483b0:0000000012000022
#049330:00001222
#050350:00001222
#0513a0:0012
#0513c0:00000052
#0523a0:22
#052340:00000012
#053340:22
#054320:14
#054330:003400000000000000000000
#054340:003400000000
#054350:00340000
#054360:000000003434340000000000
#055320:24
#055360:00001222
#055370:0000000000000015
#055380:00000000000000000000000000000053
#056370:55000000005500550000000000000000
#056380:00530053000000000000000000000000
#056360:0057000000000000
#056350:0000595929000000
#057380:00001222
#057361:00000012
#058361:22
#058351:00001222
#059331:00001222
#060361:0012
#060321:0000000000000052
#061361:00220000
#065321:0013
#065351:00000023
#066321:0014
#066361:000000000000000000003434
#067361:3424
#067341:003400000034000000000000
#067331:003434000000
#067321:00340000
#068321:0016
#069351:0056000000000000
#069321:00000026
#070381:00001323
#071321:0013
#072351:23
#072380:163636260000
#072321:0016
#073321:0053000000002600
#075381:0013
#0753b1:00000023
#0763b1:0013
#076381:00000023
#0773b1:0000000013000023
#077381:00000000000000000000005300000000
#078351:13
#078321:00230000
#078321:0000000000130000
#078351:0000000000000023
#0793b1:13
#079381:00230000
#0803a1:00000000000014003400000000003434
#080371:00000000000000000000343434000000
#0813a1:34
#081371:00003434240000000000000000000000
#0813a1:0014
#081391:00000000000000000034000000000034
#081381:0000000000340034
#081371:00000000000000000000003400340000
#081361:00000034
#0823a1:24
#083351:0013
#083321:00000023
#084321:0013
#084351:00000023
#085321:0000000013000023
#085351:00000000000000000000005300000000
#086381:13
#0863b1:00230000
#086351:0000000013330000
#086321:0000000000000023
#087381:1333000000000000
#0873a1:00000033000000000000000000000000
#0873b1:0000332300000000
#087351:0000000013330000
#087331:00000000000000000000003300000000
#087321:0000000000003323
#0883b1:0013
#088381:0000000000000023
#088350:0013
#088320:0000000000000023
#0903c0:0012
#0903b0:0000000000320000
#0903a0:00000032
#090390:0000000000000032
#091380:3200000000000032
#091390:0032000000000000
#0913a0:00320032
#0913b0:0000003200320000
#0913c0:0032
#092380:0000000000000022
#094320:0000000014000024
#094350:00000000000000000000343434000000
#0953a0:0000000014000024
#095370:00000000000000000000343434000000
#096320:0014
#096360:0000000000000054
#097320:00240000
