This file was generated by Ched 2.7.0.0.
#TITLE ""
#ARTIST ""
#DESIGNER ""
#DIFFICULTY 0
#PLAYLEVEL
#SONGID ""
#WAVE ""
#WAVEOFFSET 0
#JACKET ""
#REQUEST "ticks_per_beat 480"
#00002: 4
#BPM01: 170
#00008: 01
#TIL00: ""
#VOLUME: ""
#HISPEED 00
#MEASUREHS 00
#0011a:14
#00114:00140000
#00118:0014
#00112:00000014
#0021a:14
#00318:14
#00314:00140000
#0031a:0014
#00312:00000014
#00512:14
#00518:00140000
#00514:0014
#0051a:00000014
#00510:41
#00614:14
#00618:00140000
#00612:0014
#00912:14
#00918:00140000
#00914:0014
#0091a:00000014
#01012:14
#01114:14
#01118:00140000
#01112:0014
#0111a:00000014
#0131a:14
#01314:00140000
#01318:0014
#01312:00000014
#01418:14
#01414:00140000
#0141a:0014
#02412:00000014
#02518:14
#0251a:0014
#02514:00140000
#02612:14
#02616:00140000
#0261a:0014
#02716:0000000034000014
#03118:14
#03114:00140000
#03113:00000014
#0311a:0024
#03014:00000014
#0301a:0024
#03217:14
#03213:00140000
#03212:00000014
#0321a:0024
#03312:00140000
#03316:14
#0331a:0014
#03318:0000000000000014
#03412:0014
#0341a:00000014
#03418:34
#03514:14
#03518:00140000
#03512:0014
#0351a:00000014
#03614:14000014
#03618:0014
#03718:1414
#03714:00140000
#03914:14
#03918:00140000
#03919:00000014
#03912:0024
#03818:00000014
#03812:0026
#03810:0041
#04015:14
#04019:00140000
#0401a:00000014
#04012:0024
#0411a:00140000
#04116:14
#04112:0014
#04114:0000000000000014
#0421a:0014
#04212:00000014
#04214:34
#04318:14
#04314:00140000
#0431a:0014
#04312:00000014
#04418:14
#04414:00140000
#0441a:0014
#04514:0014
#05519:14
#05518:0014
#05619:14
#0561a:0014
#05719:14
#06312:14
#06318:0014
#0651a:14
#06514:0014
#06814:14000014
#0681a:0024
#06618:0014
#0661f:0011
#0671a:14
#0691a:14
#06914:00140000
#06912:00000014
#06918:0024
#07018:14
#07012:00140000
#07014:00000014
#0701a:0024
#0711a:14
#07114:00140000
#07118:0014
#07112:00000014
#07518:14
#07512:00140000
#07515:00000014
#0751a:0024
#07510:41
#07619:14
#07613:00140000
#07616:00000014
#0761a:0024
#07714:00140000
#0771a:1414
#07718:0000000000000014
#07812:0014
#07818:34000014
#07914:14
#0791a:00140000
#07912:0014
#07918:00000014
#08014:14000014
#0801a:0014
#0811a:1414
#08114:00140000
#08218:00000014
#08212:0026
#0881a:0014
#08818:14
#08812:00140000
#0861a:0014
#08614:34000014
#08718:14
#08712:00140000
#0871a:0014
#08714:00000014
#08914:0014
#09116:0014000000000000
#0911a:34343400
#0901a:24001434
#09012:00240000
#09312:0014
#0931a:0014
#09515:0000000000000016
#09718:0016
#09712:00000016
#0541a:0014
#05913:14
#05914:0014
#06013:14
#06012:0014
#06113:14
#05812:0014
#08314:14
#0831a:00140000
#08317:00000014
#08312:0024
#08413:14
#08419:00140000
#08416:00000014
#08412:0024
#08518:00140000
#08512:1414
#08514:0000000000000014
#00718:2424
#00714:00240024
#00818:24
#01512:24
#0151a:0024
#01614:2424
#01618:00240000
#02912:0026
#06218:0024
#06210:0041
#06414:0024
#07218:24
#07412:0026
#0741f:0021
#0461a:24
#04612:00240000
#04610:0041
#09412:2626
#09418:00260000
#09818:26
#02816:0034
#02310:41
#00858:0014
#01552:14
#0155a:0014
#01654:1414
#01658:00140000
#0255a:0014
#02756:0000000000000024
#0265a:0054
#02952:0016
#0335a:0054
#03358:0000000000000064
#03654:14
#03758:0054
#0385a:14
#03852:0016
#04152:0064
#04154:0000000000000054
#0445a:0054
#05559:54
#05558:0024
#05659:54
#0565a:0024
#05759:54
#06258:0014
#06454:0014
#06358:0054
#06554:0064
#06658:0054
#0675a:24
#07452:0016
#08054:14
#0885a:0054
#0815a:0064
#08258:14
#08252:0016
#0925a:0000000000000014
#0905a:0054
#09156:0024000000000000
#09555:0000000000000026
#09452:0066
#09858:0000001600000000
#0545a:0024
#05953:64
#05954:0024
#06053:64
#06052:0024
#06153:64
#05852:0024
#0775a:0054
#07758:0000000000000064
#08552:0064
#08554:0000000000000054
#002340:00140000
#002320:00000024
#004380:14
#0043a0:0024
#008380:1434343424000000
#010380:00140000
#0103a0:00000024
#012340:14
#012320:0024
#017380:14
#017390:00340000
#0173a0:00003434
#018390:34000034
#018380:00343400
#0193a0:34340000
#019390:0034
#019380:00000024
#020340:14
#020330:00340000
#020320:00003434
#021330:34000034
#021340:00343400
#022320:34340000
#022330:0034
#022340:00000024
#0233a0:14
#023380:0000003400003400
#0243a0:0034000024000000
#0263a0:0014
#027360:0000000034000054
#028360:0034
#0293a0:00240000
#0333a0:0014
#033380:0000000000000034
#034380:34
#0343a0:00240000
#037380:0014
#0383a0:24
#041320:0014
#041340:0000000000000034
#042340:34
#042320:00240000
#0443a0:0014
#045380:24
#0463a0:0014
#047380:0034
#0483a0:0034
#049380:0024
#050320:0014
#051340:0034
#052320:0034
#053340:0024
#0543a0:0014
#055390:54
#055380:0034
#056390:54
#0563a0:0034
#057390:54
#057380:0024
#058320:0014
#059330:54
#059340:0034
#060330:54
#060320:0034
#061330:54
#061340:0024
#063380:0014
#0643a0:24
#065340:0014
#066320:24
#066380:0014
#0673a0:54
#067380:0024
#072340:0014
#074320:0026
#0773a0:0014
#077380:0000000000000034
#078380:34
#0783a0:00240000
#0813a0:0014
#082380:24
#085320:0014
#085340:0000000000000034
#086340:34
#086320:00240000
#0883a0:0014
#089380:24
#0903a0:00001434
#0913a0:3400340034003434
#091360:0054000000000000
#0923a0:0000000000000024
#094320:0016
#095350:0000000000000056
#097320:00260000
#098380:1636362600000000
