This file was generated by Ched 2.7.0.0.
#TITLE ""
#ARTIST ""
#DESIGNER ""
#DIFFICULTY 0
#PLAYLEVEL
#SONGID ""
#WAVE ""
#WAVEOFFSET 0
#JACKET ""
#REQUEST "ticks_per_beat 480"
#00002: 4
#BPM01: 144
#00008: 01
#TIL00: ""
#VOLUME: ""
#HISPEED 00
#MEASUREHS 00
#04214:14
#04318:14
#04412:14
#0451a:14
#0461a:14
#04712:14
#04812:14
#0581a:14
#05914:14
#06018:14
#06112:14
#0621a:14
#06314:14
#06418:14
#07312:2616
#0731f:21
#07418:16
#07412:0016
#07410:41
#07518:1616
#07718:1616
#07812:16
#07818:0016
#07912:1616
#04119:15
#04110:41
#00112:14
#0021a:14
#00312:14
#00514:14
#00618:14
#0041a:14
#00714:14
#01012:14
#0111a:14
#01214:14
#01318:14
#01412:14
#0151a:14
#01614:14
#0171a:14
#0181a:14
#01914:14
#02014:14
#02118:14
#02218:14
#02312:14
#02412:14
#03312:0016
#03318:26
#03310:41
#03418:16
#03412:0016
#03718:1616
#03812:1616
#08118:0014
#08114:24
#08214:14
#08218:0014
#08514:0014
#08518:14
#08510:41
#08618:14
#08614:0014
#0651f:11
#08918:26
#08812:26
#00910:41
#02510:41
#008380:14343400
#009380:24
#0253a0:14
#0263a0:24
#027320:14
#028320:24
#029380:14
#030380:24
#031340:14
#032340:24
#035380:1626
#036320:1626
#039380:1626
#040320:16362600
#049380:14
#050380:24
#051340:14
#052340:24
#0533a0:14
#0543a0:24
#055320:14
#056320:3434
#057320:24
#065320:14
#066340:24
#0673a0:14
#068380:24
#069340:14
#070320:24
#071380:14
#0723a0:34342400
#076320:1626
#080380:16362600
#083320:14
#083340:0034
#084340:34
#084320:0024
#0873a0:1424
#088320:16362600
#089380:16363636
#0923a0:24
