This file was generated by Ched 2.7.0.0.
#TITLE ""
#ARTIST ""
#DESIGNER ""
#DIFFICULTY 0
#PLAYLEVEL
#SONGID ""
#WAVE ""
#WAVEOFFSET 0
#JACKET ""
#REQUEST "ticks_per_beat 480"
#00002: 4
#BPM01: 144
#00008: 01
#TIL00: ""
#VOLUME: ""
#HISPEED 00
#MEASUREHS 00
#00114:00130000
#00116:0012
#00112:24000014
#0011b:0000000000000013
#00115:0000000000000013
#00117:00000013
#00317:00000013000000000000001300000000
#00312:0013130000131300
#0031b:0000001313000000
#00316:00000000000000130000000000000000
#00318:0000000000000013
#00415:13
#0041b:0013001300001300
#00416:0000001300001300
#00417:0000130013000013
#00412:00130000
#00419:0000000000130000
#0051a:24000014
#00512:0000000000000013
#00518:0000000012000013
#00516:00000013
#00519:00130000
#00915:00000000000000130000000000001300
#00918:0013130000000000
#00913:00000013000000000000000000000000
#0091a:0000001313000000
#00917:0000000000131300
#00912:00000000000000000000001300000000
#0091b:2300000000000013
#00910:41
#01018:00000013001300000000000000000000
#01015:00130000
#01012:1313001300000013
#0101b:00000013
#01017:00000000000000000000000000000013
#0111b:00000013000000000000130000000000
#01115:0000000000130013
#01112:1300001313001300
#01118:00000013
#01116:0013130000000000
#01117:00000000000000130000000000000000
#01215:00000013000000000000000000000000
#01218:13130000
#01212:00000000001300000000000013000000
#0121b:0013000000000013
#01216:00000000000000000000000000000013
#01615:13
#01619:0000000000000013
#01616:00000024
#01712:00000013
#01717:00000013
#01716:0000000012000013
#0171b:0000000000000013
#01718:00130000
#01714:24
#01817:0000000000130000
#01812:0013
#0181b:0000000000001313
#01816:0000000000000013
#0191b:0000130000130000
#01912:0000000000000013
#02015:13000000130000130000000000001300
#0201b:0000001300001300
#02018:00000013000000001300000000000000
#02012:0013000000000000
#0211b:00000013
#02116:00000013
#02117:0000000000000013
#02112:0000000000000013
#02118:2214
#02115:00130000
#02216:0000000000130000
#0221b:0013
#02212:0000000000001313
#02217:0000000000000013
#02315:00000000130000001300001300000000
#02318:00000000001300130000000000130000
#02316:13
#0231b:00000000000000000013000000000000
#02312:00000000000000000000000000000013
#02418:13
#02415:00130000
#02417:0013
#02416:00000013
#0251a:000000140014000000140014
#02514:000014000014
#02512:000000141400
#02518:000000000000001400000000
#02516:24
#02510:41
#02612:240000140014000000140014
#02617:000014000014
#0261a:000000141400
#02615:000000000000001400000000
#00016:0000000000000000000000000000000013000000000000000000001300000000
#00012:00000013
#0001b:0013
#0021a:0000000000140014
#00218:00000013001300130000000000000000
#00215:0013131300000000
#00212:00001414
#00217:13
#00612:0000000000140014
#00615:00000013001300130000000000000000
#00618:0013131300000000
#0061a:00001414
#00616:13
#0071b:0013000013000000
#00715:00000000000000001300000000000013
#00718:0000000000130000
#00717:00000000001300000000000000000000
#00712:0000131300000000
#07616:0013000000130000
#07617:0000001300000000
#07618:26000026
#07614:2323
#07619:00230000
#0271a:240000140014000000140014
#02716:000000001400001400001400
#02712:000000141400
#02813:00140000
#02814:0014
#02815:000000000000000000140014
#0281a:000000000014
#02812:24
#02912:00140000
#02918:000000001414000000000000
#02913:0014
#0291a:240000000000000000001414
#02914:00000014
#02916:0000001200000000
#02919:000000000000001414000000
#02917:0000000000120000
#0321a:1414
#03218:0000001400000000
#03216:00141400
#03217:0000000000120000
#03214:0014000000002800
#03212:00140000
#0481b:13
#04816:00000024
#04813:00000000000000000000000000000033
#04918:00140000
#04919:0014
#0491a:00000014
#04916:0000000000000014
#04917:24
#04915:00000000000000330000000000000000
#05114:00140000
#05113:0014
#05112:00000014
#05116:0000000000000014
#05115:14
#05118:00000000000000330000000000000000
#0521a:14000000000000001400000014001414
#05212:14141414
#05216:0000000000140000
#05215:0013001300000000
#05218:00000013001300000000000000000000
#0501a:14000000000000001400000014000033
#05016:0014000000140000
#05012:14141414
#05018:00000000001300000000000000000000
#05015:0000001300000000
#05412:14000000000000001400000014001414
#0541a:00140014
#05416:0000000000140000
#0561a:14141424
#05616:0014000000140000
#05612:00000024
#06312:14141400
#06318:00130000001300000000000000130000
#06315:00001300000013000000001300000000
#0631b:00000013000000130000000000000000
#06015:00001323
#06018:0000000000130000
#06012:0000001300130000
#0601b:0013000000002300
#0591b:13000033330000000000130000000000
#0591b:00000033000000000000000000000000
#05916:00130000
#05912:0000001300000013
#0591a:00000000003300000000000000000000
#05919:0000003300000000
#05918:00000000000000330000000000000000
#06412:000000000000003333333333000000130000000000000000
#0641b:003333333333000000000000130000000000130000000000
#06415:0000000000000013
#06414:0013000000000000
#06419:0000001300000000
#06615:0013000000000000
#06618:00000013000000000000000000001300
#06612:13
#0671b:0013130000131300
#06716:00000013000000000000001300000000
#06712:0000001313000013
#06717:00000000000000130000000000000013
#06518:13131300
#0651b:0013001300130000
#06512:23131313
#0651f:11
#06818:00000000000000130000000000001300
#06815:0000001313000000
#0681b:0013000000130000
#06812:00000013
#07018:0013000000000000
#07015:00000013000000000000000000001300
#0701b:13
#06915:13131300
#06912:0013001300130000
#0691b:23131313
#0711b:00130013000013001300000000000000
#07115:00001300000000000013000000000000
#07118:0000000000130000
#07112:00000000000000000000001300000000
#0721b:13130000
#07219:0013000000000000
#07217:0000001400000000
#0721a:0014
#07215:0000140000150000
#07213:0015
#07212:00000026
#07512:13000000000000130000001300000000
#0751b:0000000013000000000000000000000000000013000000000000000000000000
#07516:0000000000001300000000000000000000000000000000000013000000000000
#07519:00130000
#07514:00000000001300000000000000000000
#07517:0000001313000013
#07818:00001300000000130000130000000000
#07815:00000013000013000000001300001300
#0781b:00000000130000000000000013000013
#07812:0013
#07418:00001313
#0741b:0000000000130000
#07415:0000000000130013
#07412:00000013
#07410:41
#07912:0000000013000000000000000000000000000013000000000000000000000000
#07917:0000000000001300000000000000000000000000000000000013000000000000
#07914:00130000
#07919:00000000001300000000000000000000
#07916:0000001313000014
#0791b:00000000000000130000001300000000
#08016:0014001400000000
#0801b:0000000000000000000000000000000000000000000000000033333313333333
#08012:2600000000000000240000000000000000000000000000000033333313333333
#0801a:24
#08018:00002623
#08015:00000023
#0831b:0013
#08316:00000000000000000013000000000000
#08319:0000000000130000
#08314:00000000000000000000001300000000
#0841b:0000130000000013
#08415:0000001300002300
#08418:00000000000000130000230013000000
#08412:0000000000000013
#0871b:00000000001300001300000000000000
#08715:00000000000000000013000000000000
#08718:0000000000130000
#08716:00130000
#08712:00000000000000130000000000000014
#0881a:00140022
#08812:0014
#08816:00230013
#08817:2323
#08916:0014001400150000
#08912:2323
#0891b:00230000
#08918:00000026
#0901a:0014
#00818:16131626
#00812:00160026
#00814:0013
#00816:00000000000000000000140000000013
#0081b:0000000000000013
#03117:000014140000
#03115:000000000000000000140014
#0311a:240000000014
#03112:000000140014000000000000
#0301a:00140000
#03014:000000001414000000000000
#03019:0014
#03012:240000000000000000001414
#03018:0000001200001400
#03013:000000000000001414000000
#03017:0000000000120000
#01315:00000000000000130000000000001300
#01318:0013130000000000
#01313:00000013000000000000000000000000
#0131a:0000001313000000
#01317:0000000000131300
#01312:00000000000000000000001300000000
#0131b:2300000000000013
#01418:00000013001300000000000000000000
#01415:00130000
#01412:1313001300000013
#0141b:00000013
#01417:00000000000000000000000000000013
#0151b:00000013000000000000130000000000
#01515:0000000000130013
#01512:1300001313001300
#01518:00000013
#01516:0013130000000000
#01517:00000000000000130000000000000000
#04012:1500000000002514
#04018:00000000000000000000000000000014
#04019:1313
#04016:0014001400000000
#04014:00130000
#04017:00000027
#0411a:0014140000141400
#04112:2400001414000000
#04116:0000000000000014
#04114:00000014000000000000001400000000
#04118:00000000000000140000000000000000
#04110:41
#0421a:14000014
#04212:14001314
#04217:0013000000000000
#04213:00000013000000000000000000000000
#04219:0000130000000014
#04215:00000000001300000000000000000014
#0421b:0000001313000000
#04216:0000000000140000
#0431a:1414
#04313:0014000000000000
#04317:00000014000000000000130000000000
#04312:0000140000130000
#04319:0000001400001300
#04315:00000000000000140000000000000000
#04314:00000013
#0431b:0000000000000013
#03412:00130013
#0341b:0013
#0351b:1300000013000013
#03512:0000000000000000000000000000000000000000000000000013000000000000
#03516:00000000000000000000001300000000
#03517:0000000000000000000000000000000000000013000000000000000000000000
#03515:00000013001300130000000000000000
#03518:0013131300000000
#03617:1313
#03616:00130000
#03612:14001426
#0361a:00140000
#03618:00000026
#04412:13000000001300001300000000000000
#0441b:0013000013001300
#04418:00000000130013000000130000000014
#04414:0000000000000014
#04415:00000013000000130000000000000000
#04417:13
#04518:0014000000140000
#04515:00000014000000000000001400000000
#0451a:00140014
#04514:0000001400000000
#04517:00000000000000140000000000000000
#04512:2414
#04516:0000000000000014
#04612:1400001313001400
#0461a:14000013000000000000000014000000
#04616:0013000000140000
#04614:00130000
#04618:00000000001300000000000000000000
#0461b:0013
#04617:0000000000000014
#04615:00000000000000000000000000000014
#0471a:1414
#04715:00001400000000140000000000000000
#04717:00000014000014000000130000000000
#04712:0000140000130000
#04714:00000013
#04719:00000013
#0471b:0000000000000013
#05318:00001414000000000000141400000000
#05312:00140014
#0531a:00000000000014140000000000000000
#05314:2414
#05514:00001414000000000000141400000000
#0551a:00140014
#05512:00000000000014140000000000000000
#05518:1414
#05712:14142300
#0571a:00001414
#0571b:23
#05715:00002300000000000000002300230023
#05718:00000023002300230000230000000000
#05812:14142424
#05816:0000000000240014
#0581a:00002424
#0581b:23
#05815:0023000000000000
#05818:00000023002300230000000000000000
#0611a:14140000
#06112:23001414
#06118:00002300000000000000002300230023
#06115:00000023002300230000230000000000
#0611b:0023
#0621a:14142424
#06216:0000000000240014
#06212:23002424
#06218:0023000000000000
#06215:00000023002300230000000000000000
#08512:0013001300130013
#08516:00130000
#08515:1313
#08514:00000013
#0851b:0013001300130013
#08519:00130000
#08518:1313
#08517:00000013
#08510:41
#08615:13000013
#08612:0013001300230000
#08618:1300000000130000
#0861b:0013001300002300
#08616:00130000
#08619:00130000
#03712:00000000002400240000000000001400
#0371b:0000000000000023
#0371a:24000024
#03718:00000024000000002400000000000000
#03714:0024000000240000
#03915:1313000000000013
#03917:0000000000000000000000000000000000000000000000000013000000000000
#0391b:13000013000000000000001300000000
#03912:0000000000000000130000000000000000000013000000000000000000000000
#03916:0013
#0391a:00000000000000130000000000000000
#03914:0000001300000000
#03918:00000000001300000000000000000000
#03817:13
#03812:00000000000000130000000000000013
#03818:0000001313000013
#03815:0013130000131300
#0381b:00000013000000000000001300000000
#0331a:00000000002400240000000000001400
#03312:2400000000002423
#03314:00000024000000002400000000000000
#03318:0024000000240000
#03310:41
#0771a:24000000002400240000000000001400
#07716:0000000000000023
#07712:24000024
#07715:00000024000000002400000000000000
#07719:0024000000240000
#07312:24000000002400240000000000001400
#07317:00000024000000002400000000002300
#0731a:24000024
#07313:0024000000240000
#0731f:21
#08215:1300000000130000
#08218:13000013
#0821b:0013001300230000
#08212:0013001300002300
#08214:00130000
#08217:00130000
#08118:1313
#0811b:0013001300130013
#08117:00130000
#08119:00000013
#08115:1313
#08112:0013001300130013
#08114:00130000
#08116:00000013
#0015b:0000000000000063
#00152:34
#00154:00330000
#00156:0032
#00352:00000013
#00358:0000000000000013
#00455:13
#0045b:0013000000000000
#00456:0000002300006300
#00452:00633300
#01052:0000001300000000
#0105b:00000013
#01252:00000013
#01652:00000013
#01756:0000000032000063
#01758:00430000
#01754:34
#01852:0023
#0185b:0000000000000053
#01856:0000000000000013
#0205b:13
#02055:00130000
#02058:0013
#02157:0000000000000053
#02158:4244
#02155:00330000
#0225b:0023
#02252:0000000000000063
#02257:0000000000000013
#02356:23
#0235b:00000000000000000013000000000000
#02355:00000000000000000000001300000000
#02358:00000000000000000000000000130000
#02352:00000000000000000000000000000013
#02458:63
#02455:00530000
#02457:0063
#02456:00000053
#0245b:00130013
#02452:0013
#02552:13
#02556:14
#00056:0000000000000000000000000000000063000000000000000000002300000000
#00052:00000053
#0005b:0063
#0025a:0000000000440064
#00252:00003434
#00257:23
#00552:0000000000000053
#00559:00430000
#00558:0042
#0055a:44
#00652:0000000000340054
#0065a:00004444
#00656:23
#07658:46004646
#07656:0023000000230000
#07657:0000002300000000
#07654:5353
#07659:00630000
#07652:00360036
#03658:00000046
#03652:34003436
#0365a:00440000
#02853:00140000
#02854:0014
#02852:14
#0295a:14
#0325a:1414
#03256:0064
#03257:0000000000220000
#03254:00000018
#03252:00140000
#0485b:00000013
#04958:00140000
#04959:0014
#0495a:00000014
#04957:14
#05154:00140000
#05153:0014
#05152:00000014
#05155:14
#0525a:1414
#05252:00140014
#0505a:1414
#05052:00140014
#0545a:14001414
#05452:00140000
#05652:14001434
#0565a:00145444
#05656:0000000000240000
#0585a:00000044
#05852:0034
#0585b:13
#0605b:00000013
#06055:00000013
#06355:00000000000000000000001300000000
#06655:0000000000000013
#06658:0000000000000013
#0645b:00001313
#06452:0000000000130000
#0685b:0000000000130000
#06852:00000013
#07055:0000000000000013
#07058:0000000000000013
#0695b:13
#06952:0000000000130000
#0655b:0000000000130000
#06552:13
#0725b:63630000
#0725a:0064
#07259:0023000000000000
#07257:0000002400000000
#07255:0000340000250000
#07256:33
#07253:0035
#07252:00000036
#07258:00000046
#07557:0063
#0755b:0000000000000000000000000000000000000023000000000000000000000000
#07552:00000000000000000000006300000000
#07556:0000000000000000000000000000000000000000000000000023000000000000
#0785b:00000000130000000000000013000053
#07852:0013
#07956:0053
#07952:0000000000000000000000000000000000000023000000000000000000000000
#0795b:00000000000000000000005300000000
#07957:0000000000000000000000000000000000000000000000000023000000000000
#08056:0024002400000000
#08052:3600540036000023
#0805a:64
#08058:00464663
#0805b:0000000000000023
#08055:00000053
#0845b:0000130000000023
#08452:0000000000000023
#08455:00000053
#08458:00000063
#08857:4343
#08856:00330033
#0885a:00000022
#08956:0024002400250000
#08952:53365336
#0895b:00630000
#08958:1646
#0905a:0064
#0075b:0013
#00858:46004646
#00852:00360036
#00856:0000000000240000
#00854:0053
#0275a:14
#02652:14
#03052:14
#03157:0014
#0315a:14
#01452:0000001300000000
#0145b:00000013
#0135b:13
#01358:00130000
#0135a:0013
#01357:00000013
#01552:1313
#01556:00130000
#01558:00000013
#0415a:00140014
#04152:1414
#0435a:1414
#04352:00140000
#04354:00000013
#03552:0000000000000000000000000000000000000000000000000023000000000000
#03556:00000000000000000000005300000000
#03557:0000000000000000000000000000000000000023000000000000000000000000
#0355b:0053
#0445b:00000013
#0455a:00140014
#04552:1414
#0475a:1414
#04752:00140000
#04754:00000013
#05352:00140014
#05354:1414
#0555a:00140014
#05558:1414
#0625a:0044
#06252:13000034
#0575b:13
#05752:0013
#06152:13
#0615b:0013
#0735a:44000044
#07357:00000044000000004400000000000000
#07353:0034000000340000
#07352:00000000003400340000000000001400
#08552:0023002300230023
#08556:00530000
#08555:5353
#08554:00000053
#0855b:0023002300230023
#08559:00630000
#08558:6363
#08557:00000063
#08655:53
#08652:0023002300330000
#08658:63
#0865b:0023002300004300
#08656:00530000
#08659:00630000
#03352:34000034
#03354:00000034000000003400000000000000
#03358:0044000000440000
#0335a:00000000004400440000000000004400
#07752:34000034
#07755:00000034000000003400000000000000
#07759:0044000000440000
#0775a:00000000004400440000000000001400
#04052:3535
#04059:63452300
#04057:00000017
#04056:0024002400000000
#04054:00530000
#0375b:0000000000000053
#03752:00000000003400340000000000003400
#0375a:44000044
#03758:00000044000000004400000000000000
#03754:0034000000340000
#03857:23
#03855:00130013
#03858:0013
#03957:0000000000000000000000000000000000000000000000000023000000000000
#0395b:00000000000000000000005300000000
#03952:0000000000000000000000000000000000000023000000000000000000000000
#03956:0053
#0825b:0023002300430000
#08252:0023002300003300
#08258:63
#08255:53
#08254:00530000
#08257:00630000
#04252:00000014
#0425a:00000014
#0465a:00000014
#04652:00000014
#08158:6363
#0815b:0023002300230023
#08157:00630000
#08159:00000063
#08155:5353
#08152:0023002300230023
#08154:00530000
#08156:00000053
#000360:0000000000000000000000000000000013000000000000000000005300000000
#000320:00000033
#001320:24
#0003b1:0013
#000371:00000023
#0013a1:14
#001361:005400240000000000000000000000000000000000000000
#0013b1:00130000
#001371:000000000000005300230000000000000000000000000000
#0013c1:0012
#001381:000000000000000000000000005200220000000000000000
#0013b1:0000000000000013
#002371:53
#0023b1:0023000000000000
#0023a1:0000000000000014
#003371:0023000000000000
#004321:00132300
#004361:0000005300000000
#004361:00000013
#004321:0000000000000023
#005321:14
#005361:005400240000000000000000000000000000000000000000
#005321:00130000
#005361:000000000000005300230000000000000000000000000000
#005321:0012
#005361:000000000000000000000000005200220000000000000000
#005321:0000000000000013
#006361:53
#006321:0023000000000000
#006321:0000000000000014
#007361:0023000000000000
#007351:00000000000000000000001300230000
#007380:00000000000000000000000000130023
#008340:0013
#008360:0000000000540000
#008320:00000026
#010380:1323000000000000
#010380:0000000013230000
#010351:0000000000132300
#012321:1323000000000000
#0123b1:0000001300000000
#012391:00000000000000330000000000000000
#012371:0023
#012320:0000000013230000
#012371:0000000000132300
#014381:1323000000000000
#014381:0000000013230000
#014350:0000000000132300
#0163b0:13
#0163a0:00330000000000000000000000000000
#016390:0033000000000000
#016380:00000033000000000000000000000000
#016370:00230000
#016321:00130000
#016331:00000000003300000000000000000000
#016341:0000003300000000
#016351:00000000000000330000000000000000
#016361:0023
#0163b0:0000000013230000
#016321:0000000000132300
#0173a1:14
#017361:005400240000000000000000000000000000000000000000
#017321:00130000
#017361:000000000000005300230000000000000000000000000000
#0173c1:0012
#017381:000000000000000000000000005200220000000000000000
#017361:0000000000000013
#018321:0023000000000000
#018380:00001333230000000000000000000000
#018351:00000000133323000000000000000000
#0183b0:00000000000013332300000000000000
#018321:0013
#018361:00000023
#0183b1:0000000000000013
#019371:5323000000000000
#019320:0013000000000000
#019340:00000033000000000000000000000000
#019360:00230000
#0193b0:0000001300000000
#019390:00000000000000330000000000000000
#019370:0023
#019321:00001323
#019341:00000000000000000033003300000000
#019361:0000000000330000
#0193b0:00000013
#019390:00000000000000000000000000330033
#019370:0000000000000033
#0203b0:23
#020320:0000000000132300
#021320:12
#021360:005200220000000000000000000000000000000000000000
#0213b0:00130000
#021370:000000000000005300230000000000000000000000000000
#021320:0014
#021360:000000000000000000000000005400240000000000000000
#021370:0000000000000013
#0223b0:0023000000000000
#022351:0013230000000000
#022380:0000132300000000
#022321:0000001323000000
#0223b0:0013
#022370:00000023
#022320:0000000000000013
#023360:53
#023320:0023000000000000
#0233b1:00001333230000000000000000000000
#024381:13
#0243b1:00230000
#024350:00130000
#024320:0023
#024371:0013
#0243b1:00000023
#024360:00000013
#025320:23
#028360:001400000000000000000000
#028380:003400000000
#0283a0:00240000
#028360:001400
#028380:000000000034000000000000
#0283a0:0024
#028360:000000000000001400000000
#028380:000034
#0283a0:00000024
#032360:0014
#032370:0000000000520000
#032340:00000028
#033320:0000000000000013
#034360:0023000000000000
#0343b1:0013000000000000
#034391:00000033000000000000000000000000
#034371:00230000
#034321:0000001300000000
#034341:00000000000000330000000000000000
#034361:0023
#0343b1:0000000000130000
#034391:00000000000000000000003300000000
#034371:00000023
#034321:0000000000000013
#035361:23
#0353b1:00000000000000001300002300000000
#035371:0000000000000000000000000000000000000053000000000000000000000000
#035360:00000000000000000000001300002300
#035320:0000000000000000000000000000000000000000000000000053000000000000
#0373b0:0000000000000013
#038370:53
#0383b0:0023000000000000
#039360:00000000000000001300002300000000
#039320:0000000000000000000000000000000000000053000000000000000000000000
#0393b1:00000000000000000000001300002300
#039371:0000000000000000000000000000000000000000000000000053000000000000
#040391:13250000
#040361:0054000000000000
#040340:00130000
#040360:0000005400000000
#040320:0025
#040391:0013
#040371:00000027
#044351:0000000000132300
#048361:13
#048351:00330000000000000000000000000000
#048341:0033000000000000
#048331:00000033000000000000000000000000
#048321:00230000
#048370:00130000
#048380:00000000003300000000000000000000
#048390:0000003300000000
#0483a0:00000000000000330000000000000000
#0483b0:0023
#048321:0000000013230000
#0483b0:0000000000132300
#048330:00000000000000000000000000001333
#049320:23
#049340:0013000000000000
#049330:00000033000000000000000000000000
#049320:00230000
#049350:00000000000013330000000000000000
#049320:0023
#049360:0000000000130000
#049340:00000000000000000000003300000000
#049320:00000023
#0503a0:00000000000000000000000000001333
#0513b0:23
#051390:0013000000000000
#0513a0:00000033000000000000000000000000
#0513b0:00230000
#051380:00000000000013330000000000000000
#0513b0:0023
#051370:0000000000130000
#051390:00000000000000000000003300000000
#0513b0:00000023
#053360:0000000000000014
#053380:00000000000000000000000000000034
#0543a0:24
#054360:0014000000000000
#054340:00000034000000000000000000000000
#054320:00240000
#054360:0000001400000000
#054380:00000000000000340000000000000000
#0543a0:0024
#055360:0000000000000014
#056320:24
#056320:00142400
#056340:00000000003400340000000000000000
#056360:0000003400000000
#0563a1:00001424
#056361:0000000000540000
#059321:1323000000000000
#0593b0:00001333330000000000000000000000
#0593a0:00000000003300000000000000000000
#059390:0000003300000000
#059380:00000000000000330000000000000000
#059370:0023
#059321:0013
#059331:00000000000000000033000000000000
#059341:0000000000330000
#059351:00000000000000000000003300000000
#059361:00000023
#0593b0:00000013
#0593a0:00000000000000000000000000330000
#059390:0000000000000033
#059380:00000000000000000000000000000033
#060370:23
#060321:13230000
#060341:00330033000000000000000000000000
#060361:0033000000000000
#0603b0:00132300
#060390:00000000003300330000000000000000
#060370:0000003300000000
#063380:00000000000000000013002300000000
#063350:0000000000000013
#064350:23
#0643b1:133333333333000000000000000000000000000000000000
#064371:00230000
#064320:000000000000133333333333000000000000000000000000
#064360:0023
#065380:0000000000000013
#066380:0023000000000000
#066320:0000132300000000
#0663b1:0000001323000000
#066350:0013
#066320:0000000000230000
#066381:0000000000130000
#0663b1:00000023
#066350:0000000000001323
#068320:13230000
#068350:0033000000000000
#068381:0000132300000000
#069351:0000000000000013
#070351:0023000000000000
#0703b1:0000132300000000
#070320:0000001323000000
#070381:0013
#0703b1:0000000000230000
#070350:0000000000130000
#070320:00000023
#070381:0000000000001323
#071321:00130000
#071351:0000002300000000
#0713b1:0000000000001323
#071360:0000000000000013
#072360:23
#0723b1:13330000
#072391:0053000000000000
#072371:0000005400000000
#0723a1:0034
#072351:0000000000550000
#072381:00000026
#073371:0000000000000013
#0743b1:0023000000000000
#074360:0013000000000000
#074340:00000033000000000000000000000000
#074320:00230000
#074371:00130000
#074391:00000000003300000000000000000000
#0743b1:0000002300000000
#074360:0000001300000000
#074340:00000000000000330000000000000000
#074320:0023
#0743b0:0000000000000013
#075370:23
#075370:00000000000000001300002300000000
#0753b0:0000000000000000000000000000000000000053000000000000000000000000
#075321:00000000000000000000001300002300
#075361:0000000000000000000000000000000000000000000000000053000000000000
#076341:13
#076361:0053000000000000
#076321:00260000
#076390:00130000
#076370:0000005300000000
#076380:0026
#076341:0013
#076361:0000000000530000
#076321:00000026
#077361:0000000000000013
#078321:0023000000000000
#0783b1:00000000000000000000000000000013
#079371:0023000000000000
#079361:00000000000000001300002300000000
#079321:0000000000000000000000000000000000000053000000000000000000000000
#0793b0:00000000000000000000001300002300
#079370:0000000000000000000000000000000000000000000000000053000000000000
#0803a0:14
#080360:0054000000000000
#080380:00260000
#080321:00142600
#080361:0000005400000000
#080381:00000013
#0803b1:0000000000000000000000000000000000000000000000000033333333333333
#081381:3333
#0813b1:0053005300530053
#081371:00330000
#081391:00000033
#082381:3323
#0823b1:0053005300000000
#082371:00330000
#080350:00000013
#080320:0000000000000000000000000000000000000000000000000033333333333333
#081350:3333
#081320:0053005300530053
#081340:00330000
#081360:00000033
#082350:3323
#082320:0053005300000000
#082340:00330000
#0823b0:0000000000000013
#083370:0023000000000000
#083321:0013000000000000
#083341:00000033000000000000000000000000
#083361:00230000
#0833b0:00130000
#083390:00000000003300000000000000000000
#083370:0000002300000000
#083321:0000001300000000
#083341:00000000000000330000000000000000
#083361:0023
#083371:0000000000001323
#083320:0000000000000013
#084320:23
#0843b1:1323000000000000
#084360:0013230000000000
#084320:0000000013230000
#084381:0000000000133300
#0843b1:0000000000000053
#085381:3333
#0853b1:0053005300530053
#085391:00330000
#085371:00000033
#086381:3323
#0863b1:0053005300000000
#086391:00330000
#084350:00000013
#084320:0000000000000053
#085350:3333
#085320:0053005300530053
#085360:00330000
#085340:00000033
#086350:3323
#086320:0053005300000000
#086360:00330000
#086320:0000000000000013
#087360:0023000000000000
#0873b1:0013230000000000
#087321:00000000000000000000001300000000
#087361:00000000000000000000000000230000
#0873b0:00000000000000000000000000130000
#087370:00000000000000000000000000000023
#0883a0:00000012
#089380:26
#089321:13260000
#089361:0054000000000000
#0893b0:00130000
#089360:0000005400000000
#089380:0026
#089321:00001326
#089361:0000000000550000
#089380:000000000000000000000000000000000000000000000000000000000000000000000000165555555555555555555555
#089390:000000000000000000000000000000000000000000000000000000000000000000000000000000000000000000000000000000000000000000000000000000000000000000000000005500550055005500550055005500550055005500550055
#090380:55
#0903a0:005400540054005400540054005400540054005400540054000053005300530053005300530053005300530053005300540000000000000000000000000000000000000000000000000000000000000000000000000000000000000000000000
#090390:005454545454545454545454540000000000000000000000000000000000000000000000000000000000000000000000
#0903b0:000000000000000000000000000000000000000000000000005300530053005300530053005300530053005300530053000000000000000000000000000000000000000000000000000000000000000000000000000000000000000000000000
#0923c0:22
